<svg xmlns="http://www.w3.org/2000/svg">
<defs>
<font id="GTAmerica-CompressedBlack" horiz-adv-x="464">
  <font-face font-family="GT America Compressed Black" font-weight="900" font-stretch="ultra-condensed" units-per-em="1000" panose-1="0 0 10 8 0 0 0 0 0 0" ascent="785" descent="-215" x-height="500" cap-height="710" bbox="-436 -243 1014 968" underline-thickness="50" underline-position="-100" stemh="127" stemv="167" unicode-range="U+000D-FB02"/>

<glyph glyph-name="fi" unicode="fi" horiz-adv-x="547" d="M295 500v-106h-74v-394h-157v394h-52v106h52v65c0 113 55 166 174 166c16 0 37 -1 57 -4v-121c-14 1 -18 2 -26 2c-33 0 -48 -17 -48 -56v-52h74zM348 565v147h157v-147h-157zM351 0v500h151v-500h-151z"/>
    <glyph glyph-name="fl" unicode="fl" horiz-adv-x="555" d="M295 500v-106h-74v-394h-157v394h-52v106h52v65c0 113 55 166 174 166c16 0 37 -1 57 -4v-121c-14 1 -18 2 -26 2c-33 0 -48 -17 -48 -56v-52h74zM509 725v-725h-157v725h157z"/>
    <glyph glyph-name="g_g.liga" unicode="gg" horiz-adv-x="823" d="M278 503c13 54 50 84 108 84c10 0 16 0 25 -2v-111c-15 4 -29 6 -43 6c-12 0 -23 -2 -33 -5c33 -26 51 -66 51 -118v-34c0 -100 -65 -155 -184 -155c-21 0 -41 2 -58 5c-4 -4 -6 -9 -6 -17c0 -17 12 -23 40 -28l84 -14c86 -14 137 -58 137 -139v-20 c0 -101 -67 -162 -203 -162c-116 0 -184 43 -184 112v10c0 43 26 72 72 87c-38 16 -60 48 -60 90c0 51 31 83 79 93c-56 24 -85 71 -85 138v34c0 100 65 155 184 155c29 0 54 -3 76 -9zM686 114c89 -13 137 -58 137 -139v-20c0 -101 -80 -162 -216 -162 c-116 0 -183 43 -183 112v10c0 42 26 72 72 86c-38 17 -60 49 -60 91c0 49 29 81 75 93c-57 23 -87 70 -87 138v34c0 100 65 155 184 155c29 0 54 -3 76 -9c13 54 50 84 108 84c10 0 16 0 25 -2v-111c-15 4 -29 6 -43 6c-12 0 -23 -2 -33 -5c33 -26 51 -66 51 -118v-34 c0 -100 -65 -155 -184 -155c-19 0 -37 1 -53 4c-3 -4 -5 -9 -5 -16c0 -17 12 -24 40 -28zM239 296v88c0 33 -14 51 -37 51s-37 -18 -37 -51v-88c0 -33 14 -51 37 -51s37 18 37 51zM571 384v-88c0 -33 14 -51 37 -51s37 18 37 51v88c0 33 -14 51 -37 51s-37 -18 -37 -51z M686 -77v12c0 25 -14 41 -43 44l-88 9c-3 -7 -5 -16 -5 -27v-19c0 -46 24 -67 69 -67s67 17 67 48zM219 -21l-76 9c-3 -7 -5 -16 -5 -27v-19c0 -46 21 -67 66 -67c37 0 58 17 58 48v12c0 25 -14 40 -43 44z"/>
    <glyph glyph-name=".notdef" horiz-adv-x="1018" d="M998 663h-552v-47h552v-48h-552v-47h552v-48h-552v-47h552v-47h-552v-48h552v-47h-978v426h978v-47zM67 667l13 9h-16l-5 15l-4 -15h-16l13 -9l-5 -15l12 9l13 -9zM142 676h-16l13 -9l-5 -15l12 10l13 -10l-5 15l12 9h-15l-5 15zM229 676h-16l13 -9l-5 -15l12 10l13 -10 l-5 15l12 9h-15l-5 15zM315 676h-15l13 -9l-5 -15l12 10l13 -10l-5 15l12 9h-15l-5 15zM415 667l12 9h-15l-5 15l-5 -15h-15l12 -9l-4 -15l12 10l13 -10zM98 632h-15l12 -9l-4 -14l12 9l12 -9l-4 14l12 9h-15l-5 15zM371 623l13 9h-16l-4 15l-5 -15h-15l12 -9l-5 -14l13 9 l12 -9zM273 364v93h94v80h-94v94h-80v-94h-93v-80h93v-93h80zM67 580l13 9h-16l-5 14l-4 -14h-16l13 -9l-5 -15l12 9l13 -9zM142 589h-16l13 -9l-5 -15l12 9l13 -9l-5 15l12 9h-15l-5 14zM315 589h-15l13 -9l-5 -15l12 9l13 -9l-5 15l12 9h-15l-5 14zM415 580l12 9h-15 l-5 14l-5 -14h-15l12 -9l-4 -15l12 9l13 -9zM67 492l13 10h-16l-5 14l-4 -14h-16l13 -10l-5 -14l12 9l13 -9zM415 492l12 10h-15l-5 14l-5 -14h-15l12 -10l-4 -14l12 9l13 -9zM67 405l13 9h-16l-5 15l-4 -15h-16l13 -9l-5 -14l12 9l13 -9zM154 405l12 9h-15l-5 15l-4 -15 h-16l13 -9l-5 -14l12 9l13 -9zM328 405l12 9h-15l-5 15l-5 -15h-15l13 -9l-5 -14l12 9l13 -9zM415 405l12 9h-15l-5 15l-5 -15h-15l12 -9l-4 -14l12 9l13 -9zM115 347l-4 15l12 9h-15l-5 14l-5 -14h-15l12 -9l-4 -15l12 9zM376 347l-5 15l13 9h-16l-4 14l-5 -14h-15l12 -9 l-5 -15l13 9zM72 303l-5 15l13 9h-16l-5 15l-4 -15h-16l13 -9l-5 -15l12 9zM159 303l-5 15l12 9h-15l-5 15l-4 -15h-16l13 -9l-5 -15l12 9zM246 303l-5 15l12 9h-15l-5 15l-4 -15h-16l13 -9l-5 -15l12 9zM333 303l-5 15l12 9h-15l-5 15l-5 -15h-15l13 -9l-5 -15l12 9z M420 303l-5 15l12 9h-15l-5 15l-5 -15h-15l12 -9l-4 -15l12 9zM20 189v48h977v-48h-977zM20 95v47h978v-47h-978zM20 0v47h978v-47h-978z"/>
    <glyph glyph-name="CR" unicode="&#xD;" horiz-adv-x="0"/>
    <glyph glyph-name=".null" horiz-adv-x="0"/>
    <glyph glyph-name="space" unicode=" " horiz-adv-x="163"/>
    <glyph glyph-name="A" unicode="A" horiz-adv-x="512" d="M334 0l-20 146h-117l-20 -146h-167l135 710h221l136 -710h-168zM213 264h85l-29 213c-4 32 -8 58 -12 97h-3c-3 -39 -8 -65 -12 -97z"/>
    <glyph glyph-name="B" unicode="B" horiz-adv-x="497" d="M378 376c65 -23 101 -77 101 -161v-21c0 -118 -68 -194 -207 -194h-226v710h219c140 0 206 -73 206 -179v-23c0 -64 -33 -114 -93 -132zM242 599h-29v-186h29c44 0 58 30 58 90v23c0 49 -15 73 -58 73zM307 199v25c0 61 -18 88 -59 88h-35v-201h35c42 0 59 29 59 88z"/>
    <glyph glyph-name="C" unicode="C" horiz-adv-x="496" d="M250 -17c-147 0 -225 73 -225 223v292c0 150 83 229 229 229c140 0 220 -68 220 -198v-81l-172 -31v108c0 49 -17 74 -51 74c-36 0 -54 -30 -54 -88v-311c0 -58 18 -88 53 -88c34 0 53 27 53 78v112l170 -33v-79c0 -135 -84 -207 -223 -207z"/>
    <glyph glyph-name="D" unicode="D" horiz-adv-x="518" d="M46 0v710h206c154 0 241 -83 241 -232v-237c0 -156 -85 -241 -242 -241h-205zM213 118h35c48 0 73 44 73 113v256c0 71 -21 105 -73 105h-35v-474z"/>
    <glyph glyph-name="E" unicode="E" horiz-adv-x="415" d="M213 125h187v-125h-354v710h347v-125h-180v-157h167v-125h-167v-178z"/>
    <glyph glyph-name="F" unicode="F" horiz-adv-x="398" d="M393 584h-180v-158h167v-125h-167v-301h-167v710h347v-126z"/>
    <glyph glyph-name="G" unicode="G" horiz-adv-x="508" d="M197 -17c-113 0 -172 82 -172 235v265c0 155 83 244 231 244c137 0 218 -66 218 -187v-56l-171 -30v80c0 48 -16 72 -50 72c-38 0 -56 -32 -56 -97v-300c0 -64 20 -99 62 -99c37 0 56 29 56 77v85h-64v124h223v-396h-120l-6 108c-14 -74 -65 -125 -151 -125z"/>
    <glyph glyph-name="H" unicode="H" horiz-adv-x="530" d="M484 710v-710h-167v297h-104v-297h-167v710h167v-286h104v286h167z"/>
    <glyph glyph-name="I" unicode="I" horiz-adv-x="259" d="M213 0h-167v710h167v-710z"/>
    <glyph glyph-name="J" unicode="J" horiz-adv-x="300" d="M260 157c0 -135 -89 -169 -185 -169c-28 0 -50 2 -72 6v144c16 -2 24 -3 34 -3c28 0 57 12 57 65v510h166v-553z"/>
    <glyph glyph-name="K" unicode="K" horiz-adv-x="510" d="M328 0l-73 293l-42 -94v-199h-167v710h167v-312l116 312h170l-120 -280l126 -430h-177z"/>
    <glyph glyph-name="L" unicode="L" horiz-adv-x="391" d="M46 0v710h167v-566h171v-144h-338z"/>
    <glyph glyph-name="M" unicode="M" horiz-adv-x="635" d="M46 0v710h215l45 -299c5 -37 10 -80 10 -104h4c0 24 5 67 10 104l44 299h215v-710h-141v314c0 64 0 131 3 193h-4c-3 -30 -7 -61 -12 -93l-65 -414h-106l-67 414c-4 32 -9 65 -11 93h-5c4 -62 4 -129 4 -193v-314h-139z"/>
    <glyph glyph-name="N" unicode="N" horiz-adv-x="537" d="M46 0v710h176l97 -287c9 -33 20 -67 28 -98h3c-2 49 -3 98 -3 146v239h144v-710h-158l-111 324c-12 38 -23 73 -31 107h-3c2 -45 3 -91 3 -139v-292h-145z"/>
    <glyph glyph-name="O" unicode="O" horiz-adv-x="514" d="M257 -17c-144 0 -232 84 -232 234v276c0 150 88 234 232 234s232 -84 232 -234v-276c0 -150 -88 -234 -232 -234zM257 111c38 0 60 29 60 84v320c0 55 -22 84 -60 84s-60 -29 -60 -84v-320c0 -55 22 -84 60 -84z"/>
    <glyph glyph-name="P" unicode="P" horiz-adv-x="485" d="M263 710c142 0 215 -64 216 -188v-58c0 -133 -74 -205 -212 -205h-54v-259h-167v710h217zM306 467v51c0 57 -18 80 -61 80h-32v-224h32c43 0 61 26 61 93z"/>
    <glyph glyph-name="Q" unicode="Q" horiz-adv-x="514" d="M489 217c0 -103 -42 -175 -115 -210c18 -8 40 -10 57 -10c20 0 32 2 49 5v-133c-19 -4 -32 -6 -60 -6c-85 0 -146 44 -170 120c-140 3 -225 86 -225 234v276c0 150 88 234 232 234s232 -84 232 -234v-276zM197 195c0 -55 22 -84 60 -84s60 29 60 84v320 c0 55 -22 84 -60 84s-60 -29 -60 -84v-320z"/>
    <glyph glyph-name="R" unicode="R" horiz-adv-x="499" d="M320 0l-67 282h-40v-282h-167v710h208c162 0 225 -75 225 -197v-29c0 -81 -30 -133 -80 -161l95 -323h-174zM213 384h29c49 0 65 28 65 89v50c0 56 -17 76 -65 76h-29v-215z"/>
    <glyph glyph-name="S" unicode="S" horiz-adv-x="456" d="M229 -17c-137 0 -217 81 -217 198v56l170 32v-89c0 -43 14 -71 48 -71s46 26 46 54v31c0 34 -7 52 -45 75l-114 68c-74 44 -99 95 -99 173v38c0 126 100 179 212 179c129 0 216 -47 216 -189v-52l-167 -30v86c0 34 -12 63 -49 63c-29 0 -45 -22 -45 -49v-30 c0 -29 18 -53 45 -69l113 -67c81 -48 103 -94 103 -167v-66c0 -97 -75 -174 -217 -174z"/>
    <glyph glyph-name="T" unicode="T" horiz-adv-x="422" d="M427 710v-140h-133v-570h-166v570h-133v140h432z"/>
    <glyph glyph-name="U" unicode="U" horiz-adv-x="516" d="M40 710h167v-522c0 -42 18 -65 51 -65s52 23 52 65v522h166v-528c0 -124 -78 -199 -218 -199c-141 0 -218 74 -218 199v528z"/>
    <glyph glyph-name="V" unicode="V" horiz-adv-x="478" d="M133 0l-133 710h172l54 -430c7 -56 9 -95 11 -136h5c2 41 4 80 11 136l54 430h171l-132 -710h-213z"/>
    <glyph glyph-name="W" unicode="W" horiz-adv-x="664" d="M96 0l-80 710h151l28 -398c2 -31 5 -76 4 -112h5l9 98l45 412h148l45 -412c3 -31 5 -63 9 -98h4c0 36 2 81 4 112l28 398h152l-80 -710h-186l-42 358c-5 46 -4 81 -6 115h-5c-1 -34 -1 -69 -6 -115l-41 -358h-186z"/>
    <glyph glyph-name="X" unicode="X" horiz-adv-x="482" d="M6 0l115 375l-107 335h173l38 -161c9 -37 10 -63 14 -100h2c4 35 5 62 14 100l40 161h172l-105 -337l114 -373h-174l-49 209c-6 24 -10 57 -13 99h-3c-2 -28 -5 -59 -13 -98l-45 -210h-173z"/>
    <glyph glyph-name="Y" unicode="Y" horiz-adv-x="466" d="M151 0v230l-152 480h172l49 -226c8 -36 11 -70 14 -107h3c3 37 6 71 13 107l45 226h172l-149 -480v-230h-167z"/>
    <glyph glyph-name="Z" unicode="Z" horiz-adv-x="408" d="M16 120l195 452h-188v138h365v-117l-191 -455h202v-138h-383v120z"/>
    <glyph glyph-name="Aacute" unicode="Á" horiz-adv-x="512" d="M437 867l-112 -115h-139l93 115h158zM334 0l-20 146h-117l-20 -146h-167l135 710h221l136 -710h-168zM213 264h85l-29 213c-4 32 -8 58 -12 97h-3c-3 -39 -8 -65 -12 -97z"/>
    <glyph glyph-name="Abreve" unicode="Ă" horiz-adv-x="512" d="M256 747c-102 0 -160 42 -162 120h114c0 -20 19 -33 48 -33s47 13 48 33h114c-2 -78 -60 -120 -162 -120zM334 0l-20 146h-117l-20 -146h-167l135 710h221l136 -710h-168zM213 264h85l-29 213c-4 32 -8 58 -12 97h-3c-3 -39 -8 -65 -12 -97z"/>
    <glyph glyph-name="Acircumflex" unicode="Â" horiz-adv-x="512" d="M256 817l-49 -65h-124l87 115h171l87 -115h-124zM334 0l-20 146h-117l-20 -146h-167l135 710h221l136 -710h-168zM213 264h85l-29 213c-4 32 -8 58 -12 97h-3c-3 -39 -8 -65 -12 -97z"/>
    <glyph glyph-name="Adieresis" unicode="Ä" horiz-adv-x="512" d="M228 866v-114h-129v114h129zM412 866v-114h-129v114h129zM334 0l-20 146h-117l-20 -146h-167l135 710h221l136 -710h-168zM213 264h85l-29 213c-4 32 -8 58 -12 97h-3c-3 -39 -8 -65 -12 -97z"/>
    <glyph glyph-name="AE" unicode="Æ" horiz-adv-x="698" d="M500 125h183v-125h-350v163h-118l-46 -163h-164l225 710h446v-125h-176v-157h163v-125h-163v-178zM245 270h88v315z"/>
    <glyph glyph-name="AEacute" unicode="Ǽ" horiz-adv-x="698" d="M660 867l-112 -115h-139l93 115h158zM500 125h183v-125h-350v163h-118l-46 -163h-164l225 710h446v-125h-176v-157h163v-125h-163v-178zM245 270h88v315z"/>
    <glyph glyph-name="Agrave" unicode="À" horiz-adv-x="512" d="M324 752h-139l-112 115h158zM334 0l-20 146h-117l-20 -146h-167l135 710h221l136 -710h-168zM213 264h85l-29 213c-4 32 -8 58 -12 97h-3c-3 -39 -8 -65 -12 -97z"/>
    <glyph glyph-name="Amacron" unicode="Ā" horiz-adv-x="512" d="M415 854v-101h-318v101h318zM334 0l-20 146h-117l-20 -146h-167l135 710h221l136 -710h-168zM213 264h85l-29 213c-4 32 -8 58 -12 97h-3c-3 -39 -8 -65 -12 -97z"/>
    <glyph glyph-name="Aogonek" unicode="Ą" horiz-adv-x="512" d="M436 -89l95 -21c-9 -69 -69 -93 -137 -93c-75 0 -128 33 -128 99c0 39 20 75 68 104l-20 146h-117l-20 -146h-167l135 710h221l136 -710h-32c-60 -23 -92 -52 -92 -91c0 -20 9 -33 26 -33s27 11 32 35zM213 264h85l-29 213c-4 32 -8 58 -12 97h-3c-3 -39 -8 -65 -12 -97z "/>
    <glyph glyph-name="Aring" unicode="Å" horiz-adv-x="512" d="M256 738c-70 0 -122 46 -122 115s52 115 122 115s122 -46 122 -115s-52 -115 -122 -115zM256 904c-29 0 -47 -22 -47 -51s18 -50 47 -50s47 21 47 50s-18 51 -47 51zM334 0l-20 146h-117l-20 -146h-167l135 710h221l136 -710h-168zM213 264h85l-29 213 c-4 32 -8 58 -12 97h-3c-3 -39 -8 -65 -12 -97z"/>
    <glyph glyph-name="Atilde" unicode="Ã" horiz-adv-x="512" d="M200 783c-18 0 -29 -13 -33 -41l-89 29c5 72 46 113 108 113c64 0 92 -45 125 -45c18 0 29 13 33 41l89 -29c-5 -72 -46 -113 -108 -113c-64 0 -92 45 -125 45zM334 0l-20 146h-117l-20 -146h-167l135 710h221l136 -710h-168zM213 264h85l-29 213c-4 32 -8 58 -12 97h-3 c-3 -39 -8 -65 -12 -97z"/>
    <glyph glyph-name="Cacute" unicode="Ć" horiz-adv-x="496" d="M179 752l93 115h158l-112 -115h-139zM250 -17c-147 0 -225 73 -225 223v292c0 150 83 229 229 229c140 0 220 -68 220 -198v-81l-172 -31v108c0 49 -17 74 -51 74c-36 0 -54 -30 -54 -88v-311c0 -58 18 -88 53 -88c34 0 53 27 53 78v112l170 -33v-79 c0 -135 -84 -207 -223 -207z"/>
    <glyph glyph-name="Ccaron" unicode="Č" horiz-adv-x="496" d="M421 862l-87 -115h-171l-87 115h124l49 -65l48 65h124zM250 -17c-147 0 -225 73 -225 223v292c0 150 83 229 229 229c140 0 220 -68 220 -198v-81l-172 -31v108c0 49 -17 74 -51 74c-36 0 -54 -30 -54 -88v-311c0 -58 18 -88 53 -88c34 0 53 27 53 78v112l170 -33v-79 c0 -135 -84 -207 -223 -207z"/>
    <glyph glyph-name="Ccedilla" unicode="Ç" horiz-adv-x="496" d="M474 448l-172 -31v108c0 49 -17 74 -51 74c-36 0 -54 -30 -54 -88v-311c0 -58 18 -88 53 -88c34 0 53 27 53 78v112l170 -33v-79c0 -122 -68 -192 -183 -205l-18 -33c10 7 27 12 47 12c52 0 85 -32 85 -87v-1c0 -59 -51 -96 -128 -96c-63 0 -109 24 -127 68l92 24 c6 -15 17 -22 32 -22c19 0 29 11 29 31v1c0 19 -11 29 -28 29c-11 0 -21 -5 -27 -13l-81 15l31 74c-113 16 -172 88 -172 219v292c0 150 83 229 229 229c140 0 220 -68 220 -198v-81z"/>
    <glyph glyph-name="Ccircumflex" unicode="Ĉ" horiz-adv-x="496" d="M421 752h-124l-48 65l-49 -65h-124l87 115h171zM250 -17c-147 0 -225 73 -225 223v292c0 150 83 229 229 229c140 0 220 -68 220 -198v-81l-172 -31v108c0 49 -17 74 -51 74c-36 0 -54 -30 -54 -88v-311c0 -58 18 -88 53 -88c34 0 53 27 53 78v112l170 -33v-79 c0 -135 -84 -207 -223 -207z"/>
    <glyph glyph-name="Cdotaccent" unicode="Ċ" horiz-adv-x="496" d="M175 752v114h148v-114h-148zM250 -17c-147 0 -225 73 -225 223v292c0 150 83 229 229 229c140 0 220 -68 220 -198v-81l-172 -31v108c0 49 -17 74 -51 74c-36 0 -54 -30 -54 -88v-311c0 -58 18 -88 53 -88c34 0 53 27 53 78v112l170 -33v-79c0 -135 -84 -207 -223 -207z "/>
    <glyph glyph-name="Dcaron" unicode="Ď" horiz-adv-x="518" d="M425 862l-87 -115h-171l-87 115h124l49 -65l48 65h124zM46 0v710h206c154 0 241 -83 241 -232v-237c0 -156 -85 -241 -242 -241h-205zM213 118h35c48 0 73 44 73 113v256c0 71 -21 105 -73 105h-35v-474z"/>
    <glyph glyph-name="Dcroat" unicode="Đ" horiz-adv-x="518" d="M252 710c154 0 241 -83 241 -232v-237c0 -156 -85 -241 -242 -241h-205v323h-44v87h44v300h206zM321 231v256c0 71 -21 105 -73 105h-35v-182h60v-87h-60v-205h35c48 0 73 44 73 113z"/>
    <glyph glyph-name="Eacute" unicode="É" horiz-adv-x="415" d="M397 867l-112 -115h-139l93 115h158zM213 125h187v-125h-354v710h347v-125h-180v-157h167v-125h-167v-178z"/>
    <glyph glyph-name="Ebreve" unicode="Ĕ" horiz-adv-x="415" d="M216 747c-102 0 -160 42 -162 120h114c0 -20 19 -33 48 -33s47 13 48 33h114c-2 -78 -60 -120 -162 -120zM213 125h187v-125h-354v710h347v-125h-180v-157h167v-125h-167v-178z"/>
    <glyph glyph-name="Ecaron" unicode="Ě" horiz-adv-x="415" d="M301 747h-171l-87 115h124l49 -65l48 65h124zM213 125h187v-125h-354v710h347v-125h-180v-157h167v-125h-167v-178z"/>
    <glyph glyph-name="Ecircumflex" unicode="Ê" horiz-adv-x="415" d="M216 817l-49 -65h-124l87 115h171l87 -115h-124zM213 125h187v-125h-354v710h347v-125h-180v-157h167v-125h-167v-178z"/>
    <glyph glyph-name="Edieresis" unicode="Ë" horiz-adv-x="415" d="M188 866v-114h-129v114h129zM372 866v-114h-129v114h129zM213 125h187v-125h-354v710h347v-125h-180v-157h167v-125h-167v-178z"/>
    <glyph glyph-name="Edotaccent" unicode="Ė" horiz-adv-x="415" d="M290 866v-114h-148v114h148zM213 125h187v-125h-354v710h347v-125h-180v-157h167v-125h-167v-178z"/>
    <glyph glyph-name="Egrave" unicode="È" horiz-adv-x="415" d="M284 752h-139l-112 115h158zM213 125h187v-125h-354v710h347v-125h-180v-157h167v-125h-167v-178z"/>
    <glyph glyph-name="Emacron" unicode="Ē" horiz-adv-x="415" d="M375 854v-101h-318v101h318zM213 125h187v-125h-354v710h347v-125h-180v-157h167v-125h-167v-178z"/>
    <glyph glyph-name="Eogonek" unicode="Ę" horiz-adv-x="415" d="M366 -89l95 -21c-9 -69 -69 -93 -137 -93c-75 0 -128 33 -128 99c0 39 20 75 68 104h-218v710h347v-125h-180v-157h167v-125h-167v-178h187v-125c-60 -23 -92 -52 -92 -91c0 -20 9 -33 26 -33s27 11 32 35z"/>
    <glyph glyph-name="Eth" unicode="Ð" horiz-adv-x="518" d="M252 710c154 0 241 -83 241 -232v-237c0 -156 -85 -241 -242 -241h-205v323h-44v87h44v300h206zM321 231v256c0 71 -21 105 -73 105h-35v-182h60v-87h-60v-205h35c48 0 73 44 73 113z"/>
    <glyph glyph-name="Gbreve" unicode="Ğ" horiz-adv-x="508" d="M205 867c0 -20 19 -33 48 -33s47 13 48 33h114c-2 -78 -60 -120 -162 -120s-160 42 -162 120h114zM197 -17c-113 0 -172 82 -172 235v265c0 155 83 244 231 244c137 0 218 -66 218 -187v-56l-171 -30v80c0 48 -16 72 -50 72c-38 0 -56 -32 -56 -97v-300 c0 -64 20 -99 62 -99c37 0 56 29 56 77v85h-64v124h223v-396h-120l-6 108c-14 -74 -65 -125 -151 -125z"/>
    <glyph glyph-name="Gcircumflex" unicode="Ĝ" horiz-adv-x="508" d="M425 752h-124l-48 65l-49 -65h-124l87 115h171zM197 -17c-113 0 -172 82 -172 235v265c0 155 83 244 231 244c137 0 218 -66 218 -187v-56l-171 -30v80c0 48 -16 72 -50 72c-38 0 -56 -32 -56 -97v-300c0 -64 20 -99 62 -99c37 0 56 29 56 77v85h-64v124h223v-396h-120 l-6 108c-14 -74 -65 -125 -151 -125z"/>
    <glyph glyph-name="uni0122" unicode="Ģ" horiz-adv-x="508" d="M197 -17c-113 0 -172 82 -172 235v265c0 155 83 244 231 244c137 0 218 -66 218 -187v-56l-171 -30v80c0 48 -16 72 -50 72c-38 0 -56 -32 -56 -97v-300c0 -64 20 -99 62 -99c37 0 56 29 56 77v85h-64v124h223v-396h-120l-6 108c-14 -74 -65 -125 -151 -125zM239 -216 l-30 49c29 5 44 16 44 34h-66v99h132v-80c0 -55 -25 -91 -80 -102z"/>
    <glyph glyph-name="Gdotaccent" unicode="Ġ" horiz-adv-x="508" d="M179 752v114h148v-114h-148zM197 -17c-113 0 -172 82 -172 235v265c0 155 83 244 231 244c137 0 218 -66 218 -187v-56l-171 -30v80c0 48 -16 72 -50 72c-38 0 -56 -32 -56 -97v-300c0 -64 20 -99 62 -99c37 0 56 29 56 77v85h-64v124h223v-396h-120l-6 108 c-14 -74 -65 -125 -151 -125z"/>
    <glyph glyph-name="Hbar" unicode="Ħ" horiz-adv-x="530" d="M536 594v-76h-52v-518h-167v297h-104v-297h-167v518h-53v76h53v116h167v-116h104v116h167v-116h52zM317 424v94h-104v-94h104z"/>
    <glyph glyph-name="Hcircumflex" unicode="Ĥ" horiz-adv-x="530" d="M437 752h-124l-48 65l-49 -65h-124l87 115h171zM484 710v-710h-167v297h-104v-297h-167v710h167v-286h104v286h167z"/>
    <glyph glyph-name="Iacute" unicode="Í" horiz-adv-x="259" d="M61 752l70 115h150l-81 -115h-139zM213 0h-167v710h167v-710z"/>
    <glyph glyph-name="Ibreve" unicode="Ĭ" horiz-adv-x="259" d="M95 867c0 -20 13 -33 35 -33s35 13 35 33h114c-2 -78 -55 -120 -149 -120s-147 42 -149 120h114zM213 0h-167v710h167v-710z"/>
    <glyph glyph-name="Icircumflex" unicode="Î" horiz-adv-x="259" d="M276 752h-114l-32 65l-32 -65h-115l61 115h171zM213 0h-167v710h167v-710z"/>
    <glyph glyph-name="Idieresis" unicode="Ï" horiz-adv-x="259" d="M-12 752v114h127v-114h-127zM144 752v114h128v-114h-128zM213 0h-167v710h167v-710z"/>
    <glyph glyph-name="Idotaccent" unicode="İ" horiz-adv-x="259" d="M56 752v114h148v-114h-148zM213 0h-167v710h167v-710z"/>
    <glyph glyph-name="Igrave" unicode="Ì" horiz-adv-x="259" d="M199 752h-139l-81 115h150zM213 0h-167v710h167v-710z"/>
    <glyph glyph-name="IJ" unicode="Ĳ" horiz-adv-x="559" d="M213 0h-167v710h167v-710zM519 157c0 -135 -89 -169 -185 -169c-28 0 -50 2 -72 6v144c16 -2 24 -3 34 -3c28 0 57 12 57 65v510h166v-553z"/>
    <glyph glyph-name="uni00A40301" horiz-adv-x="300" d="M108 752l70 115h150l-81 -115h-139zM260 157c0 -135 -89 -169 -185 -169c-28 0 -50 2 -72 6v144c16 -2 24 -3 34 -3c28 0 57 12 57 65v510h166v-553z"/>
    <glyph glyph-name="Imacron" unicode="Ī" horiz-adv-x="259" d="M5 753v101h251v-101h-251zM213 0h-167v710h167v-710z"/>
    <glyph glyph-name="Iogonek" unicode="Į" horiz-adv-x="259" d="M148 -89l95 -21c-9 -69 -69 -93 -137 -93c-75 0 -128 33 -128 99c0 39 20 75 68 104v710h167v-710h-31c-60 -23 -92 -52 -92 -91c0 -20 9 -33 26 -33s27 11 32 35z"/>
    <glyph glyph-name="Itilde" unicode="Ĩ" horiz-adv-x="259" d="M186 738c-59 0 -85 45 -114 45c-16 0 -27 -14 -29 -40l-77 30c3 67 41 111 99 111c60 0 85 -46 114 -46c16 0 27 14 28 40l78 -29c-2 -67 -40 -111 -99 -111zM213 0h-167v710h167v-710z"/>
    <glyph glyph-name="Jcircumflex" unicode="Ĵ" horiz-adv-x="300" d="M323 752h-114l-32 65l-32 -65h-115l61 115h171zM260 157c0 -135 -89 -169 -185 -169c-28 0 -50 2 -72 6v144c16 -2 24 -3 34 -3c28 0 57 12 57 65v510h166v-553z"/>
    <glyph glyph-name="uni0136" unicode="Ķ" horiz-adv-x="510" d="M379 430l126 -430h-177l-73 293l-42 -94v-199h-167v710h167v-312l116 312h170zM191 -133v99h132v-80c0 -55 -25 -91 -80 -102l-30 49c29 5 44 16 44 34h-66z"/>
    <glyph glyph-name="Lacute" unicode="Ĺ" horiz-adv-x="391" d="M60 752l93 115h158l-112 -115h-139zM46 0v710h167v-566h171v-144h-338z"/>
    <glyph glyph-name="Lcaron" unicode="Ľ" horiz-adv-x="391" d="M46 0v710h167v-566h171v-144h-338zM289 528l-30 49c29 5 44 16 44 34h-66v99h132v-80c0 -55 -25 -91 -80 -102z"/>
    <glyph glyph-name="uni013B" unicode="Ļ" horiz-adv-x="391" d="M46 0v710h167v-566h171v-144h-338zM207 -216l-30 49c29 5 44 16 44 34h-66v99h132v-80c0 -55 -25 -91 -80 -102z"/>
    <glyph glyph-name="Ldot" unicode="Ŀ" horiz-adv-x="391" d="M46 0v710h167v-566h171v-144h-338zM398 500v-185h-155v185h155z"/>
    <glyph glyph-name="Lslash" unicode="Ł" horiz-adv-x="391" d="M213 144h171v-144h-338v240l-50 -30v108l50 30v362h167v-260l126 76v-108l-126 -76v-198z"/>
    <glyph glyph-name="Nacute" unicode="Ń" horiz-adv-x="537" d="M199 752l93 115h158l-112 -115h-139zM46 0v710h176l97 -287c9 -33 20 -67 28 -98h3c-2 49 -3 98 -3 146v239h144v-710h-158l-111 324c-12 38 -23 73 -31 107h-3c2 -45 3 -91 3 -139v-292h-145z"/>
    <glyph glyph-name="Ncaron" unicode="Ň" horiz-adv-x="537" d="M441 862l-87 -115h-171l-87 115h124l49 -65l48 65h124zM46 0v710h176l97 -287c9 -33 20 -67 28 -98h3c-2 49 -3 98 -3 146v239h144v-710h-158l-111 324c-12 38 -23 73 -31 107h-3c2 -45 3 -91 3 -139v-292h-145z"/>
    <glyph glyph-name="uni0145" unicode="Ņ" horiz-adv-x="537" d="M46 0v710h176l97 -287c9 -33 20 -67 28 -98h3c-2 49 -3 98 -3 146v239h144v-710h-158l-111 324c-12 38 -23 73 -31 107h-3c2 -45 3 -91 3 -139v-292h-145zM255 -216l-30 49c29 5 44 16 44 34h-66v99h132v-80c0 -55 -25 -91 -80 -102z"/>
    <glyph glyph-name="Ntilde" unicode="Ñ" horiz-adv-x="537" d="M338 738c-64 0 -92 45 -125 45c-18 0 -29 -13 -33 -41l-89 29c5 72 46 113 108 113c64 0 92 -45 125 -45c18 0 29 13 33 41l89 -29c-5 -72 -46 -113 -108 -113zM46 0v710h176l97 -287c9 -33 20 -67 28 -98h3c-2 49 -3 98 -3 146v239h144v-710h-158l-111 324 c-12 38 -23 73 -31 107h-3c2 -45 3 -91 3 -139v-292h-145z"/>
    <glyph glyph-name="Eng" unicode="Ŋ" horiz-adv-x="537" d="M347 710h144v-761c0 -126 -80 -157 -168 -157c-29 0 -49 2 -72 5v135c18 -3 29 -3 39 -3c23 0 48 9 48 47v24h-5l-111 324c-12 38 -23 73 -31 107h-3c2 -45 3 -91 3 -139v-292h-145v710h176l97 -287c9 -33 20 -67 28 -98h3c-2 49 -3 98 -3 146v239z"/>
    <glyph glyph-name="Oacute" unicode="Ó" horiz-adv-x="514" d="M187 752l93 115h158l-112 -115h-139zM257 -17c-144 0 -232 84 -232 234v276c0 150 88 234 232 234s232 -84 232 -234v-276c0 -150 -88 -234 -232 -234zM257 111c38 0 60 29 60 84v320c0 55 -22 84 -60 84s-60 -29 -60 -84v-320c0 -55 22 -84 60 -84z"/>
    <glyph glyph-name="Obreve" unicode="Ŏ" horiz-adv-x="514" d="M209 867c0 -20 19 -33 48 -33s47 13 48 33h114c-2 -78 -60 -120 -162 -120s-160 42 -162 120h114zM257 -17c-144 0 -232 84 -232 234v276c0 150 88 234 232 234s232 -84 232 -234v-276c0 -150 -88 -234 -232 -234zM257 111c38 0 60 29 60 84v320c0 55 -22 84 -60 84 s-60 -29 -60 -84v-320c0 -55 22 -84 60 -84z"/>
    <glyph glyph-name="Ocircumflex" unicode="Ô" horiz-adv-x="514" d="M429 752h-124l-48 65l-49 -65h-124l87 115h171zM257 -17c-144 0 -232 84 -232 234v276c0 150 88 234 232 234s232 -84 232 -234v-276c0 -150 -88 -234 -232 -234zM257 111c38 0 60 29 60 84v320c0 55 -22 84 -60 84s-60 -29 -60 -84v-320c0 -55 22 -84 60 -84z"/>
    <glyph glyph-name="Odieresis" unicode="Ö" horiz-adv-x="514" d="M100 752v114h129v-114h-129zM284 752v114h129v-114h-129zM257 -17c-144 0 -232 84 -232 234v276c0 150 88 234 232 234s232 -84 232 -234v-276c0 -150 -88 -234 -232 -234zM257 111c38 0 60 29 60 84v320c0 55 -22 84 -60 84s-60 -29 -60 -84v-320c0 -55 22 -84 60 -84z "/>
    <glyph glyph-name="OE" unicode="Œ" horiz-adv-x="664" d="M462 125h187v-125h-385c-156 0 -239 83 -239 239v239c0 150 84 232 239 232h378v-125h-180v-157h167v-125h-167v-178zM270 118h25v474h-26c-52 0 -75 -35 -75 -112v-243c0 -75 27 -119 76 -119z"/>
    <glyph glyph-name="Ograve" unicode="Ò" horiz-adv-x="514" d="M325 752h-139l-112 115h158zM257 -17c-144 0 -232 84 -232 234v276c0 150 88 234 232 234s232 -84 232 -234v-276c0 -150 -88 -234 -232 -234zM257 111c38 0 60 29 60 84v320c0 55 -22 84 -60 84s-60 -29 -60 -84v-320c0 -55 22 -84 60 -84z"/>
    <glyph glyph-name="Ohungarumlaut" unicode="Ő" horiz-adv-x="514" d="M123 752l86 115h128l-113 -115h-101zM281 752l86 115h128l-113 -115h-101zM257 -17c-144 0 -232 84 -232 234v276c0 150 88 234 232 234s232 -84 232 -234v-276c0 -150 -88 -234 -232 -234zM257 111c38 0 60 29 60 84v320c0 55 -22 84 -60 84s-60 -29 -60 -84v-320 c0 -55 22 -84 60 -84z"/>
    <glyph glyph-name="Omacron" unicode="Ō" horiz-adv-x="514" d="M98 753v101h318v-101h-318zM257 -17c-144 0 -232 84 -232 234v276c0 150 88 234 232 234s232 -84 232 -234v-276c0 -150 -88 -234 -232 -234zM257 111c38 0 60 29 60 84v320c0 55 -22 84 -60 84s-60 -29 -60 -84v-320c0 -55 22 -84 60 -84z"/>
    <glyph glyph-name="Oslash" unicode="Ø" horiz-adv-x="514" d="M436 656c34 -39 53 -94 53 -163v-276c0 -150 -88 -234 -232 -234c-58 0 -106 13 -144 39l-32 -63l-39 27l35 69c-34 39 -52 94 -52 162v276c0 150 88 234 232 234c57 0 106 -13 143 -39l31 61l40 -25zM197 515v-225l120 235c-3 48 -24 74 -60 74c-38 0 -60 -29 -60 -84z M257 111c38 0 60 29 60 84v227l-120 -235c2 -50 24 -76 60 -76z"/>
    <glyph glyph-name="Oslashacute" unicode="Ǿ" horiz-adv-x="514" d="M439 867l-112 -115h-139l93 115h158zM436 656c34 -39 53 -94 53 -163v-276c0 -150 -88 -234 -232 -234c-58 0 -106 13 -144 39l-32 -63l-39 27l35 69c-34 39 -52 94 -52 162v276c0 150 88 234 232 234c57 0 106 -13 143 -39l31 61l40 -25zM197 515v-225l120 235 c-3 48 -24 74 -60 74c-38 0 -60 -29 -60 -84zM257 111c38 0 60 29 60 84v227l-120 -235c2 -50 24 -76 60 -76z"/>
    <glyph glyph-name="Otilde" unicode="Õ" horiz-adv-x="514" d="M326 738c-64 0 -92 45 -125 45c-18 0 -29 -13 -33 -41l-89 29c5 72 46 113 108 113c64 0 92 -45 125 -45c18 0 29 13 33 41l89 -29c-5 -72 -46 -113 -108 -113zM257 -17c-144 0 -232 84 -232 234v276c0 150 88 234 232 234s232 -84 232 -234v-276 c0 -150 -88 -234 -232 -234zM257 111c38 0 60 29 60 84v320c0 55 -22 84 -60 84s-60 -29 -60 -84v-320c0 -55 22 -84 60 -84z"/>
    <glyph glyph-name="Racute" unicode="Ŕ" horiz-adv-x="499" d="M412 867l-112 -115h-139l93 115h158zM320 0l-67 282h-40v-282h-167v710h208c162 0 225 -75 225 -197v-29c0 -81 -30 -133 -80 -161l95 -323h-174zM213 384h29c49 0 65 28 65 89v50c0 56 -17 76 -65 76h-29v-215z"/>
    <glyph glyph-name="Rcaron" unicode="Ř" horiz-adv-x="499" d="M316 747h-171l-87 115h124l49 -65l48 65h124zM320 0l-67 282h-40v-282h-167v710h208c162 0 225 -75 225 -197v-29c0 -81 -30 -133 -80 -161l95 -323h-174zM213 384h29c49 0 65 28 65 89v50c0 56 -17 76 -65 76h-29v-215z"/>
    <glyph glyph-name="uni0156" unicode="Ŗ" horiz-adv-x="499" d="M399 323l95 -323h-174l-67 282h-40v-282h-167v710h208c162 0 225 -75 225 -197v-29c0 -81 -30 -133 -80 -161zM213 384h29c49 0 65 28 65 89v50c0 56 -17 76 -65 76h-29v-215zM185 -133v99h132v-80c0 -55 -25 -91 -80 -102l-30 49c29 5 44 16 44 34h-66z"/>
    <glyph glyph-name="Sacute" unicode="Ś" horiz-adv-x="456" d="M163 752l93 115h158l-112 -115h-139zM229 -17c-137 0 -217 81 -217 198v56l170 32v-89c0 -43 14 -71 48 -71s46 26 46 54v31c0 34 -7 52 -45 75l-114 68c-74 44 -99 95 -99 173v38c0 126 100 179 212 179c129 0 216 -47 216 -189v-52l-167 -30v86c0 34 -12 63 -49 63 c-29 0 -45 -22 -45 -49v-30c0 -29 18 -53 45 -69l113 -67c81 -48 103 -94 103 -167v-66c0 -97 -75 -174 -217 -174z"/>
    <glyph glyph-name="Scaron" unicode="Š" horiz-adv-x="456" d="M405 862l-87 -115h-171l-87 115h124l49 -65l48 65h124zM229 -17c-137 0 -217 81 -217 198v56l170 32v-89c0 -43 14 -71 48 -71s46 26 46 54v31c0 34 -7 52 -45 75l-114 68c-74 44 -99 95 -99 173v38c0 126 100 179 212 179c129 0 216 -47 216 -189v-52l-167 -30v86 c0 34 -12 63 -49 63c-29 0 -45 -22 -45 -49v-30c0 -29 18 -53 45 -69l113 -67c81 -48 103 -94 103 -167v-66c0 -97 -75 -174 -217 -174z"/>
    <glyph glyph-name="Scedilla" unicode="Ş" horiz-adv-x="456" d="M446 486l-167 -30v86c0 34 -12 63 -49 63c-29 0 -45 -22 -45 -49v-30c0 -29 18 -53 45 -69l113 -67c81 -48 103 -94 103 -167v-66c0 -85 -58 -155 -168 -171l-19 -34c10 7 27 12 47 12c52 0 85 -32 85 -87v-1c0 -59 -51 -96 -128 -96c-63 0 -109 24 -127 68l92 24 c6 -15 17 -22 32 -22c19 0 29 11 29 31v1c0 19 -11 29 -28 29c-11 0 -21 -5 -27 -13l-81 15l31 73c-109 16 -172 91 -172 195v56l170 32v-89c0 -43 14 -71 48 -71s46 26 46 54v31c0 34 -7 52 -45 75l-114 68c-74 44 -99 95 -99 173v38c0 126 100 179 212 179 c129 0 216 -47 216 -189v-52z"/>
    <glyph glyph-name="Scircumflex" unicode="Ŝ" horiz-adv-x="456" d="M405 752h-124l-48 65l-49 -65h-124l87 115h171zM229 -17c-137 0 -217 81 -217 198v56l170 32v-89c0 -43 14 -71 48 -71s46 26 46 54v31c0 34 -7 52 -45 75l-114 68c-74 44 -99 95 -99 173v38c0 126 100 179 212 179c129 0 216 -47 216 -189v-52l-167 -30v86 c0 34 -12 63 -49 63c-29 0 -45 -22 -45 -49v-30c0 -29 18 -53 45 -69l113 -67c81 -48 103 -94 103 -167v-66c0 -97 -75 -174 -217 -174z"/>
    <glyph glyph-name="uni0218" unicode="Ș" horiz-adv-x="456" d="M229 -17c-137 0 -217 81 -217 198v56l170 32v-89c0 -43 14 -71 48 -71s46 26 46 54v31c0 34 -7 52 -45 75l-114 68c-74 44 -99 95 -99 173v38c0 126 100 179 212 179c129 0 216 -47 216 -189v-52l-167 -30v86c0 34 -12 63 -49 63c-29 0 -45 -22 -45 -49v-30 c0 -29 18 -53 45 -69l113 -67c81 -48 103 -94 103 -167v-66c0 -97 -75 -174 -217 -174zM224 -216l-30 49c29 5 44 16 44 34h-66v99h132v-80c0 -55 -25 -91 -80 -102z"/>
    <glyph glyph-name="Tbar" unicode="Ŧ" horiz-adv-x="422" d="M427 570h-133v-98h77v-76h-77v-396h-166v396h-75v76h75v98h-133v140h432v-140z"/>
    <glyph glyph-name="Tcaron" unicode="Ť" horiz-adv-x="422" d="M297 747h-171l-87 115h124l49 -65l48 65h124zM427 710v-140h-133v-570h-166v570h-133v140h432z"/>
    <glyph glyph-name="uni0162" unicode="Ţ" horiz-adv-x="422" d="M294 0h-35l-26 -48c10 7 27 12 47 12c52 0 85 -32 85 -87v-1c0 -59 -51 -96 -128 -96c-63 0 -109 24 -127 68l92 24c6 -15 17 -22 32 -22c19 0 29 11 29 31v1c0 19 -11 29 -28 29c-11 0 -21 -5 -27 -13l-81 15l37 87h-36v570h-133v140h432v-140h-133v-570z"/>
    <glyph glyph-name="uni021A" unicode="Ț" horiz-adv-x="422" d="M427 710v-140h-133v-570h-166v570h-133v140h432zM146 -133v99h132v-80c0 -55 -25 -91 -80 -102l-30 49c29 5 44 16 44 34h-66z"/>
    <glyph glyph-name="Thorn" unicode="Þ" horiz-adv-x="483" d="M277 588c128 0 200 -65 200 -183v-49c0 -128 -74 -203 -200 -203h-64v-153h-167v710h167v-122h64zM305 341v59c0 53 -18 77 -63 77h-29v-213h29c45 0 63 25 63 77z"/>
    <glyph glyph-name="Uacute" unicode="Ú" horiz-adv-x="516" d="M188 752l93 115h158l-112 -115h-139zM40 710h167v-522c0 -42 18 -65 51 -65s52 23 52 65v522h166v-528c0 -124 -78 -199 -218 -199c-141 0 -218 74 -218 199v528z"/>
    <glyph glyph-name="Ubreve" unicode="Ŭ" horiz-adv-x="516" d="M210 867c0 -20 19 -33 48 -33s47 13 48 33h114c-2 -78 -60 -120 -162 -120s-160 42 -162 120h114zM40 710h167v-522c0 -42 18 -65 51 -65s52 23 52 65v522h166v-528c0 -124 -78 -199 -218 -199c-141 0 -218 74 -218 199v528z"/>
    <glyph glyph-name="Ucircumflex" unicode="Û" horiz-adv-x="516" d="M430 752h-124l-48 65l-49 -65h-124l87 115h171zM40 710h167v-522c0 -42 18 -65 51 -65s52 23 52 65v522h166v-528c0 -124 -78 -199 -218 -199c-141 0 -218 74 -218 199v528z"/>
    <glyph glyph-name="Udieresis" unicode="Ü" horiz-adv-x="516" d="M101 752v114h129v-114h-129zM285 752v114h129v-114h-129zM40 710h167v-522c0 -42 18 -65 51 -65s52 23 52 65v522h166v-528c0 -124 -78 -199 -218 -199c-141 0 -218 74 -218 199v528z"/>
    <glyph glyph-name="Ugrave" unicode="Ù" horiz-adv-x="516" d="M326 752h-139l-112 115h158zM40 710h167v-522c0 -42 18 -65 51 -65s52 23 52 65v522h166v-528c0 -124 -78 -199 -218 -199c-141 0 -218 74 -218 199v528z"/>
    <glyph glyph-name="Uhungarumlaut" unicode="Ű" horiz-adv-x="516" d="M124 752l86 115h128l-113 -115h-101zM282 752l86 115h128l-113 -115h-101zM40 710h167v-522c0 -42 18 -65 51 -65s52 23 52 65v522h166v-528c0 -124 -78 -199 -218 -199c-141 0 -218 74 -218 199v528z"/>
    <glyph glyph-name="Umacron" unicode="Ū" horiz-adv-x="516" d="M99 753v101h318v-101h-318zM40 710h167v-522c0 -42 18 -65 51 -65s52 23 52 65v522h166v-528c0 -124 -78 -199 -218 -199c-141 0 -218 74 -218 199v528z"/>
    <glyph glyph-name="Uogonek" unicode="Ų" horiz-adv-x="516" d="M310 710h166v-528c0 -92 -43 -157 -122 -184c-56 -23 -86 -51 -86 -89c0 -20 9 -33 26 -33s27 11 32 35l95 -21c-9 -69 -69 -93 -137 -93c-75 0 -128 33 -128 99c0 33 15 64 49 91c-107 17 -165 87 -165 195v528h167v-522c0 -42 18 -65 51 -65s52 23 52 65v522z"/>
    <glyph glyph-name="Uring" unicode="Ů" horiz-adv-x="516" d="M258 738c-70 0 -122 46 -122 115s52 115 122 115s122 -46 122 -115s-52 -115 -122 -115zM258 803c29 0 47 21 47 50s-18 51 -47 51s-47 -22 -47 -51s18 -50 47 -50zM40 710h167v-522c0 -42 18 -65 51 -65s52 23 52 65v522h166v-528c0 -124 -78 -199 -218 -199 c-141 0 -218 74 -218 199v528z"/>
    <glyph glyph-name="Utilde" unicode="Ũ" horiz-adv-x="516" d="M327 738c-64 0 -92 45 -125 45c-18 0 -29 -13 -33 -41l-89 29c5 72 46 113 108 113c64 0 92 -45 125 -45c18 0 29 13 33 41l89 -29c-5 -72 -46 -113 -108 -113zM40 710h167v-522c0 -42 18 -65 51 -65s52 23 52 65v522h166v-528c0 -124 -78 -199 -218 -199 c-141 0 -218 74 -218 199v528z"/>
    <glyph glyph-name="Wacute" unicode="Ẃ" horiz-adv-x="664" d="M262 752l93 115h158l-112 -115h-139zM96 0l-80 710h151l28 -398c2 -31 5 -76 4 -112h5l9 98l45 412h148l45 -412c3 -31 5 -63 9 -98h4c0 36 2 81 4 112l28 398h152l-80 -710h-186l-42 358c-5 46 -4 81 -6 115h-5c-1 -34 -1 -69 -6 -115l-41 -358h-186z"/>
    <glyph glyph-name="Wcircumflex" unicode="Ŵ" horiz-adv-x="664" d="M504 752h-124l-48 65l-49 -65h-124l87 115h171zM96 0l-80 710h151l28 -398c2 -31 5 -76 4 -112h5l9 98l45 412h148l45 -412c3 -31 5 -63 9 -98h4c0 36 2 81 4 112l28 398h152l-80 -710h-186l-42 358c-5 46 -4 81 -6 115h-5c-1 -34 -1 -69 -6 -115l-41 -358h-186z"/>
    <glyph glyph-name="Wdieresis" unicode="Ẅ" horiz-adv-x="664" d="M175 752v114h129v-114h-129zM359 752v114h129v-114h-129zM96 0l-80 710h151l28 -398c2 -31 5 -76 4 -112h5l9 98l45 412h148l45 -412c3 -31 5 -63 9 -98h4c0 36 2 81 4 112l28 398h152l-80 -710h-186l-42 358c-5 46 -4 81 -6 115h-5c-1 -34 -1 -69 -6 -115l-41 -358h-186 z"/>
    <glyph glyph-name="Wgrave" unicode="Ẁ" horiz-adv-x="664" d="M400 752h-139l-112 115h158zM96 0l-80 710h151l28 -398c2 -31 5 -76 4 -112h5l9 98l45 412h148l45 -412c3 -31 5 -63 9 -98h4c0 36 2 81 4 112l28 398h152l-80 -710h-186l-42 358c-5 46 -4 81 -6 115h-5c-1 -34 -1 -69 -6 -115l-41 -358h-186z"/>
    <glyph glyph-name="Yacute" unicode="Ý" horiz-adv-x="466" d="M163 752l93 115h158l-112 -115h-139zM151 0v230l-152 480h172l49 -226c8 -36 11 -70 14 -107h3c3 37 6 71 13 107l45 226h172l-149 -480v-230h-167z"/>
    <glyph glyph-name="Ycircumflex" unicode="Ŷ" horiz-adv-x="466" d="M405 752h-124l-48 65l-49 -65h-124l87 115h171zM151 0v230l-152 480h172l49 -226c8 -36 11 -70 14 -107h3c3 37 6 71 13 107l45 226h172l-149 -480v-230h-167z"/>
    <glyph glyph-name="Ydieresis" unicode="Ÿ" horiz-adv-x="466" d="M76 752v114h129v-114h-129zM260 752v114h129v-114h-129zM151 0v230l-152 480h172l49 -226c8 -36 11 -70 14 -107h3c3 37 6 71 13 107l45 226h172l-149 -480v-230h-167z"/>
    <glyph glyph-name="Ygrave" unicode="Ỳ" horiz-adv-x="466" d="M301 752h-139l-112 115h158zM151 0v230l-152 480h172l49 -226c8 -36 11 -70 14 -107h3c3 37 6 71 13 107l45 226h172l-149 -480v-230h-167z"/>
    <glyph glyph-name="Zacute" unicode="Ź" horiz-adv-x="408" d="M135 752l93 115h158l-112 -115h-139zM16 120l195 452h-188v138h365v-117l-191 -455h202v-138h-383v120z"/>
    <glyph glyph-name="Zcaron" unicode="Ž" horiz-adv-x="408" d="M377 862l-87 -115h-171l-87 115h124l49 -65l48 65h124zM16 120l195 452h-188v138h365v-117l-191 -455h202v-138h-383v120z"/>
    <glyph glyph-name="Zdotaccent" unicode="Ż" horiz-adv-x="408" d="M131 752v114h148v-114h-148zM16 120l195 452h-188v138h365v-117l-191 -455h202v-138h-383v120z"/>
    <glyph glyph-name="a" unicode="a" horiz-adv-x="442" d="M142 -12c-77 0 -127 48 -127 122v40c0 41 17 78 46 101c24 19 58 34 112 46l75 17v59c0 27 -11 39 -32 39c-22 0 -34 -14 -34 -41v-46h-156v36c0 99 72 151 191 151c130 0 188 -48 188 -159v-245c0 -49 2 -83 8 -108h-149c-3 22 -6 55 -6 73c-7 -51 -54 -85 -116 -85z M212 93c23 0 38 18 38 47v92l-30 -8c-27 -7 -40 -27 -40 -67v-17c0 -30 11 -47 32 -47z"/>
    <glyph glyph-name="b" unicode="b" horiz-adv-x="476" d="M307 -12c-55 0 -93 26 -109 76l-12 -64h-140v725h157v-290c18 45 56 77 115 77c80 0 128 -61 128 -164v-165c0 -127 -47 -195 -139 -195zM241 100c26 0 39 23 39 71v160c0 48 -13 69 -40 69c-25 0 -38 -20 -38 -64v-170c0 -45 13 -66 39 -66z"/>
    <glyph glyph-name="c" unicode="c" horiz-adv-x="441" d="M228 -12c-127 0 -203 73 -203 193v132c0 130 72 199 203 199c125 0 193 -53 193 -163v-32l-159 -27v51c0 45 -11 62 -35 62c-26 0 -37 -17 -37 -68v-165c0 -53 11 -72 37 -72c25 0 35 19 35 65v58l159 -32v-33c0 -105 -76 -168 -193 -168z"/>
    <glyph glyph-name="d" unicode="d" horiz-adv-x="476" d="M165 -12c-82 0 -135 68 -135 173v165c0 122 52 186 139 186c51 0 88 -22 104 -74v287h157v-725h-150v70c-22 -54 -61 -82 -115 -82zM235 100c26 0 39 21 39 65v170c0 46 -13 65 -39 65c-27 0 -39 -23 -39 -69v-159c0 -48 13 -72 39 -72z"/>
    <glyph glyph-name="e" unicode="e" horiz-adv-x="450" d="M425 224h-236v-61c0 -46 13 -66 41 -66c23 0 39 17 39 83v14l156 -20v-20c0 -110 -79 -166 -197 -166c-128 0 -203 71 -203 192v132c0 131 71 200 202 200c130 0 198 -62 198 -202v-86zM225 425c-25 0 -36 -20 -36 -66v-59h72v36c0 71 -12 89 -36 89z"/>
    <glyph glyph-name="f" unicode="f" horiz-adv-x="306" d="M295 500v-106h-74v-394h-157v394h-52v106h52v65c0 113 55 166 174 166c16 0 37 -1 57 -4v-121c-14 1 -18 2 -26 2c-33 0 -48 -17 -48 -56v-52h74z"/>
    <glyph glyph-name="g" unicode="g" horiz-adv-x="417" d="M280 114c89 -12 137 -58 137 -139v-20c0 -101 -80 -162 -216 -162c-116 0 -189 43 -189 112v10c0 42 26 72 72 86c-38 17 -60 49 -60 91c0 51 31 83 79 93c-56 24 -85 71 -85 138v34c0 100 65 155 184 155c29 0 54 -3 76 -9c13 54 50 84 108 84c10 0 16 0 25 -2v-111 c-15 4 -29 6 -43 6c-12 0 -23 -2 -33 -5c33 -26 51 -66 51 -118v-34c0 -100 -65 -155 -184 -155c-21 0 -41 2 -58 5c-4 -4 -6 -9 -6 -17c0 -17 12 -25 40 -28zM165 384v-88c0 -33 14 -51 37 -51s37 18 37 51v88c0 33 -14 51 -37 51s-37 -18 -37 -51zM280 -77v12 c0 25 -14 41 -43 44l-94 10c-3 -8 -5 -17 -5 -28v-19c0 -46 26 -67 71 -67s71 17 71 48z"/>
    <glyph glyph-name="h" unicode="h" horiz-adv-x="475" d="M46 0v725h157v-301c21 57 64 88 121 88c75 0 111 -46 111 -144v-368h-161v343c0 38 -10 55 -33 55c-26 0 -38 -21 -38 -68v-330h-157z"/>
    <glyph glyph-name="i" unicode="i" horiz-adv-x="241" d="M42 565v147h157v-147h-157zM45 0v500h151v-500h-151z"/>
    <glyph glyph-name="j" unicode="j" horiz-adv-x="248" d="M42 565v147h157v-147h-157zM43 -202c-21 0 -49 3 -63 6v123c9 -1 20 -2 28 -2c28 0 38 15 38 49v526h157v-541c0 -109 -33 -161 -160 -161z"/>
    <glyph glyph-name="k" unicode="k" horiz-adv-x="469" d="M292 0l-54 215l-35 -80v-135h-157v725h157v-436l83 211h168l-95 -184l100 -316h-167z"/>
    <glyph glyph-name="l" unicode="l" horiz-adv-x="249" d="M203 725v-725h-157v725h157z"/>
    <glyph glyph-name="m" unicode="m" horiz-adv-x="687" d="M45 500h152v-76c21 60 58 88 115 88c56 0 90 -28 105 -88c23 60 60 88 117 88c75 0 113 -51 113 -152v-360h-158v346c0 37 -9 52 -30 52c-24 0 -35 -21 -35 -64v-334h-157v346c0 36 -9 52 -30 52c-24 0 -35 -20 -35 -62v-336h-157v500z"/>
    <glyph glyph-name="n" unicode="n" horiz-adv-x="474" d="M45 0v500h152v-81c19 61 61 93 123 93c79 0 114 -45 114 -144v-368h-161v343c0 39 -10 55 -33 55c-26 0 -38 -20 -38 -64v-334h-157z"/>
    <glyph glyph-name="o" unicode="o" horiz-adv-x="460" d="M230 -12c-126 0 -205 67 -205 192v140c0 125 79 192 205 192s205 -67 205 -192v-140c0 -125 -79 -192 -205 -192zM230 92c27 0 40 20 40 70v176c0 50 -13 70 -40 70s-40 -20 -40 -70v-176c0 -50 13 -70 40 -70z"/>
    <glyph glyph-name="p" unicode="p" horiz-adv-x="475" d="M45 -195v695h152v-69c20 53 64 81 117 81c84 0 131 -62 131 -164v-174c0 -118 -49 -186 -133 -186c-58 0 -91 23 -110 72v-255h-157zM240 100c26 0 39 23 39 72v159c0 49 -12 69 -39 69s-39 -19 -39 -67v-166c0 -46 12 -67 39 -67z"/>
    <glyph glyph-name="q" unicode="q" horiz-adv-x="475" d="M272 -195v263c-23 -53 -58 -80 -112 -80c-80 0 -130 62 -130 166v179c0 120 49 179 134 179c58 0 100 -28 114 -76l13 64h139v-695h-158zM235 100c26 0 39 20 39 66v171c0 44 -13 63 -39 63c-27 0 -39 -20 -39 -69v-159c0 -49 12 -72 39 -72z"/>
    <glyph glyph-name="r" unicode="r" horiz-adv-x="324" d="M189 392c11 65 50 120 121 120c4 0 5 0 9 -1v-164c-11 2 -21 3 -35 3c-25 0 -45 -5 -61 -22c-14 -14 -21 -40 -21 -76v-252h-157v500h144v-108z"/>
    <glyph glyph-name="s" unicode="s" horiz-adv-x="405" d="M203 -12c-114 0 -188 43 -188 122v40l157 21v-45c0 -30 19 -36 32 -36c16 0 29 8 29 29v27c0 23 -7 39 -30 44l-83 18c-74 16 -103 62 -103 125v48c0 78 67 131 183 131c108 0 183 -46 183 -128v-24l-152 -19v40c0 27 -14 34 -28 34s-28 -6 -28 -30v-19 c0 -22 2 -43 34 -51l76 -20c69 -18 105 -55 105 -112v-58c0 -78 -72 -137 -187 -137z"/>
    <glyph glyph-name="t" unicode="t" horiz-adv-x="319" d="M5 394v106h58v111l157 53v-164h81v-106h-81v-211c0 -34 16 -57 52 -57c13 0 22 1 32 2v-130c-19 -4 -49 -7 -83 -7c-111 0 -158 48 -158 151v252h-58z"/>
    <glyph glyph-name="u" unicode="u" horiz-adv-x="476" d="M159 -12c-86 0 -119 51 -119 144v368h161v-343c0 -37 11 -54 35 -54s37 20 37 59v338h158v-500h-152v76c-21 -58 -61 -88 -120 -88z"/>
    <glyph glyph-name="v" unicode="v" horiz-adv-x="388" d="M98 0l-114 500h163l33 -269c5 -40 9 -64 12 -100h4c3 36 7 60 11 100l34 269h163l-114 -500h-192z"/>
    <glyph glyph-name="w" unicode="w" horiz-adv-x="588" d="M79 0l-84 500h154l20 -264c3 -34 4 -63 5 -95h4c2 30 4 62 8 94l35 265h146l34 -265c4 -32 7 -64 9 -94h3c1 32 2 61 5 95l20 264h155l-85 -500h-171l-35 260c-5 35 -5 78 -6 102h-5c0 -24 0 -67 -5 -102l-35 -260h-172z"/>
    <glyph glyph-name="x" unicode="x" horiz-adv-x="445" d="M5 0l111 263l-102 237h165l26 -87c6 -19 14 -43 16 -70h4c2 27 10 51 16 70l26 87h162l-102 -236l113 -264h-171l-31 107c-7 26 -14 45 -15 65h-4c-2 -20 -9 -39 -16 -65l-31 -107h-167z"/>
    <glyph glyph-name="y" unicode="y" horiz-adv-x="388" d="M52 -200c-20 0 -35 1 -48 3v124c11 -3 21 -4 29 -4c43 0 66 13 74 49l4 17l-127 511h171l32 -253c7 -52 8 -95 10 -142h4c2 59 4 96 9 140l31 255h163l-116 -517c-30 -133 -104 -183 -236 -183z"/>
    <glyph glyph-name="z" unicode="z" horiz-adv-x="360" d="M12 97l161 292h-150v111h319v-93l-160 -295h170v-112h-340v97z"/>
    <glyph glyph-name="aacute" unicode="á" horiz-adv-x="442" d="M151 564l88 157h162l-119 -157h-131zM142 -12c-77 0 -127 48 -127 122v40c0 41 17 78 46 101c24 19 58 34 112 46l75 17v59c0 27 -11 39 -32 39c-22 0 -34 -14 -34 -41v-46h-156v36c0 99 72 151 191 151c130 0 188 -48 188 -159v-245c0 -49 2 -83 8 -108h-149 c-3 22 -6 55 -6 73c-7 -51 -54 -85 -116 -85zM212 93c23 0 38 18 38 47v92l-30 -8c-27 -7 -40 -27 -40 -67v-17c0 -30 11 -47 32 -47z"/>
    <glyph glyph-name="abreve" unicode="ă" horiz-adv-x="442" d="M168 713c1 -42 16 -66 49 -66s48 24 48 66h114c-2 -103 -60 -154 -162 -154s-160 51 -162 154h113zM142 -12c-77 0 -127 48 -127 122v40c0 41 17 78 46 101c24 19 58 34 112 46l75 17v59c0 27 -11 39 -32 39c-22 0 -34 -14 -34 -41v-46h-156v36c0 99 72 151 191 151 c130 0 188 -48 188 -159v-245c0 -49 2 -83 8 -108h-149c-3 22 -6 55 -6 73c-7 -51 -54 -85 -116 -85zM212 93c23 0 38 18 38 47v92l-30 -8c-27 -7 -40 -27 -40 -67v-17c0 -30 11 -47 32 -47z"/>
    <glyph glyph-name="acircumflex" unicode="â" horiz-adv-x="442" d="M388 564h-120l-51 100l-51 -100h-120l87 157h168zM142 -12c-77 0 -127 48 -127 122v40c0 41 17 78 46 101c24 19 58 34 112 46l75 17v59c0 27 -11 39 -32 39c-22 0 -34 -14 -34 -41v-46h-156v36c0 99 72 151 191 151c130 0 188 -48 188 -159v-245c0 -49 2 -83 8 -108 h-149c-3 22 -6 55 -6 73c-7 -51 -54 -85 -116 -85zM212 93c23 0 38 18 38 47v92l-30 -8c-27 -7 -40 -27 -40 -67v-17c0 -30 11 -47 32 -47z"/>
    <glyph glyph-name="adieresis" unicode="ä" horiz-adv-x="442" d="M59 570v131h131v-131h-131zM244 570v131h130v-131h-130zM142 -12c-77 0 -127 48 -127 122v40c0 41 17 78 46 101c24 19 58 34 112 46l75 17v59c0 27 -11 39 -32 39c-22 0 -34 -14 -34 -41v-46h-156v36c0 99 72 151 191 151c130 0 188 -48 188 -159v-245 c0 -49 2 -83 8 -108h-149c-3 22 -6 55 -6 73c-7 -51 -54 -85 -116 -85zM212 93c23 0 38 18 38 47v92l-30 -8c-27 -7 -40 -27 -40 -67v-17c0 -30 11 -47 32 -47z"/>
    <glyph glyph-name="ae" unicode="æ" horiz-adv-x="671" d="M646 224h-235v-61c0 -46 14 -66 43 -66c26 0 41 16 41 55v41l151 -21v-44c0 -90 -78 -140 -194 -140c-65 0 -116 21 -148 60c-26 -37 -72 -60 -138 -60c-90 0 -151 47 -151 145c0 91 45 133 147 152l90 17v68c0 30 -13 40 -35 40c-19 0 -35 -12 -35 -40v-45h-156v30 c0 104 78 157 186 157c49 0 88 -12 116 -35c31 23 72 35 123 35c128 0 195 -62 195 -185v-103zM449 425c-26 0 -38 -20 -38 -66v-59h76v64c0 42 -11 61 -38 61zM252 143v87l-27 -8c-33 -10 -49 -25 -49 -64v-12c0 -35 14 -51 36 -51c26 0 40 24 40 48z"/>
    <glyph glyph-name="aeacute" unicode="ǽ" horiz-adv-x="671" d="M517 721l-119 -157h-131l88 157h162zM646 224h-235v-61c0 -46 14 -66 43 -66c26 0 41 16 41 55v41l151 -21v-44c0 -90 -78 -140 -194 -140c-65 0 -116 21 -148 60c-26 -37 -72 -60 -138 -60c-90 0 -151 47 -151 145c0 91 45 133 147 152l90 17v68c0 30 -13 40 -35 40 c-19 0 -35 -12 -35 -40v-45h-156v30c0 104 78 157 186 157c49 0 88 -12 116 -35c31 23 72 35 123 35c128 0 195 -62 195 -185v-103zM449 425c-26 0 -38 -20 -38 -66v-59h76v64c0 42 -11 61 -38 61zM252 143v87l-27 -8c-33 -10 -49 -25 -49 -64v-12c0 -35 14 -51 36 -51 c26 0 40 24 40 48z"/>
    <glyph glyph-name="agrave" unicode="à" horiz-adv-x="442" d="M282 564h-131l-119 157h162zM142 -12c-77 0 -127 48 -127 122v40c0 41 17 78 46 101c24 19 58 34 112 46l75 17v59c0 27 -11 39 -32 39c-22 0 -34 -14 -34 -41v-46h-156v36c0 99 72 151 191 151c130 0 188 -48 188 -159v-245c0 -49 2 -83 8 -108h-149c-3 22 -6 55 -6 73 c-7 -51 -54 -85 -116 -85zM212 93c23 0 38 18 38 47v92l-30 -8c-27 -7 -40 -27 -40 -67v-17c0 -30 11 -47 32 -47z"/>
    <glyph glyph-name="amacron" unicode="ā" horiz-adv-x="442" d="M57 585v109h321v-109h-321zM142 -12c-77 0 -127 48 -127 122v40c0 41 17 78 46 101c24 19 58 34 112 46l75 17v59c0 27 -11 39 -32 39c-22 0 -34 -14 -34 -41v-46h-156v36c0 99 72 151 191 151c130 0 188 -48 188 -159v-245c0 -49 2 -83 8 -108h-149c-3 22 -6 55 -6 73 c-7 -51 -54 -85 -116 -85zM212 93c23 0 38 18 38 47v92l-30 -8c-27 -7 -40 -27 -40 -67v-17c0 -30 11 -47 32 -47z"/>
    <glyph glyph-name="aogonek" unicode="ą" horiz-adv-x="442" d="M366 -89l95 -21c-9 -69 -69 -93 -137 -93c-75 0 -128 33 -128 99c0 39 20 75 68 104c-3 22 -6 55 -6 73c-7 -51 -54 -85 -116 -85c-77 0 -127 48 -127 122v40c0 41 17 78 46 101c24 19 58 34 112 46l75 17v59c0 27 -11 39 -32 39c-22 0 -34 -14 -34 -41v-46h-156v36 c0 99 72 151 191 151c130 0 188 -48 188 -159v-245c0 -49 2 -83 8 -108h-13c-60 -23 -92 -52 -92 -91c0 -20 9 -33 26 -33s27 11 32 35zM250 140v92l-30 -8c-27 -7 -40 -27 -40 -67v-17c0 -30 11 -47 32 -47c23 0 38 18 38 47z"/>
    <glyph glyph-name="aring" unicode="å" horiz-adv-x="442" d="M217 542c-70 0 -122 46 -122 115s52 115 122 115s121 -46 121 -115s-51 -115 -121 -115zM217 615c24 0 39 18 39 42s-15 42 -39 42c-25 0 -39 -18 -39 -42s14 -42 39 -42zM142 -12c-77 0 -127 48 -127 122v40c0 41 17 78 46 101c24 19 58 34 112 46l75 17v59 c0 27 -11 39 -32 39c-22 0 -34 -14 -34 -41v-46h-156v36c0 99 72 151 191 151c130 0 188 -48 188 -159v-245c0 -49 2 -83 8 -108h-149c-3 22 -6 55 -6 73c-7 -51 -54 -85 -116 -85zM212 93c23 0 38 18 38 47v92l-30 -8c-27 -7 -40 -27 -40 -67v-17c0 -30 11 -47 32 -47z"/>
    <glyph glyph-name="atilde" unicode="ã" horiz-adv-x="442" d="M287 565c-63 0 -93 54 -125 54c-19 0 -30 -17 -34 -49l-89 29c6 77 46 123 109 123s93 -54 125 -54c19 0 30 16 34 49l89 -29c-6 -77 -45 -123 -109 -123zM142 -12c-77 0 -127 48 -127 122v40c0 41 17 78 46 101c24 19 58 34 112 46l75 17v59c0 27 -11 39 -32 39 c-22 0 -34 -14 -34 -41v-46h-156v36c0 99 72 151 191 151c130 0 188 -48 188 -159v-245c0 -49 2 -83 8 -108h-149c-3 22 -6 55 -6 73c-7 -51 -54 -85 -116 -85zM212 93c23 0 38 18 38 47v92l-30 -8c-27 -7 -40 -27 -40 -67v-17c0 -30 11 -47 32 -47z"/>
    <glyph glyph-name="cacute" unicode="ć" horiz-adv-x="441" d="M160 564l88 157h162l-119 -157h-131zM228 -12c-127 0 -203 73 -203 193v132c0 130 72 199 203 199c125 0 193 -53 193 -163v-32l-159 -27v51c0 45 -11 62 -35 62c-26 0 -37 -17 -37 -68v-165c0 -53 11 -72 37 -72c25 0 35 19 35 65v58l159 -32v-33 c0 -105 -76 -168 -193 -168z"/>
    <glyph glyph-name="ccaron" unicode="č" horiz-adv-x="441" d="M55 716h120l51 -100l51 100h120l-87 -157h-168zM228 -12c-127 0 -203 73 -203 193v132c0 130 72 199 203 199c125 0 193 -53 193 -163v-32l-159 -27v51c0 45 -11 62 -35 62c-26 0 -37 -17 -37 -68v-165c0 -53 11 -72 37 -72c25 0 35 19 35 65v58l159 -32v-33 c0 -105 -76 -168 -193 -168z"/>
    <glyph glyph-name="ccedilla" unicode="ç" horiz-adv-x="441" d="M421 317l-159 -27v51c0 45 -11 62 -35 62c-26 0 -37 -17 -37 -68v-165c0 -53 11 -72 37 -72c25 0 35 19 35 65v58l159 -32v-33c0 -90 -55 -149 -144 -164l-22 -40c10 7 27 12 47 12c52 0 85 -32 85 -87v-1c0 -59 -51 -96 -128 -96c-63 0 -109 24 -127 68l92 24 c6 -15 17 -22 32 -22c19 0 29 11 29 31v1c0 19 -11 29 -28 29c-11 0 -21 -5 -27 -13l-81 15l33 78c-99 16 -157 85 -157 190v132c0 130 72 199 203 199c125 0 193 -53 193 -163v-32z"/>
    <glyph glyph-name="ccircumflex" unicode="ĉ" horiz-adv-x="441" d="M397 564h-120l-51 100l-51 -100h-120l87 157h168zM228 -12c-127 0 -203 73 -203 193v132c0 130 72 199 203 199c125 0 193 -53 193 -163v-32l-159 -27v51c0 45 -11 62 -35 62c-26 0 -37 -17 -37 -68v-165c0 -53 11 -72 37 -72c25 0 35 19 35 65v58l159 -32v-33 c0 -105 -76 -168 -193 -168z"/>
    <glyph glyph-name="cdotaccent" unicode="ċ" horiz-adv-x="441" d="M148 565v147h157v-147h-157zM228 -12c-127 0 -203 73 -203 193v132c0 130 72 199 203 199c125 0 193 -53 193 -163v-32l-159 -27v51c0 45 -11 62 -35 62c-26 0 -37 -17 -37 -68v-165c0 -53 11 -72 37 -72c25 0 35 19 35 65v58l159 -32v-33c0 -105 -76 -168 -193 -168z "/>
    <glyph glyph-name="dcaron" unicode="ď" horiz-adv-x="562" d="M165 -12c-82 0 -135 68 -135 173v165c0 122 52 186 139 186c51 0 88 -22 104 -74v287h157v-725h-150v70c-22 -54 -61 -82 -115 -82zM502 528l-30 49c29 5 44 16 44 34h-66v99h132v-80c0 -55 -25 -91 -80 -102zM235 100c26 0 39 21 39 65v170c0 46 -13 65 -39 65 c-27 0 -39 -23 -39 -69v-159c0 -48 13 -72 39 -72z"/>
    <glyph glyph-name="dcroat" unicode="đ" horiz-adv-x="476" d="M499 650v-72h-69v-578h-150v70c-22 -54 -61 -82 -115 -82c-82 0 -135 68 -135 173v165c0 122 52 186 139 186c51 0 88 -22 104 -74v140h-125v72h125v75h157v-75h69zM274 165v170c0 46 -13 65 -39 65c-27 0 -39 -23 -39 -69v-159c0 -48 13 -72 39 -72s39 21 39 65z"/>
    <glyph glyph-name="eacute" unicode="é" horiz-adv-x="450" d="M409 721l-119 -157h-131l88 157h162zM425 224h-236v-61c0 -46 13 -66 41 -66c23 0 39 17 39 83v14l156 -20v-20c0 -110 -79 -166 -197 -166c-128 0 -203 71 -203 192v132c0 131 71 200 202 200c130 0 198 -62 198 -202v-86zM225 425c-25 0 -36 -20 -36 -66v-59h72v36 c0 71 -12 89 -36 89z"/>
    <glyph glyph-name="ebreve" unicode="ĕ" horiz-adv-x="450" d="M225 559c-102 0 -160 51 -162 154h113c1 -42 16 -66 49 -66s48 24 48 66h114c-2 -103 -60 -154 -162 -154zM425 224h-236v-61c0 -46 13 -66 41 -66c23 0 39 17 39 83v14l156 -20v-20c0 -110 -79 -166 -197 -166c-128 0 -203 71 -203 192v132c0 131 71 200 202 200 c130 0 198 -62 198 -202v-86zM225 425c-25 0 -36 -20 -36 -66v-59h72v36c0 71 -12 89 -36 89z"/>
    <glyph glyph-name="ecaron" unicode="ě" horiz-adv-x="450" d="M309 559h-168l-87 157h120l51 -100l51 100h120zM425 224h-236v-61c0 -46 13 -66 41 -66c23 0 39 17 39 83v14l156 -20v-20c0 -110 -79 -166 -197 -166c-128 0 -203 71 -203 192v132c0 131 71 200 202 200c130 0 198 -62 198 -202v-86zM225 425c-25 0 -36 -20 -36 -66v-59 h72v36c0 71 -12 89 -36 89z"/>
    <glyph glyph-name="ecircumflex" unicode="ê" horiz-adv-x="450" d="M225 664l-51 -100h-120l87 157h168l87 -157h-120zM425 224h-236v-61c0 -46 13 -66 41 -66c23 0 39 17 39 83v14l156 -20v-20c0 -110 -79 -166 -197 -166c-128 0 -203 71 -203 192v132c0 131 71 200 202 200c130 0 198 -62 198 -202v-86zM225 425c-25 0 -36 -20 -36 -66 v-59h72v36c0 71 -12 89 -36 89z"/>
    <glyph glyph-name="edieresis" unicode="ë" horiz-adv-x="450" d="M198 701v-131h-131v131h131zM382 701v-131h-130v131h130zM425 224h-236v-61c0 -46 13 -66 41 -66c23 0 39 17 39 83v14l156 -20v-20c0 -110 -79 -166 -197 -166c-128 0 -203 71 -203 192v132c0 131 71 200 202 200c130 0 198 -62 198 -202v-86zM225 425 c-25 0 -36 -20 -36 -66v-59h72v36c0 71 -12 89 -36 89z"/>
    <glyph glyph-name="edotaccent" unicode="ė" horiz-adv-x="450" d="M304 712v-147h-157v147h157zM425 224h-236v-61c0 -46 13 -66 41 -66c23 0 39 17 39 83v14l156 -20v-20c0 -110 -79 -166 -197 -166c-128 0 -203 71 -203 192v132c0 131 71 200 202 200c130 0 198 -62 198 -202v-86zM225 425c-25 0 -36 -20 -36 -66v-59h72v36 c0 71 -12 89 -36 89z"/>
    <glyph glyph-name="egrave" unicode="è" horiz-adv-x="450" d="M290 564h-131l-119 157h162zM425 224h-236v-61c0 -46 13 -66 41 -66c23 0 39 17 39 83v14l156 -20v-20c0 -110 -79 -166 -197 -166c-128 0 -203 71 -203 192v132c0 131 71 200 202 200c130 0 198 -62 198 -202v-86zM225 425c-25 0 -36 -20 -36 -66v-59h72v36 c0 71 -12 89 -36 89z"/>
    <glyph glyph-name="emacron" unicode="ē" horiz-adv-x="450" d="M386 694v-109h-321v109h321zM425 224h-236v-61c0 -46 13 -66 41 -66c23 0 39 17 39 83v14l156 -20v-20c0 -110 -79 -166 -197 -166c-128 0 -203 71 -203 192v132c0 131 71 200 202 200c130 0 198 -62 198 -202v-86zM225 425c-25 0 -36 -20 -36 -66v-59h72v36 c0 71 -12 89 -36 89z"/>
    <glyph glyph-name="eogonek" unicode="ę" horiz-adv-x="450" d="M425 224h-236v-61c0 -46 13 -66 41 -66c23 0 39 17 39 83v14l156 -20v-20c0 -81 -42 -132 -111 -154c-60 -23 -92 -52 -92 -91c0 -20 9 -33 26 -33s27 11 32 35l95 -21c-9 -69 -69 -93 -137 -93c-75 0 -128 33 -128 99c0 36 17 70 58 98c-91 19 -143 85 -143 186v132 c0 131 71 200 202 200c130 0 198 -62 198 -202v-86zM225 425c-25 0 -36 -20 -36 -66v-59h72v36c0 71 -12 89 -36 89z"/>
    <glyph glyph-name="gbreve" unicode="ğ" horiz-adv-x="417" d="M209 559c-102 0 -160 51 -162 154h113c1 -42 16 -66 49 -66s48 24 48 66h114c-2 -103 -60 -154 -162 -154zM280 114c89 -12 137 -58 137 -139v-20c0 -101 -80 -162 -216 -162c-116 0 -189 43 -189 112v10c0 42 26 72 72 86c-38 17 -60 49 -60 91c0 51 31 83 79 93 c-56 24 -85 71 -85 138v34c0 100 65 155 184 155c29 0 54 -3 76 -9c13 54 50 84 108 84c10 0 16 0 25 -2v-111c-15 4 -29 6 -43 6c-12 0 -23 -2 -33 -5c33 -26 51 -66 51 -118v-34c0 -100 -65 -155 -184 -155c-21 0 -41 2 -58 5c-4 -4 -6 -9 -6 -17c0 -17 12 -25 40 -28z M165 384v-88c0 -33 14 -51 37 -51s37 18 37 51v88c0 33 -14 51 -37 51s-37 -18 -37 -51zM280 -77v12c0 25 -14 41 -43 44l-94 10c-3 -8 -5 -17 -5 -28v-19c0 -46 26 -67 71 -67s71 17 71 48z"/>
    <glyph glyph-name="gcircumflex" unicode="ĝ" horiz-adv-x="417" d="M209 674l-51 -71h-120l87 118h168l87 -118h-120zM280 114c89 -12 137 -58 137 -139v-20c0 -101 -80 -162 -216 -162c-116 0 -189 43 -189 112v10c0 42 26 72 72 86c-38 17 -60 49 -60 91c0 51 31 83 79 93c-56 24 -85 71 -85 138v34c0 100 65 155 184 155 c29 0 54 -3 76 -9c13 54 50 84 108 84c10 0 16 0 25 -2v-111c-15 4 -29 6 -43 6c-12 0 -23 -2 -33 -5c33 -26 51 -66 51 -118v-34c0 -100 -65 -155 -184 -155c-21 0 -41 2 -58 5c-4 -4 -6 -9 -6 -17c0 -17 12 -25 40 -28zM165 384v-88c0 -33 14 -51 37 -51s37 18 37 51v88 c0 33 -14 51 -37 51s-37 -18 -37 -51zM280 -77v12c0 25 -14 41 -43 44l-94 10c-3 -8 -5 -17 -5 -28v-19c0 -46 26 -67 71 -67s71 17 71 48z"/>
    <glyph glyph-name="uni0123" unicode="ģ" horiz-adv-x="417" d="M270 661v-99h-132v80c0 55 25 91 80 102l30 -49c-29 -5 -44 -16 -44 -34h66zM280 114c89 -12 137 -58 137 -139v-20c0 -101 -80 -162 -216 -162c-116 0 -189 43 -189 112v10c0 42 26 72 72 86c-38 17 -60 49 -60 91c0 51 31 83 79 93c-56 24 -85 71 -85 138v34 c0 100 65 155 184 155c29 0 54 -3 76 -9c13 54 50 84 108 84c10 0 16 0 25 -2v-111c-15 4 -29 6 -43 6c-12 0 -23 -2 -33 -5c33 -26 51 -66 51 -118v-34c0 -100 -65 -155 -184 -155c-21 0 -41 2 -58 5c-4 -4 -6 -9 -6 -17c0 -17 12 -25 40 -28zM165 384v-88 c0 -33 14 -51 37 -51s37 18 37 51v88c0 33 -14 51 -37 51s-37 -18 -37 -51zM280 -77v12c0 25 -14 41 -43 44l-94 10c-3 -8 -5 -17 -5 -28v-19c0 -46 26 -67 71 -67s71 17 71 48z"/>
    <glyph glyph-name="gdotaccent" unicode="ġ" horiz-adv-x="417" d="M288 712v-147h-157v147h157zM280 114c89 -12 137 -58 137 -139v-20c0 -101 -80 -162 -216 -162c-116 0 -189 43 -189 112v10c0 42 26 72 72 86c-38 17 -60 49 -60 91c0 51 31 83 79 93c-56 24 -85 71 -85 138v34c0 100 65 155 184 155c29 0 54 -3 76 -9 c13 54 50 84 108 84c10 0 16 0 25 -2v-111c-15 4 -29 6 -43 6c-12 0 -23 -2 -33 -5c33 -26 51 -66 51 -118v-34c0 -100 -65 -155 -184 -155c-21 0 -41 2 -58 5c-4 -4 -6 -9 -6 -17c0 -17 12 -25 40 -28zM165 384v-88c0 -33 14 -51 37 -51s37 18 37 51v88c0 33 -14 51 -37 51 s-37 -18 -37 -51zM280 -77v12c0 25 -14 41 -43 44l-94 10c-3 -8 -5 -17 -5 -28v-19c0 -46 26 -67 71 -67s71 17 71 48z"/>
    <glyph glyph-name="hbar" unicode="ħ" horiz-adv-x="440" d="M324 512c75 0 111 -46 111 -144v-368h-161v343c0 38 -10 55 -33 55c-26 0 -38 -21 -38 -68v-330h-157v572h-60v64h60v89h157v-89h141v-64h-141v-148c21 57 64 88 121 88z"/>
    <glyph glyph-name="hcircumflex" unicode="ĥ" horiz-adv-x="475" d="M297 752h-124l-48 65l-49 -65h-124l87 115h171zM46 0v725h157v-301c21 57 64 88 121 88c75 0 111 -46 111 -144v-368h-161v343c0 38 -10 55 -33 55c-26 0 -38 -21 -38 -68v-330h-157z"/>
    <glyph glyph-name="iacute" unicode="í" horiz-adv-x="241" d="M54 564l74 157h149l-93 -157h-130zM45 0v500h151v-500h-151z"/>
    <glyph glyph-name="ibreve" unicode="ĭ" horiz-adv-x="241" d="M82 713c0 -42 11 -66 38 -66s38 24 38 66h113c-1 -103 -55 -154 -151 -154s-150 51 -152 154h114zM45 0v500h151v-500h-151z"/>
    <glyph glyph-name="icircumflex" unicode="î" horiz-adv-x="241" d="M266 564h-111l-36 107l-35 -107h-111l62 157h169zM45 0v500h151v-500h-151z"/>
    <glyph glyph-name="idieresis" unicode="ï" horiz-adv-x="241" d="M-19 570v131h120v-131h-120zM138 570v131h121v-131h-121zM45 0v500h151v-500h-151z"/>
    <glyph glyph-name="i.loclTRK" horiz-adv-x="241" d="M42 565v147h157v-147h-157zM45 0v500h151v-500h-151z"/>
    <glyph glyph-name="dotlessi" unicode="ı" horiz-adv-x="241" d="M45 0v500h151v-500h-151z"/>
    <glyph glyph-name="igrave" unicode="ì" horiz-adv-x="241" d="M184 564h-130l-93 157h149zM45 0v500h151v-500h-151z"/>
    <glyph glyph-name="ij" unicode="ĳ" horiz-adv-x="499" d="M42 565v147h157v-147h-157zM293 565v147h157v-147h-157zM45 0v500h151v-500h-151zM294 -202c-21 0 -49 3 -63 6v123c9 -1 20 -2 28 -2c28 0 38 15 38 49v526h157v-541c0 -109 -33 -161 -160 -161z"/>
    <glyph glyph-name="uni006A0301" horiz-adv-x="248" d="M54 564l74 157h149l-93 -157h-130zM43 -202c-21 0 -49 3 -63 6v123c9 -1 20 -2 28 -2c28 0 38 15 38 49v526h157v-541c0 -109 -33 -161 -160 -161z"/>
    <glyph glyph-name="imacron" unicode="ī" horiz-adv-x="241" d="M-3 585v109h246v-109h-246zM45 0v500h151v-500h-151z"/>
    <glyph glyph-name="iogonek" unicode="į" horiz-adv-x="241" d="M199 712v-147h-157v147h157zM147 -89l95 -21c-9 -69 -69 -93 -137 -93c-75 0 -128 33 -128 99c0 39 20 75 68 104v500h151v-500h-15c-60 -23 -92 -52 -92 -91c0 -20 9 -33 26 -33s27 11 32 35z"/>
    <glyph glyph-name="itilde" unicode="ĩ" horiz-adv-x="241" d="M183 565c-55 0 -82 46 -109 46c-13 0 -22 -12 -25 -41l-85 29c4 77 38 123 92 123c55 0 81 -47 109 -47c13 0 22 12 25 42l85 -30c-5 -76 -38 -122 -92 -122zM45 0v500h151v-500h-151z"/>
    <glyph glyph-name="jcircumflex" unicode="ĵ" horiz-adv-x="248" d="M266 564h-111l-36 107l-35 -107h-111l62 157h169zM43 -202c-21 0 -49 3 -63 6v123c9 -1 20 -2 28 -2c28 0 38 15 38 49v526h157v-541c0 -109 -33 -161 -160 -161z"/>
    <glyph glyph-name="uni0237" unicode="ȷ" horiz-adv-x="248" d="M43 -202c-21 0 -49 3 -63 6v123c9 -1 20 -2 28 -2c28 0 38 15 38 49v526h157v-541c0 -109 -33 -161 -160 -161z"/>
    <glyph glyph-name="uni0137" unicode="ķ" horiz-adv-x="469" d="M203 135v-135h-157v725h157v-436l83 211h168l-95 -184l100 -316h-167l-54 215zM174 -133v99h132v-80c0 -55 -25 -91 -80 -102l-30 49c29 5 44 16 44 34h-66z"/>
    <glyph glyph-name="kgreenlandic" unicode="ĸ" horiz-adv-x="468" d="M291 0l-54 215l-35 -80v-135h-157v500h157v-211l83 211h168l-95 -184l100 -316h-167z"/>
    <glyph glyph-name="lacute" unicode="ĺ" horiz-adv-x="249" d="M55 752l93 115h158l-112 -115h-139zM203 725v-725h-157v725h157z"/>
    <glyph glyph-name="lcaron" unicode="ľ" horiz-adv-x="335" d="M203 725v-725h-157v725h157zM275 528l-30 49c29 5 44 16 44 34h-66v99h132v-80c0 -55 -25 -91 -80 -102z"/>
    <glyph glyph-name="uni013C" unicode="ļ" horiz-adv-x="249" d="M203 725v-725h-157v725h157zM111 -216l-30 49c29 5 44 16 44 34h-66v99h132v-80c0 -55 -25 -91 -80 -102z"/>
    <glyph glyph-name="ldot" unicode="ŀ" horiz-adv-x="398" d="M203 725v-725h-157v725h157zM398 500v-185h-155v185h155z"/>
    <glyph glyph-name="lslash" unicode="ł" horiz-adv-x="249" d="M246 541v-103l-43 -35v-403h-157v274l-42 -34v104l42 34v347h157v-219z"/>
    <glyph glyph-name="nacute" unicode="ń" horiz-adv-x="474" d="M181 564l88 157h162l-119 -157h-131zM45 0v500h152v-81c19 61 61 93 123 93c79 0 114 -45 114 -144v-368h-161v343c0 39 -10 55 -33 55c-26 0 -38 -20 -38 -64v-334h-157z"/>
    <glyph glyph-name="napostrophe" unicode="ŉ" horiz-adv-x="493" d="M67 528l-30 49c29 5 44 16 44 34h-66v99h132v-80c0 -55 -25 -91 -80 -102zM64 0v500h152v-81c19 61 61 93 123 93c79 0 114 -45 114 -144v-368h-161v343c0 39 -10 55 -33 55c-26 0 -38 -20 -38 -64v-334h-157z"/>
    <glyph glyph-name="ncaron" unicode="ň" horiz-adv-x="474" d="M76 716h120l51 -100l51 100h120l-87 -157h-168zM45 0v500h152v-81c19 61 61 93 123 93c79 0 114 -45 114 -144v-368h-161v343c0 39 -10 55 -33 55c-26 0 -38 -20 -38 -64v-334h-157z"/>
    <glyph glyph-name="uni0146" unicode="ņ" horiz-adv-x="474" d="M45 0v500h152v-81c19 61 61 93 123 93c79 0 114 -45 114 -144v-368h-161v343c0 39 -10 55 -33 55c-26 0 -38 -20 -38 -64v-334h-157zM224 -216l-30 49c29 5 44 16 44 34h-66v99h132v-80c0 -55 -25 -91 -80 -102z"/>
    <glyph glyph-name="ntilde" unicode="ñ" horiz-adv-x="474" d="M317 565c-63 0 -93 54 -125 54c-19 0 -30 -17 -34 -49l-89 29c6 77 46 123 109 123s93 -54 125 -54c19 0 30 16 34 49l89 -29c-6 -77 -45 -123 -109 -123zM45 0v500h152v-81c19 61 61 93 123 93c79 0 114 -45 114 -144v-368h-161v343c0 39 -10 55 -33 55 c-26 0 -38 -20 -38 -64v-334h-157z"/>
    <glyph glyph-name="eng" unicode="ŋ" horiz-adv-x="474" d="M320 512c79 0 114 -45 114 -144v-406c0 -110 -35 -162 -161 -162c-21 0 -49 3 -64 6v123c11 -1 20 -2 28 -2c26 0 36 14 36 49v367c0 39 -10 55 -33 55c-26 0 -38 -20 -38 -64v-334h-157v500h152v-81c19 61 61 93 123 93z"/>
    <glyph glyph-name="oacute" unicode="ó" horiz-adv-x="460" d="M164 564l88 157h162l-119 -157h-131zM230 -12c-126 0 -205 67 -205 192v140c0 125 79 192 205 192s205 -67 205 -192v-140c0 -125 -79 -192 -205 -192zM230 92c27 0 40 20 40 70v176c0 50 -13 70 -40 70s-40 -20 -40 -70v-176c0 -50 13 -70 40 -70z"/>
    <glyph glyph-name="obreve" unicode="ŏ" horiz-adv-x="460" d="M181 713c1 -42 16 -66 49 -66s48 24 48 66h114c-2 -103 -60 -154 -162 -154s-160 51 -162 154h113zM230 -12c-126 0 -205 67 -205 192v140c0 125 79 192 205 192s205 -67 205 -192v-140c0 -125 -79 -192 -205 -192zM230 92c27 0 40 20 40 70v176c0 50 -13 70 -40 70 s-40 -20 -40 -70v-176c0 -50 13 -70 40 -70z"/>
    <glyph glyph-name="ocircumflex" unicode="ô" horiz-adv-x="460" d="M401 564h-120l-51 100l-51 -100h-120l87 157h168zM230 -12c-126 0 -205 67 -205 192v140c0 125 79 192 205 192s205 -67 205 -192v-140c0 -125 -79 -192 -205 -192zM230 92c27 0 40 20 40 70v176c0 50 -13 70 -40 70s-40 -20 -40 -70v-176c0 -50 13 -70 40 -70z"/>
    <glyph glyph-name="odieresis" unicode="ö" horiz-adv-x="460" d="M72 570v131h131v-131h-131zM257 570v131h130v-131h-130zM230 -12c-126 0 -205 67 -205 192v140c0 125 79 192 205 192s205 -67 205 -192v-140c0 -125 -79 -192 -205 -192zM230 92c27 0 40 20 40 70v176c0 50 -13 70 -40 70s-40 -20 -40 -70v-176c0 -50 13 -70 40 -70z "/>
    <glyph glyph-name="oe" unicode="œ" horiz-adv-x="686" d="M661 224h-236v-61c0 -46 13 -66 41 -66c23 0 39 17 39 83v14l156 -20v-20c0 -110 -79 -166 -197 -166c-53 0 -97 12 -130 35c-30 -24 -68 -35 -110 -35c-112 0 -199 60 -199 188v140c0 136 81 196 199 196c43 0 81 -11 110 -34c32 23 76 34 129 34 c130 0 198 -62 198 -202v-86zM461 425c-25 0 -36 -20 -36 -66v-59h72v36c0 71 -12 89 -36 89zM261 162v173c0 54 -12 73 -37 73s-38 -19 -38 -73v-173c0 -52 14 -70 38 -70c25 0 37 17 37 70z"/>
    <glyph glyph-name="ograve" unicode="ò" horiz-adv-x="460" d="M295 564h-131l-119 157h162zM230 -12c-126 0 -205 67 -205 192v140c0 125 79 192 205 192s205 -67 205 -192v-140c0 -125 -79 -192 -205 -192zM230 92c27 0 40 20 40 70v176c0 50 -13 70 -40 70s-40 -20 -40 -70v-176c0 -50 13 -70 40 -70z"/>
    <glyph glyph-name="ohungarumlaut" unicode="ő" horiz-adv-x="460" d="M93 564l88 157h120l-116 -157h-92zM245 564l88 157h120l-116 -157h-92zM230 -12c-126 0 -205 67 -205 192v140c0 125 79 192 205 192s205 -67 205 -192v-140c0 -125 -79 -192 -205 -192zM230 92c27 0 40 20 40 70v176c0 50 -13 70 -40 70s-40 -20 -40 -70v-176 c0 -50 13 -70 40 -70z"/>
    <glyph glyph-name="omacron" unicode="ō" horiz-adv-x="460" d="M70 585v109h321v-109h-321zM230 -12c-126 0 -205 67 -205 192v140c0 125 79 192 205 192s205 -67 205 -192v-140c0 -125 -79 -192 -205 -192zM230 92c27 0 40 20 40 70v176c0 50 -13 70 -40 70s-40 -20 -40 -70v-176c0 -50 13 -70 40 -70z"/>
    <glyph glyph-name="ordfeminine" unicode="ª" horiz-adv-x="376" d="M121 301c-63 0 -102 38 -102 109c0 74 41 102 126 120l59 12v42c0 11 -7 18 -20 18c-15 0 -22 -9 -22 -48h-135c0 89 59 130 157 130c108 0 156 -38 156 -120v-180c0 -37 2 -59 6 -74h-129c-2 13 -4 39 -4 51c-5 -37 -44 -60 -92 -60zM182 388c15 0 24 10 24 23v64 l-18 -4c-17 -4 -26 -16 -26 -47c0 -24 6 -36 20 -36z"/>
    <glyph glyph-name="ordmasculine" unicode="º" horiz-adv-x="392" d="M196 301c-103 0 -169 51 -169 143v97c0 92 66 143 169 143s169 -51 169 -143v-97c0 -92 -66 -143 -169 -143zM196 387c18 0 26 11 26 40v131c0 29 -8 40 -26 40c-17 0 -26 -11 -26 -40v-131c0 -29 9 -40 26 -40z"/>
    <glyph glyph-name="oslash" unicode="ø" horiz-adv-x="460" d="M382 461c34 -33 53 -80 53 -141v-140c0 -125 -79 -192 -205 -192c-49 0 -90 10 -123 29l-29 -46l-31 22l29 48c-33 32 -51 79 -51 139v140c0 125 79 192 205 192c47 0 87 -9 119 -27l27 43l33 -24zM190 338v-112l79 129c-2 38 -15 53 -39 53c-27 0 -40 -20 -40 -70z M230 92c27 0 40 20 40 70v118l-80 -128c2 -43 15 -60 40 -60z"/>
    <glyph glyph-name="oslashacute" unicode="ǿ" horiz-adv-x="460" d="M403 721l-119 -157h-131l88 157h162zM382 461c34 -33 53 -80 53 -141v-140c0 -125 -79 -192 -205 -192c-49 0 -90 10 -123 29l-29 -46l-31 22l29 48c-33 32 -51 79 -51 139v140c0 125 79 192 205 192c47 0 87 -9 119 -27l27 43l33 -24zM190 338v-112l79 129 c-2 38 -15 53 -39 53c-27 0 -40 -20 -40 -70zM230 92c27 0 40 20 40 70v118l-80 -128c2 -43 15 -60 40 -60z"/>
    <glyph glyph-name="otilde" unicode="õ" horiz-adv-x="460" d="M300 565c-63 0 -93 54 -125 54c-19 0 -30 -17 -34 -49l-89 29c6 77 46 123 109 123s93 -54 125 -54c19 0 30 16 34 49l89 -29c-6 -77 -45 -123 -109 -123zM230 -12c-126 0 -205 67 -205 192v140c0 125 79 192 205 192s205 -67 205 -192v-140c0 -125 -79 -192 -205 -192z M230 92c27 0 40 20 40 70v176c0 50 -13 70 -40 70s-40 -20 -40 -70v-176c0 -50 13 -70 40 -70z"/>
    <glyph glyph-name="racute" unicode="ŕ" horiz-adv-x="324" d="M105 564l88 157h162l-119 -157h-131zM189 392c11 65 50 120 121 120c4 0 5 0 9 -1v-164c-11 2 -21 3 -35 3c-25 0 -45 -5 -61 -22c-14 -14 -21 -40 -21 -76v-252h-157v500h144v-108z"/>
    <glyph glyph-name="rcaron" unicode="ř" horiz-adv-x="324" d="M0 716h120l51 -100l51 100h120l-87 -157h-168zM189 392c11 65 50 120 121 120c4 0 5 0 9 -1v-164c-11 2 -21 3 -35 3c-25 0 -45 -5 -61 -22c-14 -14 -21 -40 -21 -76v-252h-157v500h144v-108z"/>
    <glyph glyph-name="uni0157" unicode="ŗ" horiz-adv-x="324" d="M189 392c11 65 50 120 121 120c4 0 5 0 9 -1v-164c-11 2 -21 3 -35 3c-25 0 -45 -5 -61 -22c-14 -14 -21 -40 -21 -76v-252h-157v500h144v-108zM111 -216l-30 49c29 5 44 16 44 34h-66v99h132v-80c0 -55 -25 -91 -80 -102z"/>
    <glyph glyph-name="sacute" unicode="ś" horiz-adv-x="405" d="M135 564l88 157h162l-119 -157h-131zM203 -12c-114 0 -188 43 -188 122v40l157 21v-45c0 -30 19 -36 32 -36c16 0 29 8 29 29v27c0 23 -7 39 -30 44l-83 18c-74 16 -103 62 -103 125v48c0 78 67 131 183 131c108 0 183 -46 183 -128v-24l-152 -19v40c0 27 -14 34 -28 34 s-28 -6 -28 -30v-19c0 -22 2 -43 34 -51l76 -20c69 -18 105 -55 105 -112v-58c0 -78 -72 -137 -187 -137z"/>
    <glyph glyph-name="scaron" unicode="š" horiz-adv-x="405" d="M30 716h120l51 -100l51 100h120l-87 -157h-168zM203 -12c-114 0 -188 43 -188 122v40l157 21v-45c0 -30 19 -36 32 -36c16 0 29 8 29 29v27c0 23 -7 39 -30 44l-83 18c-74 16 -103 62 -103 125v48c0 78 67 131 183 131c108 0 183 -46 183 -128v-24l-152 -19v40 c0 27 -14 34 -28 34s-28 -6 -28 -30v-19c0 -22 2 -43 34 -51l76 -20c69 -18 105 -55 105 -112v-58c0 -78 -72 -137 -187 -137z"/>
    <glyph glyph-name="scedilla" unicode="ş" horiz-adv-x="405" d="M390 125c0 -68 -55 -122 -145 -134l-21 -39c10 7 27 12 47 12c52 0 85 -32 85 -87v-1c0 -59 -51 -96 -128 -96c-63 0 -109 24 -127 68l92 24c6 -15 17 -22 32 -22c19 0 29 11 29 31v1c0 19 -11 29 -28 29c-11 0 -21 -5 -27 -13l-81 15l33 78c-84 12 -136 53 -136 119v40 l157 21v-45c0 -30 19 -36 32 -36c16 0 29 8 29 29v27c0 23 -7 39 -30 44l-83 18c-74 16 -103 62 -103 125v48c0 78 67 131 183 131c108 0 183 -46 183 -128v-24l-152 -19v40c0 27 -14 34 -28 34s-28 -6 -28 -30v-19c0 -22 2 -43 34 -51l76 -20c69 -18 105 -55 105 -112v-58z "/>
    <glyph glyph-name="scircumflex" unicode="ŝ" horiz-adv-x="405" d="M372 564h-120l-51 100l-51 -100h-120l87 157h168zM203 -12c-114 0 -188 43 -188 122v40l157 21v-45c0 -30 19 -36 32 -36c16 0 29 8 29 29v27c0 23 -7 39 -30 44l-83 18c-74 16 -103 62 -103 125v48c0 78 67 131 183 131c108 0 183 -46 183 -128v-24l-152 -19v40 c0 27 -14 34 -28 34s-28 -6 -28 -30v-19c0 -22 2 -43 34 -51l76 -20c69 -18 105 -55 105 -112v-58c0 -78 -72 -137 -187 -137z"/>
    <glyph glyph-name="uni0219" unicode="ș" horiz-adv-x="405" d="M203 -12c-114 0 -188 43 -188 122v40l157 21v-45c0 -30 19 -36 32 -36c16 0 29 8 29 29v27c0 23 -7 39 -30 44l-83 18c-74 16 -103 62 -103 125v48c0 78 67 131 183 131c108 0 183 -46 183 -128v-24l-152 -19v40c0 27 -14 34 -28 34s-28 -6 -28 -30v-19 c0 -22 2 -43 34 -51l76 -20c69 -18 105 -55 105 -112v-58c0 -78 -72 -137 -187 -137zM189 -216l-30 49c29 5 44 16 44 34h-66v99h132v-80c0 -55 -25 -91 -80 -102z"/>
    <glyph glyph-name="tbar" unicode="ŧ" horiz-adv-x="321" d="M274 126c13 0 22 1 32 2v-130c-19 -4 -49 -7 -83 -7c-111 0 -158 48 -158 151v91h-60v78h60v83h-58v106h58v111l157 53v-164h81v-106h-81v-83h76v-78h-76v-50c0 -34 16 -57 52 -57z"/>
    <glyph glyph-name="tcaron" unicode="ť" horiz-adv-x="356" d="M291 528l-30 49c29 5 44 16 44 34h-66v99h132v-80c0 -55 -25 -91 -80 -102zM5 394v106h58v111l157 53v-164h81v-106h-81v-211c0 -34 16 -57 52 -57c13 0 22 1 32 2v-130c-19 -4 -49 -7 -83 -7c-111 0 -158 48 -158 151v252h-58z"/>
    <glyph glyph-name="uni0163" unicode="ţ" horiz-adv-x="319" d="M275 -36c52 0 85 -32 85 -87v-1c0 -59 -51 -96 -128 -96c-63 0 -109 24 -127 68l92 24c6 -15 17 -22 32 -22c19 0 29 11 29 31v1c0 19 -11 29 -28 29c-11 0 -21 -5 -27 -13l-81 15l36 85c-66 16 -95 63 -95 144v252h-58v106h58v111l157 53v-164h81v-106h-81v-211 c0 -34 16 -57 52 -57c13 0 22 1 32 2v-130c-13 -3 -33 -5 -55 -6l-21 -40c10 7 27 12 47 12z"/>
    <glyph glyph-name="uni021B" unicode="ț" horiz-adv-x="319" d="M5 394v106h58v111l157 53v-164h81v-106h-81v-211c0 -34 16 -57 52 -57c13 0 22 1 32 2v-130c-19 -4 -49 -7 -83 -7c-111 0 -158 48 -158 151v252h-58zM193 -216l-30 49c29 5 44 16 44 34h-66v99h132v-80c0 -55 -25 -91 -80 -102z"/>
    <glyph glyph-name="thorn" unicode="þ" horiz-adv-x="470" d="M46 -195v920h158v-290c18 47 60 77 113 77c71 0 123 -57 123 -165v-157c0 -150 -62 -202 -133 -202c-57 0 -89 31 -104 73v-256h-157zM240 108c29 0 40 27 40 84v127c0 53 -15 73 -40 73c-26 0 -38 -21 -38 -68v-143c0 -49 12 -73 38 -73z"/>
    <glyph glyph-name="uacute" unicode="ú" horiz-adv-x="476" d="M171 564l88 157h162l-119 -157h-131zM159 -12c-86 0 -119 51 -119 144v368h161v-343c0 -37 11 -54 35 -54s37 20 37 59v338h158v-500h-152v76c-21 -58 -61 -88 -120 -88z"/>
    <glyph glyph-name="ubreve" unicode="ŭ" horiz-adv-x="476" d="M188 713c1 -42 16 -66 49 -66s48 24 48 66h114c-2 -103 -60 -154 -162 -154s-160 51 -162 154h113zM159 -12c-86 0 -119 51 -119 144v368h161v-343c0 -37 11 -54 35 -54s37 20 37 59v338h158v-500h-152v76c-21 -58 -61 -88 -120 -88z"/>
    <glyph glyph-name="ucircumflex" unicode="û" horiz-adv-x="476" d="M408 564h-120l-51 100l-51 -100h-120l87 157h168zM159 -12c-86 0 -119 51 -119 144v368h161v-343c0 -37 11 -54 35 -54s37 20 37 59v338h158v-500h-152v76c-21 -58 -61 -88 -120 -88z"/>
    <glyph glyph-name="udieresis" unicode="ü" horiz-adv-x="476" d="M79 570v131h131v-131h-131zM264 570v131h130v-131h-130zM159 -12c-86 0 -119 51 -119 144v368h161v-343c0 -37 11 -54 35 -54s37 20 37 59v338h158v-500h-152v76c-21 -58 -61 -88 -120 -88z"/>
    <glyph glyph-name="ugrave" unicode="ù" horiz-adv-x="476" d="M302 564h-131l-119 157h162zM159 -12c-86 0 -119 51 -119 144v368h161v-343c0 -37 11 -54 35 -54s37 20 37 59v338h158v-500h-152v76c-21 -58 -61 -88 -120 -88z"/>
    <glyph glyph-name="uhungarumlaut" unicode="ű" horiz-adv-x="476" d="M100 564l88 157h120l-116 -157h-92zM252 564l88 157h120l-116 -157h-92zM159 -12c-86 0 -119 51 -119 144v368h161v-343c0 -37 11 -54 35 -54s37 20 37 59v338h158v-500h-152v76c-21 -58 -61 -88 -120 -88z"/>
    <glyph glyph-name="umacron" unicode="ū" horiz-adv-x="476" d="M77 585v109h321v-109h-321zM159 -12c-86 0 -119 51 -119 144v368h161v-343c0 -37 11 -54 35 -54s37 20 37 59v338h158v-500h-152v76c-21 -58 -61 -88 -120 -88z"/>
    <glyph glyph-name="uogonek" unicode="ų" horiz-adv-x="476" d="M381 -89l95 -21c-9 -69 -69 -93 -137 -93c-75 0 -128 33 -128 99c0 39 20 75 68 104v76c-21 -58 -61 -88 -120 -88c-86 0 -119 51 -119 144v368h161v-343c0 -37 11 -54 35 -54s37 20 37 59v338h158v-500h-16c-60 -23 -92 -52 -92 -91c0 -20 9 -33 26 -33s27 11 32 35z "/>
    <glyph glyph-name="uring" unicode="ů" horiz-adv-x="476" d="M237 542c-70 0 -122 46 -122 115s52 115 122 115s121 -46 121 -115s-51 -115 -121 -115zM237 615c24 0 39 18 39 42s-15 42 -39 42c-25 0 -39 -18 -39 -42s14 -42 39 -42zM159 -12c-86 0 -119 51 -119 144v368h161v-343c0 -37 11 -54 35 -54s37 20 37 59v338h158v-500 h-152v76c-21 -58 -61 -88 -120 -88z"/>
    <glyph glyph-name="utilde" unicode="ũ" horiz-adv-x="476" d="M307 565c-63 0 -93 54 -125 54c-19 0 -30 -17 -34 -49l-89 29c6 77 46 123 109 123s93 -54 125 -54c19 0 30 16 34 49l89 -29c-6 -77 -45 -123 -109 -123zM159 -12c-86 0 -119 51 -119 144v368h161v-343c0 -37 11 -54 35 -54s37 20 37 59v338h158v-500h-152v76 c-21 -58 -61 -88 -120 -88z"/>
    <glyph glyph-name="wacute" unicode="ẃ" horiz-adv-x="588" d="M228 564l88 157h162l-119 -157h-131zM79 0l-84 500h154l20 -264c3 -34 4 -63 5 -95h4c2 30 4 62 8 94l35 265h146l34 -265c4 -32 7 -64 9 -94h3c1 32 2 61 5 95l20 264h155l-85 -500h-171l-35 260c-5 35 -5 78 -6 102h-5c0 -24 0 -67 -5 -102l-35 -260h-172z"/>
    <glyph glyph-name="wcircumflex" unicode="ŵ" horiz-adv-x="588" d="M465 564h-120l-51 100l-51 -100h-120l87 157h168zM79 0l-84 500h154l20 -264c3 -34 4 -63 5 -95h4c2 30 4 62 8 94l35 265h146l34 -265c4 -32 7 -64 9 -94h3c1 32 2 61 5 95l20 264h155l-85 -500h-171l-35 260c-5 35 -5 78 -6 102h-5c0 -24 0 -67 -5 -102l-35 -260h-172z "/>
    <glyph glyph-name="wdieresis" unicode="ẅ" horiz-adv-x="588" d="M136 570v131h131v-131h-131zM321 570v131h130v-131h-130zM79 0l-84 500h154l20 -264c3 -34 4 -63 5 -95h4c2 30 4 62 8 94l35 265h146l34 -265c4 -32 7 -64 9 -94h3c1 32 2 61 5 95l20 264h155l-85 -500h-171l-35 260c-5 35 -5 78 -6 102h-5c0 -24 0 -67 -5 -102 l-35 -260h-172z"/>
    <glyph glyph-name="wgrave" unicode="ẁ" horiz-adv-x="588" d="M359 564h-131l-119 157h162zM79 0l-84 500h154l20 -264c3 -34 4 -63 5 -95h4c2 30 4 62 8 94l35 265h146l34 -265c4 -32 7 -64 9 -94h3c1 32 2 61 5 95l20 264h155l-85 -500h-171l-35 260c-5 35 -5 78 -6 102h-5c0 -24 0 -67 -5 -102l-35 -260h-172z"/>
    <glyph glyph-name="yacute" unicode="ý" horiz-adv-x="388" d="M128 564l88 157h162l-119 -157h-131zM52 -200c-20 0 -35 1 -48 3v124c11 -3 21 -4 29 -4c43 0 66 13 74 49l4 17l-127 511h171l32 -253c7 -52 8 -95 10 -142h4c2 59 4 96 9 140l31 255h163l-116 -517c-30 -133 -104 -183 -236 -183z"/>
    <glyph glyph-name="ycircumflex" unicode="ŷ" horiz-adv-x="388" d="M365 564h-120l-51 100l-51 -100h-120l87 157h168zM52 -200c-20 0 -35 1 -48 3v124c11 -3 21 -4 29 -4c43 0 66 13 74 49l4 17l-127 511h171l32 -253c7 -52 8 -95 10 -142h4c2 59 4 96 9 140l31 255h163l-116 -517c-30 -133 -104 -183 -236 -183z"/>
    <glyph glyph-name="ydieresis" unicode="ÿ" horiz-adv-x="388" d="M36 570v131h131v-131h-131zM221 570v131h130v-131h-130zM52 -200c-20 0 -35 1 -48 3v124c11 -3 21 -4 29 -4c43 0 66 13 74 49l4 17l-127 511h171l32 -253c7 -52 8 -95 10 -142h4c2 59 4 96 9 140l31 255h163l-116 -517c-30 -133 -104 -183 -236 -183z"/>
    <glyph glyph-name="ygrave" unicode="ỳ" horiz-adv-x="388" d="M259 564h-131l-119 157h162zM52 -200c-20 0 -35 1 -48 3v124c11 -3 21 -4 29 -4c43 0 66 13 74 49l4 17l-127 511h171l32 -253c7 -52 8 -95 10 -142h4c2 59 4 96 9 140l31 255h163l-116 -517c-30 -133 -104 -183 -236 -183z"/>
    <glyph glyph-name="zacute" unicode="ź" horiz-adv-x="360" d="M114 564l88 157h162l-119 -157h-131zM12 97l161 292h-150v111h319v-93l-160 -295h170v-112h-340v97z"/>
    <glyph glyph-name="zcaron" unicode="ž" horiz-adv-x="360" d="M9 716h120l51 -100l51 100h120l-87 -157h-168zM12 97l161 292h-150v111h319v-93l-160 -295h170v-112h-340v97z"/>
    <glyph glyph-name="zdotaccent" unicode="ż" horiz-adv-x="360" d="M102 565v147h157v-147h-157zM12 97l161 292h-150v111h319v-93l-160 -295h170v-112h-340v97z"/>
    <glyph glyph-name="germandbls" unicode="ß" horiz-adv-x="470" d="M40 552c0 112 67 175 198 175c124 0 199 -54 199 -153v-52c0 -61 -34 -114 -103 -127c79 -11 116 -60 116 -143v-83c0 -105 -68 -175 -179 -175c-16 0 -32 0 -49 1v113h15c32 0 53 20 53 63v86c0 59 -16 78 -57 78h-12v109h13c31 0 43 24 43 72v48c0 40 -16 54 -39 54 c-26 0 -41 -16 -41 -59v-559h-157v552z"/>
    <glyph glyph-name="eth" unicode="ð" horiz-adv-x="454" d="M366 603c38 -70 61 -154 61 -257v-122c0 -156 -78 -237 -202 -237c-134 0 -195 67 -195 202v106c0 125 52 203 142 203c53 0 88 -29 107 -86h2c-5 58 -26 107 -52 148l-91 -29l-19 61l69 22c-18 21 -36 38 -51 52l121 67c26 -22 49 -46 70 -73l68 22l19 -64zM270 166v154 c0 47 -13 70 -40 70c-30 0 -41 -23 -41 -71v-153c0 -48 13 -71 40 -71c28 0 41 22 41 71z"/>
    <glyph glyph-name="grave" unicode="`" horiz-adv-x="600" d="M282 564h-131l-119 157h162z"/>
    <glyph glyph-name="acute" unicode="´" horiz-adv-x="600" d="M50 564l88 157h162l-119 -157h-131z"/>
    <glyph glyph-name="circumflex" unicode="ˆ" horiz-adv-x="600" d="M390 564h-120l-51 100l-51 -100h-120l87 157h168z"/>
    <glyph glyph-name="tilde" unicode="˜" horiz-adv-x="600" d="M298 565c-63 0 -93 54 -125 54c-19 0 -30 -17 -34 -49l-89 29c6 77 46 123 109 123s93 -54 125 -54c19 0 30 16 34 49l89 -29c-6 -77 -45 -123 -109 -123z"/>
    <glyph glyph-name="caron" unicode="ˇ" horiz-adv-x="600" d="M48 716h120l51 -100l51 100h120l-87 -157h-168z"/>
    <glyph glyph-name="dieresis" unicode="¨" horiz-adv-x="600" d="M49 570v131h131v-131h-131zM234 570v131h130v-131h-130z"/>
    <glyph glyph-name="macron" unicode="¯" horiz-adv-x="600" d="M50 585v109h321v-109h-321z"/>
    <glyph glyph-name="breve" unicode="˘" horiz-adv-x="600" d="M171 713c1 -42 16 -66 49 -66s48 24 48 66h114c-2 -103 -60 -154 -162 -154s-160 51 -162 154h113z"/>
    <glyph glyph-name="ring" unicode="˚" horiz-adv-x="600" d="M169 542c-70 0 -122 46 -122 115s52 115 122 115s121 -46 121 -115s-51 -115 -121 -115zM169 615c24 0 39 18 39 42s-15 42 -39 42c-25 0 -39 -18 -39 -42s14 -42 39 -42z"/>
    <glyph glyph-name="hungarumlaut" unicode="˝" horiz-adv-x="600" d="M84 564l88 157h120l-116 -157h-92zM236 564l88 157h120l-116 -157h-92z"/>
    <glyph glyph-name="dotaccent" unicode="˙" horiz-adv-x="600" d="M50 565v147h157v-147h-157z"/>
    <glyph glyph-name="cedilla" unicode="¸" horiz-adv-x="600" d="M108 2h95l-27 -50c10 7 27 12 47 12c52 0 85 -32 85 -87v-1c0 -59 -51 -96 -128 -96c-63 0 -109 24 -127 68l92 24c6 -15 17 -22 32 -22c19 0 29 11 29 31v1c0 19 -11 29 -28 29c-11 0 -21 -5 -27 -13l-81 15z"/>
    <glyph glyph-name="ogonek" unicode="˛" horiz-adv-x="600" d="M314 -110c-9 -69 -69 -93 -137 -93c-75 0 -128 33 -128 99c0 39 20 75 68 104h136c-60 -23 -92 -52 -92 -91c0 -20 9 -33 26 -33s27 11 32 35z"/>
    <glyph glyph-name="comma" unicode="," horiz-adv-x="239" d="M83 -166l-40 82c46 17 56 39 56 80v4h-67v185h175v-172c0 -90 -37 -152 -124 -179z"/>
    <glyph glyph-name="semicolon" unicode=";" horiz-adv-x="239" d="M207 553v-185h-155v185h155zM83 -166l-40 82c46 17 56 39 56 80v4h-67v185h175v-172c0 -90 -37 -152 -124 -179z"/>
    <glyph glyph-name="colon" unicode=":" horiz-adv-x="219" d="M187 501v-185h-155v185h155zM187 185v-185h-155v185h155z"/>
    <glyph glyph-name="period" unicode="." horiz-adv-x="219" d="M187 185v-185h-155v185h155z"/>
    <glyph glyph-name="ellipsis" unicode="…" horiz-adv-x="700" d="M187 184v-184h-155v184h155zM428 184v-184h-155v184h155zM668 184v-184h-155v184h155z"/>
    <glyph glyph-name="hyphen" unicode="-" horiz-adv-x="317" d="M32 351h253v-146h-253v146z"/>
    <glyph glyph-name="exclam" unicode="!" horiz-adv-x="275" d="M65 243l-19 478h183l-20 -478h-144zM223 171v-171h-172v171h172z"/>
    <glyph glyph-name="exclamdown" unicode="¡" horiz-adv-x="275" d="M223 409h-172v171h172v-171zM65 337h144l20 -478h-183z"/>
    <glyph glyph-name="question" unicode="?" horiz-adv-x="420" d="M124 223v35c0 62 24 99 54 136l40 49c18 22 28 47 28 80v31c0 32 -9 55 -38 55c-30 0 -39 -22 -39 -58v-73l-164 13v65c0 110 70 171 202 171c130 0 204 -55 204 -169v-27c0 -54 -25 -95 -52 -127l-46 -55c-22 -27 -36 -57 -36 -99v-27h-153zM124 0v171h153v-171h-153z "/>
    <glyph glyph-name="questiondown" unicode="¿" horiz-adv-x="420" d="M296 580v-171h-153v171h153zM296 357v-35c0 -62 -24 -99 -54 -136l-40 -49c-18 -22 -28 -47 -28 -80v-31c0 -32 9 -55 38 -55c30 0 39 22 39 58v73l164 -13v-65c0 -110 -70 -171 -202 -171c-130 0 -204 55 -204 169v27c0 54 25 95 52 127l46 55c22 27 36 57 36 99v27h153 z"/>
    <glyph glyph-name="quoteleft" unicode="‘" horiz-adv-x="239" d="M156 746l40 -82c-46 -17 -56 -39 -56 -80v-4h67v-185h-175v172c0 90 37 152 124 179z"/>
    <glyph glyph-name="quoteright" unicode="’" horiz-adv-x="239" d="M83 359l-40 82c46 17 56 39 56 80v4h-67v185h175v-172c0 -90 -37 -152 -124 -179z"/>
    <glyph glyph-name="quotedblleft" unicode="“" horiz-adv-x="451" d="M156 747l40 -82c-46 -17 -56 -39 -56 -80v-4h67v-185h-175v172c0 90 37 152 124 179zM368 747l40 -82c-46 -17 -56 -39 -56 -80v-4h67v-185h-175v172c0 90 37 152 124 179z"/>
    <glyph glyph-name="quotedblright" unicode="”" horiz-adv-x="451" d="M83 359l-40 82c46 17 56 39 56 80v4h-67v185h175v-172c0 -90 -37 -152 -124 -179zM295 359l-40 82c46 17 56 39 56 80v4h-67v185h175v-172c0 -90 -37 -152 -124 -179z"/>
    <glyph glyph-name="quotesinglbase" unicode="‚" horiz-adv-x="239" d="M83 -166l-40 82c46 17 56 39 56 80v4h-67v185h175v-172c0 -90 -37 -152 -124 -179z"/>
    <glyph glyph-name="quotedblbase" unicode="„" horiz-adv-x="451" d="M83 -166l-40 82c46 17 56 39 56 80v4h-67v185h175v-172c0 -90 -37 -152 -124 -179zM295 -166l-40 82c46 17 56 39 56 80v4h-67v185h175v-172c0 -90 -37 -152 -124 -179z"/>
    <glyph glyph-name="guilsinglleft" unicode="‹" horiz-adv-x="280" d="M116 67l-112 209l116 206h136l-113 -205l111 -210h-138z"/>
    <glyph glyph-name="guilsinglright" unicode="›" horiz-adv-x="280" d="M164 67h-138l111 210l-113 205h136l116 -206z"/>
    <glyph glyph-name="periodcentered" unicode="·" horiz-adv-x="219" d="M187 442v-185h-155v185h155z"/>
    <glyph glyph-name="slash" unicode="/" horiz-adv-x="415" d="M187 -117h-142l183 877h142z"/>
    <glyph glyph-name="bar" unicode="|" horiz-adv-x="226" d="M46 -117v877h134v-877h-134z"/>
    <glyph glyph-name="endash" unicode="–" horiz-adv-x="459" d="M32 341h395v-126h-395v126z"/>
    <glyph glyph-name="emdash" unicode="—" horiz-adv-x="669" d="M32 341h605v-126h-605v126z"/>
    <glyph glyph-name="bullet" unicode="•" horiz-adv-x="307" d="M152 218c-69 0 -120 49 -120 122c0 75 51 125 120 125c71 0 123 -49 123 -125c0 -73 -52 -122 -123 -122z"/>
    <glyph glyph-name="parenleft" unicode="(" horiz-adv-x="290" d="M175 -140c-89 127 -140 307 -140 468c0 160 49 335 140 454l126 -43c-79 -119 -118 -259 -118 -413c0 -155 37 -290 122 -419z"/>
    <glyph glyph-name="parenright" unicode=")" horiz-adv-x="290" d="M115 -140l-130 47c85 129 122 264 122 419c0 154 -39 294 -118 413l126 43c91 -119 140 -294 140 -454c0 -161 -51 -341 -140 -468z"/>
    <glyph glyph-name="bracketleft" unicode="[" horiz-adv-x="277" d="M46 -114v871h228v-109h-85v-653h85v-109h-228z"/>
    <glyph glyph-name="bracketright" unicode="]" horiz-adv-x="277" d="M231 -114h-228v109h85v653h-85v109h228v-871z"/>
    <glyph glyph-name="braceleft" unicode="{" horiz-adv-x="298" d="M244 -118c-118 0 -165 37 -165 145v153c0 55 -5 97 -72 99v101c68 2 71 36 71 95v162c0 91 55 132 163 132h51v-110h-24c-32 0 -48 -9 -48 -57v-138c0 -68 -14 -113 -88 -134c74 -25 87 -75 87 -141v-134c0 -54 17 -61 49 -61h27v-112h-51z"/>
    <glyph glyph-name="braceright" unicode="}" horiz-adv-x="298" d="M54 -118h-51v112h27c32 0 49 7 49 61v134c0 66 13 116 87 141c-74 21 -88 66 -88 134v138c0 48 -16 57 -48 57h-24v110h51c108 0 163 -41 163 -132v-162c0 -59 3 -93 71 -95v-101c-67 -2 -72 -44 -72 -99v-153c0 -108 -47 -145 -165 -145z"/>
    <glyph glyph-name="guillemotleft" unicode="«" horiz-adv-x="494" d="M116 67l-112 209l116 206h136l-113 -205l111 -210h-138zM330 67l-112 209l116 206h136l-113 -205l111 -210h-138z"/>
    <glyph glyph-name="guillemotright" unicode="»" horiz-adv-x="494" d="M164 67h-138l111 210l-113 205h136l116 -206zM378 67h-138l111 210l-113 205h136l116 -206z"/>
    <glyph glyph-name="zero" unicode="0" horiz-adv-x="483" d="M241 -15c-131 0 -214 78 -214 232v261c0 154 83 232 214 232c132 0 215 -78 215 -232v-261c0 -154 -83 -232 -215 -232zM241 107c30 0 51 26 51 85v311c0 59 -21 85 -51 85c-29 0 -50 -26 -50 -85v-311c0 -59 21 -85 50 -85z"/>
    <glyph glyph-name="one" unicode="1" horiz-adv-x="336" d="M119 0v468c-20 -15 -53 -23 -94 -23h-13v156h10c65 0 110 35 130 94h128v-695h-161z"/>
    <glyph glyph-name="two" unicode="2" horiz-adv-x="450" d="M18 0v115c92 102 146 165 186 225c42 64 57 112 57 177v12c0 40 -14 57 -42 57c-27 0 -42 -21 -42 -63v-71l-163 19v47c0 119 79 192 209 192c139 0 207 -50 207 -180v-23c0 -65 -21 -122 -70 -197c-33 -51 -72 -94 -157 -184h228v-126h-413z"/>
    <glyph glyph-name="three" unicode="3" horiz-adv-x="445" d="M224 -15c-140 0 -211 56 -211 201v31l163 17v-42c0 -64 14 -84 46 -84c29 0 43 22 43 74v26c0 66 -17 88 -62 88h-24v120h24c42 0 58 27 58 87v23c0 46 -14 63 -41 63c-30 0 -43 -22 -43 -75v-53l-163 20v33c0 135 77 196 207 196c131 0 204 -56 204 -177v-19 c0 -77 -33 -139 -108 -154c77 -10 113 -63 113 -142v-36c0 -126 -73 -197 -206 -197z"/>
    <glyph glyph-name="four" unicode="4" horiz-adv-x="465" d="M455 147h-69v-147h-157v147h-219v119l188 429h188v-424h69v-124zM231 453c0 23 1 52 3 73h-1c-5 -23 -12 -43 -24 -73l-52 -132c-10 -26 -15 -36 -24 -50h98v182z"/>
    <glyph glyph-name="five" unicode="5" horiz-adv-x="444" d="M221 -15c-129 0 -207 67 -207 177v30l162 17v-30c0 -52 16 -74 45 -74c32 0 45 23 45 82v81c0 62 -12 84 -44 84c-27 0 -43 -20 -49 -59l-149 13l21 389h355v-130h-229l-8 -150c21 38 62 59 114 59c101 0 153 -66 153 -187v-98c0 -134 -73 -204 -209 -204z"/>
    <glyph glyph-name="six" unicode="6" horiz-adv-x="453" d="M281 473c103 0 157 -61 157 -186v-90c0 -131 -70 -212 -205 -212c-152 0 -214 86 -214 270v200c0 175 76 255 215 255c134 0 200 -56 200 -164v-19l-161 -19v23c0 39 -11 63 -41 63c-38 0 -52 -31 -52 -117v-46c21 27 53 42 101 42zM276 192v86c0 49 -16 75 -47 75 c-23 0 -38 -12 -49 -38v-104c0 -82 15 -107 49 -107c30 0 47 23 47 88z"/>
    <glyph glyph-name="seven" unicode="7" horiz-adv-x="393" d="M80 0v32c0 204 59 388 151 531h-227v132h382v-109c-96 -140 -140 -319 -140 -507v-79h-166z"/>
    <glyph glyph-name="eight" unicode="8" horiz-adv-x="449" d="M345 376c62 -31 91 -76 91 -160v-41c0 -116 -83 -190 -212 -190c-131 0 -211 71 -211 189v41c0 59 32 105 92 131c-53 29 -83 77 -83 154v34c0 106 81 176 201 176c123 0 199 -65 199 -172v-34c0 -60 -22 -98 -77 -128zM179 543v-56c0 -35 18 -52 54 -66l7 -3 c19 15 27 36 27 67v56c0 43 -14 62 -44 62s-44 -19 -44 -60zM272 164v68c0 40 -12 50 -58 68l-6 3c-23 -15 -32 -35 -32 -69v-69c0 -43 17 -63 49 -63c31 0 47 21 47 62z"/>
    <glyph glyph-name="nine" unicode="9" horiz-adv-x="451" d="M221 710c151 0 211 -74 211 -257v-221c0 -178 -73 -247 -214 -247c-132 0 -200 68 -200 174v23l160 21v-26c0 -46 13 -76 44 -76c36 0 49 30 49 110v69c-22 -24 -56 -35 -99 -35c-101 0 -157 61 -157 183v75c0 130 69 207 206 207zM222 366c22 0 37 9 49 36v104 c0 64 -17 90 -49 90c-30 0 -47 -22 -47 -84v-73c0 -48 17 -73 47 -73z"/>
    <glyph glyph-name="zero.zero" horiz-adv-x="483" d="M241 710c132 0 215 -78 215 -232v-261c0 -154 -83 -232 -215 -232c-131 0 -214 78 -214 232v261c0 154 83 232 214 232zM241 588c-29 0 -50 -26 -50 -85v-204l98 236c-6 37 -24 53 -48 53zM241 107c30 0 51 26 51 85v224l-100 -242c4 -46 23 -67 49 -67z"/>
    <glyph glyph-name="asterisk" unicode="*" horiz-adv-x="354" d="M354 543l-130 -8l111 -95l-105 -73l-53 132l-53 -132l-104 73l110 95l-130 8l40 121l107 -71l-33 124h127l-33 -123l106 70z"/>
    <glyph glyph-name="asciitilde" unicode="~" d="M301 210c-67 0 -84 55 -132 55c-23 0 -42 -15 -48 -50l-81 34c16 103 73 140 122 140c66 0 90 -56 133 -56c26 0 42 33 50 64l79 -39c-21 -107 -72 -148 -123 -148z"/>
    <glyph glyph-name="brokenbar" unicode="¦" horiz-adv-x="226" d="M180 760v-390h-134v390h134zM180 279v-396h-134v396h134z"/>
    <glyph glyph-name="backslash" unicode="\" horiz-adv-x="415" d="M228 -117l-183 877h142l183 -877h-142z"/>
    <glyph glyph-name="underscore" unicode="_" horiz-adv-x="376" d="M0 -90h376v-90h-376v90z"/>
    <glyph glyph-name="quotesingle" unicode="'" horiz-adv-x="208" d="M46 415l-14 295h144l-14 -295h-116z"/>
    <glyph glyph-name="quotedbl" unicode="&quot;" horiz-adv-x="383" d="M46 415l-14 295h144l-14 -295h-116zM221 415l-14 295h144l-14 -295h-116z"/>
    <glyph glyph-name="ampersand" unicode="&amp;" horiz-adv-x="540" d="M506 117c11 0 17 0 24 1v-120c-13 -5 -29 -6 -46 -6c-37 0 -68 12 -101 39c-43 -31 -95 -48 -145 -48c-136 0 -228 69 -228 179v42c0 77 37 124 109 170l-13 17c-40 54 -56 91 -56 141v50c0 95 74 155 181 155c112 0 175 -59 175 -150v-55c0 -68 -45 -115 -99 -151 l-21 -15l89 -122c2 13 4 29 4 45v86l123 -30v-64c0 -59 -13 -110 -35 -152c13 -9 26 -12 39 -12zM195 585v-49c0 -29 10 -55 33 -89c26 21 34 53 34 86v51c0 38 -13 54 -33 54c-21 0 -34 -15 -34 -53zM167 186c0 -41 33 -76 83 -76c17 0 35 4 51 14l-118 162 c-12 -17 -16 -37 -16 -62v-38z"/>
    <glyph glyph-name="at" unicode="@" horiz-adv-x="640" d="M325 -96c-189 0 -300 112 -300 306v130c0 200 121 320 304 320c178 0 286 -105 286 -297v-131c0 -113 -51 -166 -140 -166c-61 0 -107 29 -117 74c-13 -44 -47 -70 -92 -70c-65 0 -103 43 -103 118c0 74 34 110 119 128l65 14v57c0 23 -9 34 -24 34 c-18 0 -27 -12 -27 -35v-37h-125v25c1 82 58 132 152 132c100 0 148 -43 148 -132v-183c0 -34 9 -49 30 -49c25 0 37 25 37 82v130c0 156 -73 238 -213 238c-141 0 -219 -89 -219 -251v-131c0 -145 87 -235 226 -235c50 0 96 10 129 29l23 -61c-38 -24 -98 -39 -159 -39z M318 159c19 0 31 17 31 41v69l-20 -6c-27 -9 -38 -24 -38 -53v-10c0 -25 10 -41 27 -41z"/>
    <glyph glyph-name="copyright" unicode="©" horiz-adv-x="624" d="M313 -17c-169 0 -288 122 -288 312v121c0 193 118 311 290 311c169 0 284 -118 284 -311v-121c0 -191 -117 -312 -286 -312zM313 43c129 0 218 97 218 252v121c0 155 -89 251 -216 251c-131 0 -221 -95 -221 -251v-121c0 -155 90 -252 219 -252zM314 143 c-96 0 -145 59 -145 160v106c0 101 51 159 147 159c90 0 142 -49 142 -134v-26l-95 -16v30c0 45 -17 66 -48 66c-34 0 -51 -25 -51 -75v-114c0 -48 17 -76 51 -76c30 0 48 22 48 66v30l95 -18v-22c0 -85 -54 -136 -144 -136z"/>
    <glyph glyph-name="registered" unicode="®" horiz-adv-x="624" d="M315 727c169 0 284 -118 284 -311v-121c0 -191 -117 -312 -286 -312s-288 122 -288 312v121c0 193 118 311 290 311zM531 295v121c0 155 -89 251 -216 251c-131 0 -221 -95 -221 -251v-121c0 -155 90 -252 219 -252s218 97 218 252zM455 429c0 -50 -24 -83 -61 -99 l71 -174h-99l-57 159h-19v-159h-94v405h122c89 0 137 -37 137 -112v-20zM290 494v-112h18c30 0 46 15 46 46v24c0 31 -17 42 -46 42h-18z"/>
    <glyph glyph-name="trademark" unicode="™" horiz-adv-x="653" d="M85 305v320h-76v85h254v-85h-75v-320h-103zM292 305v405h132l28 -168c3 -19 4 -30 5 -54h3c1 24 2 35 4 54l28 168h132v-405h-86v170c0 42 2 76 5 121h-4c-2 -15 -5 -28 -11 -67l-37 -224h-66l-37 224l-10 67h-4c3 -45 4 -79 4 -121v-170h-86z"/>
    <glyph glyph-name="paragraph" unicode="¶" horiz-adv-x="600" d="M241 306c-99 0 -195 54 -195 206c0 150 107 208 227 208h263v-79h-47v-740h-87v740h-74v-740h-87v405z"/>
    <glyph glyph-name="section" unicode="§" horiz-adv-x="406" d="M396 314c0 -58 -26 -102 -74 -128c51 -34 66 -64 66 -116v-13c0 -102 -72 -154 -187 -154c-125 0 -188 61 -188 143v18l126 36v-21c0 -49 15 -77 51 -77c24 0 41 12 41 38v9c0 31 -13 47 -62 75l-56 32c-71 40 -101 84 -101 146v12c0 57 29 99 80 122 c-50 40 -68 81 -68 132v11c0 84 67 136 181 136c113 0 179 -51 179 -142v-12l-128 -35v29c0 40 -15 60 -45 60c-25 0 -38 -14 -38 -40v-7c0 -24 18 -42 57 -65l57 -33c86 -50 109 -82 109 -147v-9zM151 327c0 -39 10 -51 70 -84l15 -8c12 9 17 25 17 52c0 42 -10 54 -75 94 c-18 -7 -27 -25 -27 -54z"/>
    <glyph glyph-name="asciicircum" unicode="^" horiz-adv-x="456" d="M142 710h172l122 -263h-135l-73 169l-73 -169h-135z"/>
    <glyph glyph-name="dagger" unicode="†" horiz-adv-x="424" d="M281 379v-461h-138v461h-126v121h126v213h138v-213h126v-121h-126z"/>
    <glyph glyph-name="daggerdbl" unicode="‡" horiz-adv-x="424" d="M407 379h-126v-140h126v-121h-126v-200h-138v200h-126v121h126v140h-126v121h126v213h138v-213h126v-121z"/>
    <glyph glyph-name="emptyset" unicode="∅" horiz-adv-x="449" d="M424 514l-45 -57c19 -27 29 -62 29 -104v-105c0 -110 -73 -174 -184 -174c-48 0 -88 12 -119 35l-41 -52l-39 31l45 57c-19 27 -29 62 -29 104v105c0 110 73 174 184 174c48 0 88 -12 119 -35l41 52zM167 352v-84l103 131c-10 14 -26 20 -45 20c-34 0 -58 -20 -58 -67z M282 250v84l-103 -131c10 -14 26 -20 45 -20c34 0 58 20 58 67z"/>
    <glyph glyph-name="uni2126" unicode="Ω" horiz-adv-x="507" d="M478 0h-195l-11 279c25 7 40 37 40 78v178c0 41 -23 68 -58 68c-36 0 -59 -27 -59 -68v-178c0 -41 15 -71 41 -78l-12 -279h-195v124h86l5 69c-54 20 -86 78 -86 155v181c0 120 86 196 220 196c133 0 219 -76 219 -196v-181c0 -77 -32 -135 -86 -155l5 -69h86v-124z"/>
    <glyph glyph-name="uni2206" unicode="∆" horiz-adv-x="487" d="M10 0l119 710h233l116 -710h-468zM244 576l-60 -460h114z"/>
    <glyph glyph-name="uni00B5" unicode="µ" horiz-adv-x="481" d="M278 500h158v-500h-152v76c-19 -52 -52 -81 -101 -87v-184h-138v695h161v-343c0 -37 11 -54 35 -54s37 20 37 59v338z"/>
    <glyph glyph-name="uniF8FF" unicode="" horiz-adv-x="1018" d="M998 663h-552v-47h552v-48h-552v-47h552v-48h-552v-47h552v-47h-552v-48h552v-47h-978v426h978v-47zM67 667l13 9h-16l-5 15l-4 -15h-16l13 -9l-5 -15l12 9l13 -9zM142 676h-16l13 -9l-5 -15l12 10l13 -10l-5 15l12 9h-15l-5 15zM229 676h-16l13 -9l-5 -15l12 10l13 -10 l-5 15l12 9h-15l-5 15zM315 676h-15l13 -9l-5 -15l12 10l13 -10l-5 15l12 9h-15l-5 15zM415 667l12 9h-15l-5 15l-5 -15h-15l12 -9l-4 -15l12 10l13 -10zM98 632h-15l12 -9l-4 -14l12 9l12 -9l-4 14l12 9h-15l-5 15zM371 623l13 9h-16l-4 15l-5 -15h-15l12 -9l-5 -14l13 9 l12 -9zM273 364v93h94v80h-94v94h-80v-94h-93v-80h93v-93h80zM67 580l13 9h-16l-5 14l-4 -14h-16l13 -9l-5 -15l12 9l13 -9zM142 589h-16l13 -9l-5 -15l12 9l13 -9l-5 15l12 9h-15l-5 14zM315 589h-15l13 -9l-5 -15l12 9l13 -9l-5 15l12 9h-15l-5 14zM415 580l12 9h-15 l-5 14l-5 -14h-15l12 -9l-4 -15l12 9l13 -9zM67 492l13 10h-16l-5 14l-4 -14h-16l13 -10l-5 -14l12 9l13 -9zM415 492l12 10h-15l-5 14l-5 -14h-15l12 -10l-4 -14l12 9l13 -9zM67 405l13 9h-16l-5 15l-4 -15h-16l13 -9l-5 -14l12 9l13 -9zM154 405l12 9h-15l-5 15l-4 -15 h-16l13 -9l-5 -14l12 9l13 -9zM328 405l12 9h-15l-5 15l-5 -15h-15l13 -9l-5 -14l12 9l13 -9zM415 405l12 9h-15l-5 15l-5 -15h-15l12 -9l-4 -14l12 9l13 -9zM115 347l-4 15l12 9h-15l-5 14l-5 -14h-15l12 -9l-4 -15l12 9zM376 347l-5 15l13 9h-16l-4 14l-5 -14h-15l12 -9 l-5 -15l13 9zM72 303l-5 15l13 9h-16l-5 15l-4 -15h-16l13 -9l-5 -15l12 9zM159 303l-5 15l12 9h-15l-5 15l-4 -15h-16l13 -9l-5 -15l12 9zM246 303l-5 15l12 9h-15l-5 15l-4 -15h-16l13 -9l-5 -15l12 9zM333 303l-5 15l12 9h-15l-5 15l-5 -15h-15l13 -9l-5 -15l12 9z M420 303l-5 15l12 9h-15l-5 15l-5 -15h-15l12 -9l-4 -15l12 9zM20 189v48h977v-48h-977zM20 95v47h978v-47h-978zM20 0v47h978v-47h-978z"/>
    <glyph glyph-name="uni2113" unicode="ℓ" horiz-adv-x="438" d="M202 232c0 -90 30 -112 97 -112c24 0 38 3 56 7v-127c-22 -8 -41 -13 -97 -13c-139 0 -204 60 -211 183c-16 -6 -32 -12 -48 -17l-40 120l87 33v233c0 141 76 188 186 188c122 0 183 -68 183 -176c0 -131 -62 -230 -213 -313v-6zM202 568v-182c42 36 63 84 63 162 c0 48 -12 66 -32 66s-31 -17 -31 -46z"/>
    <glyph glyph-name="estimated" unicode="℮" horiz-adv-x="528" d="M503 347h-315v-270c23 -14 51 -20 82 -20c92 0 137 50 161 168l68 -26c-24 -133 -102 -212 -231 -212c-149 0 -243 82 -243 272v191c0 181 93 270 244 270c148 0 234 -88 234 -264v-109zM349 633c-22 17 -50 24 -82 24c-30 0 -57 -6 -79 -20v-227h161v223z"/>
    <glyph glyph-name="dollar" unicode="$" horiz-adv-x="475" d="M327 390c100 -48 138 -91 138 -180v-42c0 -98 -75 -171 -200 -182v-93h-49v92c-119 7 -204 74 -204 192v29l133 35v-41c0 -65 31 -94 71 -102v200l-69 32c-79 37 -122 89 -122 177v29c0 110 83 166 191 173v81h49v-81c100 -7 191 -59 191 -183v-26l-126 -35v37 c0 60 -24 91 -65 99v-181zM160 515c0 -34 18 -51 56 -71v158c-37 -6 -56 -30 -56 -65v-22zM324 171v22c0 35 -15 57 -59 81v-176c36 7 59 30 59 73z"/>
    <glyph glyph-name="cent" unicode="¢" horiz-adv-x="475" d="M455 312l-139 -24v36c0 48 -15 73 -49 81v-309c34 8 49 32 49 79v45l139 -31v-15c0 -108 -73 -177 -188 -185v-99h-48v99c-121 8 -194 82 -194 203v108c0 129 68 203 194 211v83h48v-83c118 -8 188 -75 188 -193v-6zM166 185c0 -52 17 -81 53 -89v309 c-36 -8 -53 -38 -53 -93v-127z"/>
    <glyph glyph-name="sterling" unicode="£" horiz-adv-x="517" d="M349 208l159 -29c-5 -125 -65 -194 -173 -194c-68 0 -107 22 -177 23c-33 0 -70 -6 -110 -16l-49 122c70 28 101 76 101 155c0 15 -1 30 -4 44h-72v82h54c-8 33 -15 69 -15 114c0 129 74 201 209 201c136 0 205 -63 208 -191v-26l-163 -30v53c-2 51 -15 77 -45 77 s-43 -25 -43 -70c0 -50 9 -87 18 -128h103v-82h-93c1 -8 1 -17 1 -26c0 -73 -34 -129 -92 -156c16 3 34 5 52 5c31 0 51 -8 74 -8c35 0 53 26 57 80z"/>
    <glyph glyph-name="florin" unicode="ƒ" horiz-adv-x="413" d="M339 710c37 0 61 -6 63 -6v-125c-2 0 -17 2 -35 2c-49 0 -59 -30 -67 -93l-8 -60h74v-101h-87l-61 -477h-174l62 477h-77v101h90l7 58c21 159 83 224 213 224z"/>
    <glyph glyph-name="yen" unicode="¥" horiz-adv-x="461" d="M462 695l-144 -411h109v-71h-114v-40h114v-71h-114v-102h-165v102h-114v71h114v40h-114v71h109l-144 411h172l39 -195c9 -39 15 -72 19 -105h3c4 33 10 66 19 105l39 195h172z"/>
    <glyph glyph-name="Euro" unicode="€" horiz-adv-x="496" d="M320 214l164 -23v-21c0 -122 -90 -185 -219 -185c-140 0 -224 83 -224 235v40h-48v63h48v63h-48v63h48v29c0 151 86 232 226 232c137 0 216 -75 216 -173v-26l-164 -21v27c0 47 -23 66 -53 66c-36 0 -58 -28 -58 -91v-43h133v-63h-133v-63h133v-63h-133v-53 c0 -65 24 -95 59 -95c28 0 53 21 53 69v33z"/>
    <glyph glyph-name="currency" unicode="¤" horiz-adv-x="479" d="M427 245c0 -31 -7 -59 -19 -82l46 -54l-68 -65l-48 52c-27 -13 -58 -20 -93 -20c-38 0 -72 8 -100 23l-49 -56l-71 65l53 61c-11 22 -17 49 -17 79v102c0 34 6 64 17 89l-53 60l71 65l50 -55c27 14 60 21 99 21c35 0 65 -6 91 -18l50 53l68 -65l-47 -55 c13 -26 20 -57 20 -93v-107zM291 252v104c0 46 -19 65 -46 65c-28 0 -48 -19 -48 -67v-102c0 -46 20 -66 48 -66c27 0 46 20 46 66z"/>
    <glyph glyph-name="fraction" unicode="⁄" horiz-adv-x="181" d="M-140 -17l362 744h99l-359 -744h-102z"/>
    <glyph glyph-name="onequarter" unicode="¼" horiz-adv-x="690" d="M93 -17l362 744h99l-359 -744h-102zM82 342v233c-16 -7 -38 -11 -55 -11h-12v100h8c36 0 69 11 80 46h85v-368h-106zM679 72h-44v-72h-103v72h-137v79l114 217h126v-214h44v-82zM532 277l-62 -123h62v123z"/>
    <glyph glyph-name="onehalf" unicode="½" horiz-adv-x="711" d="M93 -17l362 744h99l-359 -744h-102zM82 342v233c-16 -7 -38 -11 -55 -11h-12v100h8c36 0 69 11 80 46h85v-368h-106zM430 0v81c75 49 150 115 150 179c0 22 -6 32 -21 32c-16 0 -24 -11 -24 -34c0 -8 0 -16 1 -24l-108 15c-1 7 -1 13 -1 20c0 68 51 107 140 107 c83 0 125 -37 125 -110c0 -80 -66 -142 -139 -178h139v-88h-262z"/>
    <glyph glyph-name="threequarters" unicode="¾" horiz-adv-x="750" d="M153 -17l362 744h99l-359 -744h-102zM141 334c-88 0 -130 36 -130 112l107 13c0 -31 6 -41 25 -41c18 0 26 11 26 36c0 27 -12 38 -43 38h-7v77h7c29 0 41 12 41 39c0 19 -7 28 -22 28c-18 0 -26 -13 -26 -40l-107 16c0 70 46 106 134 106c83 0 128 -35 128 -100 c0 -42 -25 -74 -66 -84c42 -3 69 -36 69 -83c0 -78 -45 -117 -136 -117zM739 72h-44v-72h-103v72h-137v79l114 217h126v-214h44v-82zM592 277l-62 -123h62v123z"/>
    <glyph glyph-name="uni2153" unicode="⅓" horiz-adv-x="707" d="M93 -17l362 744h99l-359 -744h-102zM82 342v233c-16 -7 -38 -11 -55 -11h-12v100h8c36 0 69 11 80 46h85v-368h-106zM555 -8c-88 0 -130 36 -130 112l107 13c0 -31 6 -41 25 -41c18 0 26 11 26 36c0 27 -12 38 -43 38h-7v77h7c29 0 41 12 41 39c0 19 -7 28 -22 28 c-18 0 -26 -13 -26 -40l-107 16c0 70 46 106 134 106c83 0 128 -35 128 -100c0 -42 -25 -74 -66 -84c42 -3 69 -36 69 -83c0 -78 -45 -117 -136 -117z"/>
    <glyph glyph-name="uni2154" unicode="⅔" horiz-adv-x="771" d="M157 -17l362 744h99l-359 -744h-102zM16 342v81c75 49 150 115 150 179c0 22 -6 32 -21 32c-16 0 -24 -11 -24 -34c0 -8 0 -16 1 -24l-108 15c-1 7 -1 13 -1 20c0 68 51 107 140 107c83 0 125 -37 125 -110c0 -80 -66 -142 -139 -178h139v-88h-262zM619 -8 c-88 0 -130 36 -130 112l107 13c0 -31 6 -41 25 -41c18 0 26 11 26 36c0 27 -12 38 -43 38h-7v77h7c29 0 41 12 41 39c0 19 -7 28 -22 28c-18 0 -26 -13 -26 -40l-107 16c0 70 46 106 134 106c83 0 128 -35 128 -100c0 -42 -25 -74 -66 -84c42 -3 69 -36 69 -83 c0 -78 -45 -117 -136 -117z"/>
    <glyph glyph-name="oneeighth" unicode="⅛" horiz-adv-x="724" d="M455 727h99l-359 -744h-102zM188 342h-106v233c-16 -7 -38 -11 -55 -11h-12v100h8c36 0 69 11 80 46h85v-368zM646 202c46 -23 62 -55 62 -93c0 -69 -52 -117 -138 -117c-89 0 -140 39 -140 101c0 39 22 71 70 83c-46 23 -63 57 -63 98c0 60 49 102 131 102 c81 0 130 -42 130 -100c0 -30 -13 -57 -52 -74zM568 302c-21 0 -27 -11 -27 -31c0 -19 8 -31 34 -41l6 -2c11 8 13 21 13 43c0 19 -5 31 -26 31zM570 73c24 0 30 11 30 37c0 18 -5 28 -37 40l-8 3c-15 -9 -18 -23 -18 -43c0 -25 10 -37 33 -37z"/>
    <glyph glyph-name="threeeighths" unicode="⅜" horiz-adv-x="784" d="M515 727h99l-359 -744h-102zM277 451c0 -78 -45 -117 -136 -117c-88 0 -130 36 -130 112l107 13c0 -31 6 -41 25 -41c18 0 26 11 26 36c0 27 -12 38 -43 38h-7v77h7c29 0 41 12 41 39c0 19 -7 28 -22 28c-18 0 -26 -13 -26 -40l-107 16c0 70 46 106 134 106 c83 0 128 -35 128 -100c0 -42 -25 -74 -66 -84c42 -3 69 -36 69 -83zM706 202c46 -23 62 -55 62 -93c0 -69 -52 -117 -138 -117c-89 0 -140 39 -140 101c0 39 22 71 70 83c-46 23 -63 57 -63 98c0 60 49 102 131 102c81 0 130 -42 130 -100c0 -30 -13 -57 -52 -74zM628 302 c-21 0 -27 -11 -27 -31c0 -19 8 -31 34 -41l6 -2c11 8 13 21 13 43c0 19 -5 31 -26 31zM630 73c24 0 30 11 30 37c0 18 -5 28 -37 40l-8 3c-15 -9 -18 -23 -18 -43c0 -25 10 -37 33 -37z"/>
    <glyph glyph-name="fiveeighths" unicode="⅝" horiz-adv-x="786" d="M517 727h99l-359 -744h-102zM281 470c0 -94 -41 -136 -131 -136c-86 0 -134 38 -134 105l107 13c0 -26 7 -36 26 -36c18 0 24 13 24 50c0 33 -7 46 -26 46c-13 0 -21 -5 -26 -17l-98 9l14 206h224v-89h-139l-6 -52c15 17 38 26 69 26c65 0 96 -41 96 -125zM708 202 c46 -23 62 -55 62 -93c0 -69 -52 -117 -138 -117c-89 0 -140 39 -140 101c0 39 22 71 70 83c-46 23 -63 57 -63 98c0 60 49 102 131 102c81 0 130 -42 130 -100c0 -30 -13 -57 -52 -74zM630 302c-21 0 -27 -11 -27 -31c0 -19 8 -31 34 -41l6 -2c11 8 13 21 13 43 c0 19 -5 31 -26 31zM632 73c24 0 30 11 30 37c0 18 -5 28 -37 40l-8 3c-15 -9 -18 -23 -18 -43c0 -25 10 -37 33 -37z"/>
    <glyph glyph-name="seveneighths" unicode="⅞" horiz-adv-x="745" d="M476 727h99l-359 -744h-102zM58 342v34c0 91 37 184 97 244h-142v90h246v-72c-52 -41 -90 -132 -90 -217v-79h-111zM667 202c46 -23 62 -55 62 -93c0 -69 -52 -117 -138 -117c-89 0 -140 39 -140 101c0 39 22 71 70 83c-46 23 -63 57 -63 98c0 60 49 102 131 102 c81 0 130 -42 130 -100c0 -30 -13 -57 -52 -74zM589 302c-21 0 -27 -11 -27 -31c0 -19 8 -31 34 -41l6 -2c11 8 13 21 13 43c0 19 -5 31 -26 31zM591 73c24 0 30 11 30 37c0 18 -5 28 -37 40l-8 3c-15 -9 -18 -23 -18 -43c0 -25 10 -37 33 -37z"/>
    <glyph glyph-name="percent" unicode="%" horiz-adv-x="691" d="M91 -14l420 743h96l-417 -743h-99zM162 335c-93 0 -152 50 -152 142v95c0 91 59 141 153 141c92 0 151 -50 151 -142v-95c0 -91 -59 -141 -152 -141zM162 422c21 0 31 18 31 54v94c0 36 -11 55 -31 55s-31 -18 -31 -54v-95c0 -36 11 -54 31 -54zM529 -11 c-93 0 -152 50 -152 142v95c0 91 59 141 153 141c92 0 151 -50 151 -142v-95c0 -91 -59 -141 -152 -141zM529 76c21 0 31 18 31 54v94c0 36 -11 55 -31 55s-31 -18 -31 -54v-95c0 -36 11 -54 31 -54z"/>
    <glyph glyph-name="perthousand" unicode="‰" horiz-adv-x="1024" d="M91 -14l420 743h96l-417 -743h-99zM162 335c-93 0 -152 50 -152 142v95c0 91 59 141 153 141c92 0 151 -50 151 -142v-95c0 -91 -59 -141 -152 -141zM162 422c21 0 31 18 31 54v94c0 36 -11 55 -31 55s-31 -18 -31 -54v-95c0 -36 11 -54 31 -54zM529 -11 c-93 0 -152 50 -152 142v95c0 91 59 141 153 141c92 0 151 -50 151 -142v-95c0 -91 -59 -141 -152 -141zM862 -11c-93 0 -152 50 -152 142v95c0 91 59 141 153 141c92 0 151 -50 151 -142v-95c0 -91 -59 -141 -152 -141zM529 76c21 0 31 18 31 54v94c0 36 -11 55 -31 55 s-31 -18 -31 -54v-95c0 -36 11 -54 31 -54zM862 76c21 0 31 18 31 54v94c0 36 -11 55 -31 55s-31 -18 -31 -54v-95c0 -36 11 -54 31 -54z"/>
    <glyph glyph-name="uni03BC" unicode="μ" horiz-adv-x="481" d="M278 500h158v-500h-152v76c-19 -52 -52 -81 -101 -87v-184h-138v695h161v-343c0 -37 11 -54 35 -54s37 20 37 59v338z"/>
    <glyph glyph-name="numbersign" unicode="#" horiz-adv-x="547" d="M546 407h-107l-20 -119h93v-107h-111l-30 -181h-118l30 181h-74l-30 -181h-118l30 181h-90v107h108l20 119h-88v107h106l29 177h118l-29 -177h74l29 177h119l-30 -177h89v-107zM301 288l20 119h-74l-20 -119h74z"/>
    <glyph glyph-name="uni2116" unicode="№" horiz-adv-x="934" d="M46 0v710h176l97 -287c9 -33 20 -67 28 -98h3c-2 49 -3 98 -3 146v239h144v-710h-158l-111 324c-12 38 -23 73 -31 107h-3c2 -45 3 -91 3 -139v-292h-145zM707 165c-115 0 -181 67 -181 183v130c0 116 66 183 181 183c114 0 180 -67 180 -183v-130 c0 -116 -66 -183 -180 -183zM707 277c26 0 39 23 39 66v140c0 43 -13 66 -39 66s-40 -23 -40 -66v-140c0 -43 14 -66 40 -66zM526 0v117h362v-117h-362z"/>
    <glyph glyph-name="uni0394" unicode="Δ" horiz-adv-x="487" d="M10 0l119 710h233l116 -710h-468zM244 576l-60 -460h114z"/>
    <glyph glyph-name="uni03A9" unicode="Ω" horiz-adv-x="507" d="M478 0h-195l-11 279c25 7 40 37 40 78v178c0 41 -23 68 -58 68c-36 0 -59 -27 -59 -68v-178c0 -41 15 -71 41 -78l-12 -279h-195v124h86l5 69c-54 20 -86 78 -86 155v181c0 120 86 196 220 196c133 0 219 -76 219 -196v-181c0 -77 -32 -135 -86 -155l5 -69h86v-124z"/>
    <glyph glyph-name="pi" unicode="π" horiz-adv-x="508" d="M495 -3c-6 -1 -42 -8 -70 -8c-116 0 -140 66 -140 136v271h-60v-396h-157v396h-56v104h484v-104h-55v-248c0 -35 8 -49 32 -49c10 0 18 2 22 2v-104z"/>
    <glyph glyph-name="plus" unicode="+" horiz-adv-x="440" d="M408 386v-115h-129v-141h-119v141h-128v115h128v131h119v-131h129z"/>
    <glyph glyph-name="minus" unicode="−" horiz-adv-x="440" d="M32 271v115h376v-115h-376z"/>
    <glyph glyph-name="plusminus" unicode="±" d="M291 380h131v-116h-131v-125h-120v125h-129v116h129v125h120v-125zM42 0v110h380v-110h-380z"/>
    <glyph glyph-name="multiply" unicode="×" d="M427 202l-82 -82l-114 124l-114 -123l-81 80l117 128l-115 125l82 82l111 -121l111 121l83 -82l-115 -125z"/>
    <glyph glyph-name="divide" unicode="÷" horiz-adv-x="440" d="M220 421c-41 0 -70 28 -70 70s29 70 70 70c40 0 70 -27 70 -70c0 -41 -30 -70 -70 -70zM32 271v115h376v-115h-376zM220 96c-41 0 -70 28 -70 70s29 70 70 70c40 0 70 -27 70 -70c0 -41 -30 -70 -70 -70z"/>
    <glyph glyph-name="equal" unicode="=" horiz-adv-x="440" d="M32 358v115h376v-115h-376zM32 185v115h376v-115h-376z"/>
    <glyph glyph-name="less" unicode="&lt;" d="M374 87l-331 172v134l331 172v-141l-212 -97l212 -97v-143z"/>
    <glyph glyph-name="greater" unicode="&gt;" d="M90 87v143l212 97l-212 97v141l331 -172v-134z"/>
    <glyph glyph-name="degree" unicode="°" horiz-adv-x="342" d="M171 392c-88 0 -142 57 -142 149v27c0 93 53 149 142 149c88 0 142 -56 142 -149v-27c0 -92 -54 -149 -142 -149zM171 477c27 0 40 19 40 59v36c0 41 -13 59 -40 59s-42 -19 -42 -59v-36c0 -39 15 -59 42 -59z"/>
    <glyph glyph-name="approxequal" unicode="≈" d="M322 340c-66 0 -115 45 -170 45c-33 0 -74 -16 -99 -38v122c22 22 59 38 89 38c76 0 114 -46 170 -46c33 0 75 16 98 38v-122c-20 -22 -57 -37 -88 -37zM322 162c-66 0 -115 45 -170 45c-33 0 -74 -16 -99 -38v122c22 22 59 37 89 37c77 0 114 -45 170 -45 c33 0 75 16 98 38v-122c-20 -21 -57 -37 -88 -37z"/>
    <glyph glyph-name="greaterequal" unicode="≥" d="M67 130v143l212 97l-212 97v141l331 -172v-134zM398 115v-115h-332v115h332z"/>
    <glyph glyph-name="infinity" unicode="∞" horiz-adv-x="524" d="M370 477c78 0 134 -51 134 -142v-12c0 -91 -54 -143 -130 -143c-49 0 -82 26 -110 64c-28 -40 -60 -64 -110 -64c-77 0 -134 51 -134 142v13c0 90 55 142 130 142c49 0 83 -26 110 -64c28 40 60 64 110 64zM158 279c26 0 42 21 57 49c-13 28 -30 51 -57 51 c-20 0 -35 -16 -35 -47v-6c0 -31 14 -47 35 -47zM401 326v6c0 31 -13 47 -35 47c-25 0 -42 -21 -56 -49c13 -28 29 -51 56 -51c21 0 35 15 35 47z"/>
    <glyph glyph-name="lessequal" unicode="≤" d="M397 130l-331 172v134l331 172v-141l-212 -97l212 -97v-143zM66 115h332v-115h-332v115z"/>
    <glyph glyph-name="logicalnot" unicode="¬" d="M50 392h364v-269h-119v152h-245v117z"/>
    <glyph glyph-name="notequal" unicode="≠" d="M420 358h-133l-22 -58h155v-115h-200l-39 -101h-86l39 101h-90v115h135l22 58h-157v115h202l35 90h86l-35 -90h88v-115z"/>
    <glyph glyph-name="integral" unicode="∫" horiz-adv-x="406" d="M90 -115c-18 0 -37 1 -57 4v131c12 -1 24 -3 34 -3c41 0 59 21 59 66v457c0 129 62 192 194 192c17 0 35 -2 55 -5v-130c-12 1 -21 2 -31 2c-39 0 -56 -21 -56 -67v-457c0 -128 -64 -190 -198 -190z"/>
    <glyph glyph-name="partialdiff" unicode="∂" horiz-adv-x="474" d="M168 718c176 0 270 -117 270 -331v-175c0 -153 -68 -227 -208 -227c-132 0 -198 67 -198 205v69c0 127 56 193 150 193c45 0 77 -16 101 -43c-3 119 -48 179 -127 179c-23 0 -40 -4 -64 -14l-45 119c31 14 71 25 121 25zM236 95c30 0 47 27 47 77v155 c-11 10 -27 16 -43 16c-33 0 -49 -27 -49 -98v-84c0 -42 17 -66 45 -66z"/>
    <glyph glyph-name="product" unicode="∏" horiz-adv-x="513" d="M305 -88v668h-97v-668h-162v793h421v-793h-162z"/>
    <glyph glyph-name="radical" unicode="√" horiz-adv-x="523" d="M10 355h181l55 -270l118 649h153l-175 -828h-184l-79 320h-69v129z"/>
    <glyph glyph-name="summation" unicode="∑" horiz-adv-x="402" d="M24 -88v137l149 278l-136 242v136h330v-128h-160l138 -250l-156 -286h190v-129h-355z"/>
    <glyph glyph-name="lozenge" unicode="◊" horiz-adv-x="543" d="M331 -17h-121l-198 372l198 372h121l200 -372zM270 609l-125 -254l125 -254l128 254z"/>
    <glyph glyph-name="zero.tf" d="M232 -15c-128 0 -208 72 -208 231v262c0 160 80 232 208 232c127 0 208 -72 208 -232v-262c0 -159 -81 -231 -208 -231zM232 105c27 0 45 21 46 86v313c-1 65 -19 86 -46 86c-28 0 -46 -21 -46 -86v-313c0 -65 18 -86 46 -86z"/>
    <glyph glyph-name="one.tf" d="M316 125h104v-125h-377v125h113v356c-17 -18 -43 -28 -80 -28h-32v155h29c59 0 98 33 116 87h127v-570z"/>
    <glyph glyph-name="two.tf" d="M33 0v119c72 83 139 161 182 230c41 63 52 100 52 166v16c0 41 -13 54 -37 54c-25 0 -39 -18 -39 -60v-77l-162 19v46c0 123 79 197 201 197c127 0 200 -45 200 -175v-26c0 -62 -16 -108 -57 -176c-36 -60 -93 -133 -160 -207h222v-126h-402z"/>
    <glyph glyph-name="three.tf" d="M233 -15c-136 0 -206 63 -207 199v31l163 16v-46c0 -59 13 -77 42 -77c27 0 41 25 41 73v28c0 65 -17 87 -59 87h-24v120h24c39 0 54 26 54 83v24c0 47 -12 66 -38 66c-27 0 -39 -20 -39 -70v-57l-162 21v30c0 128 76 197 203 197c126 0 199 -45 199 -168v-31 c0 -77 -32 -136 -105 -150c78 -11 110 -63 110 -144v-34c0 -127 -73 -198 -202 -198z"/>
    <glyph glyph-name="four.tf" d="M233 0v147h-218v119l184 429h188v-424h67v-124h-67v-147h-154zM136 271h97v160c0 31 0 61 4 104h-2c-9 -42 -18 -69 -29 -101l-47 -115c-8 -22 -15 -37 -23 -48z"/>
    <glyph glyph-name="five.tf" d="M235 -15c-138 0 -205 65 -205 182v27l161 17v-26c0 -52 13 -76 43 -76c31 0 43 29 43 83v70c0 59 -10 96 -43 96c-26 0 -40 -19 -44 -63l-149 13l20 387h348v-130h-224l-8 -145c19 31 50 56 113 56c91 0 147 -59 147 -199v-80c0 -146 -80 -212 -202 -212z"/>
    <glyph glyph-name="six.tf" d="M287 473c100 0 153 -63 153 -189v-86c0 -129 -70 -213 -204 -213c-148 0 -208 86 -208 270v216c0 171 75 239 211 239c131 0 197 -49 197 -157v-26l-161 -19v23c0 39 -10 63 -40 63c-33 0 -46 -28 -46 -106v-57c21 27 51 42 98 42zM278 192v86c0 49 -15 75 -43 75 c-22 0 -36 -12 -46 -38v-104c0 -82 15 -107 46 -107c28 0 43 23 43 88z"/>
    <glyph glyph-name="seven.tf" d="M118 0v32c0 195 52 381 153 531h-228v132h376v-109c-88 -130 -136 -303 -136 -507v-79h-165z"/>
    <glyph glyph-name="eight.tf" d="M337 383c71 -31 105 -77 105 -167v-41c0 -116 -82 -190 -210 -190c-131 0 -210 71 -210 189v21c0 65 29 117 99 146c-58 29 -90 78 -90 159v34c0 106 80 176 200 176c122 0 198 -65 198 -172v-14c0 -69 -22 -112 -92 -141zM187 543v-56c0 -35 18 -52 54 -66l7 -3 c18 15 26 36 26 67v56c0 43 -14 62 -43 62s-44 -19 -44 -60zM279 164v68c0 40 -12 50 -57 68l-6 3c-23 -15 -31 -35 -31 -69v-69c0 -43 16 -63 48 -63c30 0 46 21 46 62z"/>
    <glyph glyph-name="nine.tf" d="M224 710c149 0 208 -84 208 -267v-201c0 -178 -72 -257 -211 -257c-130 0 -198 70 -198 164v33l161 21v-26c0 -46 11 -76 41 -76c34 0 46 30 47 110v69c-20 -22 -52 -35 -97 -35c-99 0 -155 61 -155 183v75c0 130 68 207 204 207zM225 366c22 0 36 11 47 37v103 c0 64 -17 90 -47 90c-28 0 -44 -22 -44 -84v-73c0 -48 15 -73 44 -73z"/>
    <glyph glyph-name="zero.tf.zero" d="M232 710c127 0 208 -72 208 -232v-262c0 -159 -81 -231 -208 -231c-128 0 -208 72 -208 231v262c0 160 80 232 208 232zM232 590c-28 0 -46 -21 -46 -86v-204l91 221c-3 52 -20 69 -45 69zM232 105c27 0 45 21 46 86v207l-92 -222c3 -53 20 -71 46 -71z"/>
    <glyph glyph-name="dollar.tf" d="M319 380c99 -56 130 -106 130 -191v-24c0 -104 -74 -171 -196 -179v-93h-44v92c-116 7 -194 73 -194 187v34l134 35v-48c0 -55 23 -86 60 -94v184l-68 40c-78 46 -117 97 -117 185v30c0 106 70 165 185 171v81h44v-81c116 -7 188 -74 188 -184v-32l-133 -31v43 c0 58 -18 88 -55 97v-185zM156 525c0 -38 17 -59 53 -82v160c-34 -6 -53 -25 -53 -60v-18zM307 166v14c0 32 -21 54 -54 76v-159c36 6 54 29 54 69z"/>
    <glyph glyph-name="cent.tf" d="M439 312l-133 -25v37c0 51 -18 74 -48 80v-308c31 7 48 29 48 79v46l133 -31v-35c0 -102 -76 -159 -181 -166v-99h-50v99c-109 9 -183 79 -183 202v110c0 132 68 201 183 210v83h50v-83c108 -7 181 -62 181 -173v-26zM158 186c0 -54 18 -81 50 -89v307 c-33 -8 -50 -35 -50 -90v-128z"/>
    <glyph glyph-name="sterling.tf" d="M301 208l155 -29c-5 -126 -61 -194 -159 -194c-57 0 -92 22 -149 22c-28 0 -53 -5 -82 -15l-59 123c53 32 80 84 80 154c0 15 -1 28 -3 41h-69v82h49c-11 36 -22 71 -22 119c0 129 72 199 204 199c126 0 195 -63 195 -189v-30l-158 -31v63c0 46 -13 67 -39 67 c-28 0 -40 -18 -40 -63c0 -52 13 -92 24 -135h95v-82h-83v-12c0 -88 -33 -134 -90 -168c14 3 26 4 40 4c31 0 43 -10 65 -10c28 0 43 28 46 84z"/>
    <glyph glyph-name="florin.tf" d="M355 710c26 0 51 -3 64 -6v-124c-9 2 -22 3 -36 3c-43 0 -58 -21 -67 -93l-8 -62h73v-101h-86l-60 -477h-174l61 477h-75v101h88l7 58c20 158 82 224 213 224z"/>
    <glyph glyph-name="yen.tf" d="M456 695l-126 -378h92v-71h-108v-56h108v-71h-108v-119h-164v119h-108v71h108v56h-108v71h92l-126 378h170l39 -207c6 -32 10 -61 13 -100h4c3 39 7 68 13 100l40 207h169z"/>
    <glyph glyph-name="Euro.tf" d="M293 214l159 -33v-13c0 -113 -77 -183 -205 -183c-133 0 -207 83 -207 227v50h-40v64h40v59h-40v63h40v42c0 140 76 220 210 220c127 0 201 -67 201 -180v-7l-158 -32v32c0 41 -16 63 -45 63c-31 0 -46 -26 -46 -78v-60h85v-63h-85v-59h85v-64h-85v-67 c0 -56 15 -85 47 -85c26 0 42 27 43 69z"/>
    <glyph glyph-name="percent.tf" d="M19 -12l360 733h70l-358 -733h-72zM131 423c-74 0 -119 44 -119 128v42c0 82 45 127 118 127s118 -45 118 -128v-42c0 -83 -45 -127 -117 -127zM131 500c17 0 23 13 23 38v67c0 25 -6 38 -23 38s-24 -13 -24 -38v-66c0 -26 7 -39 24 -39zM342 -10c-74 0 -119 44 -119 128 v42c0 82 45 127 118 127s118 -45 118 -128v-42c0 -83 -45 -127 -117 -127zM342 67c17 0 23 13 23 38v67c0 25 -6 38 -23 38s-24 -13 -24 -38v-66c0 -26 7 -39 24 -39z"/>
    <glyph glyph-name="perthousand.tf" d="M130 423c-70 0 -115 41 -115 124v41c0 83 45 124 117 124s115 -41 115 -124v-41c0 -83 -43 -124 -117 -124zM109 601v-69c0 -24 7 -35 22 -35c17 0 23 11 23 35v69c0 24 -6 36 -23 36c-15 0 -22 -12 -22 -36zM426 458v-69l-393 -110v69zM332 277c73 0 116 -41 116 -124 v-41c0 -83 -44 -124 -117 -124c-25 0 -47 6 -64 19c-17 -13 -39 -19 -65 -19c-71 0 -115 41 -115 124v41c0 83 45 124 116 124c26 0 48 -6 65 -18c17 12 38 18 64 18zM225 97v69c0 24 -6 36 -22 36s-23 -12 -23 -36v-69c0 -24 7 -35 23 -35s22 11 22 35zM354 97v69 c0 24 -6 36 -22 36s-23 -12 -23 -36v-69c0 -24 7 -35 23 -35s22 11 22 35z"/>
    <glyph glyph-name="uni0308" unicode="̈" horiz-adv-x="0" d="M-364 570v131h131v-131h-131zM-179 570v131h130v-131h-130z"/>
    <glyph glyph-name="uni0307" unicode="̇" horiz-adv-x="0" d="M-207 565v147h157v-147h-157z"/>
    <glyph glyph-name="gravecomb" unicode="̀" horiz-adv-x="0" d="M8 564h-131l-119 157h162z"/>
    <glyph glyph-name="acutecomb" unicode="́" horiz-adv-x="0" d="M-295 564l88 157h162l-119 -157h-131z"/>
    <glyph glyph-name="uni030B" unicode="̋" horiz-adv-x="0" d="M-436 564l88 157h120l-116 -157h-92zM-284 564l88 157h120l-116 -157h-92z"/>
    <glyph glyph-name="uni0302" unicode="̂" horiz-adv-x="0" d="M-48 564h-120l-51 100l-51 -100h-120l87 157h168z"/>
    <glyph glyph-name="uni030C" unicode="̌" horiz-adv-x="0" d="M-390 716h120l51 -100l51 100h120l-87 -157h-168z"/>
    <glyph glyph-name="uni0306" unicode="̆" horiz-adv-x="0" d="M-269 713c1 -42 16 -66 49 -66s48 24 48 66h114c-2 -103 -60 -154 -162 -154s-160 51 -162 154h113z"/>
    <glyph glyph-name="uni030A" unicode="̊" horiz-adv-x="0" d="M-168 542c-70 0 -122 46 -122 115s52 115 122 115s121 -46 121 -115s-51 -115 -121 -115zM-168 615c24 0 39 18 39 42s-15 42 -39 42c-25 0 -39 -18 -39 -42s14 -42 39 -42z"/>
    <glyph glyph-name="tildecomb" unicode="̃" horiz-adv-x="0" d="M-159 565c-63 0 -93 54 -125 54c-19 0 -30 -17 -34 -49l-89 29c6 77 46 123 109 123s93 -54 125 -54c19 0 30 16 34 49l89 -29c-6 -77 -45 -123 -109 -123z"/>
    <glyph glyph-name="uni0304" unicode="̄" horiz-adv-x="0" d="M-371 585v109h321v-109h-321z"/>
    <glyph glyph-name="uni0312" unicode="̒" horiz-adv-x="0" d="M-102 744l30 -49c-29 -5 -44 -16 -44 -34h66v-99h-132v80c0 55 25 91 80 102z"/>
    <glyph glyph-name="uni0326" unicode="̦" horiz-adv-x="0" d="M-131 -216l-30 49c29 5 44 16 44 34h-66v99h132v-80c0 -55 -25 -91 -80 -102z"/>
    <glyph glyph-name="uni0327" unicode="̧" horiz-adv-x="0" d="M-255 2h95l-27 -50c10 7 27 12 47 12c52 0 85 -32 85 -87v-1c0 -59 -51 -96 -128 -96c-63 0 -109 24 -127 68l92 24c6 -15 17 -22 32 -22c19 0 29 11 29 31v1c0 19 -11 29 -28 29c-11 0 -21 -5 -27 -13l-81 15z"/>
    <glyph glyph-name="uni0328" unicode="̨" horiz-adv-x="0" d="M-54 -110c-9 -69 -69 -93 -137 -93c-75 0 -128 33 -128 99c0 39 20 75 68 104h136c-60 -23 -92 -52 -92 -91c0 -20 9 -33 26 -33s27 11 32 35z"/>
    <glyph glyph-name="uni2003" unicode=" " horiz-adv-x="1000"/>
    <glyph glyph-name="uni2002" unicode=" " horiz-adv-x="500"/>
    <glyph glyph-name="uni2005" unicode=" " horiz-adv-x="250"/>
    <glyph glyph-name="uni200A" unicode=" " horiz-adv-x="75"/>
    <glyph glyph-name="uni00A0" unicode=" " horiz-adv-x="163"/>
    <glyph glyph-name="uni2009" unicode=" " horiz-adv-x="135"/>
    <glyph glyph-name="uni2004" unicode=" " horiz-adv-x="333"/>
    <glyph glyph-name="uni0243" unicode="Ƀ" horiz-adv-x="493" d="M375 367c66 -22 100 -76 100 -153v-21c0 -93 -43 -160 -130 -184v-116h-70v107h-7h-52v-107h-69v107h-101v695h101v90h69v-90h48h11v90h70v-100c82 -23 122 -85 122 -168v-22c0 -59 -30 -111 -92 -128zM302 513c0 52 -17 73 -58 73h-38v-184h38c43 0 58 29 58 88v23z M250 109c41 0 59 26 59 89v25c0 59 -19 81 -59 81h-44v-195h44z"/>
    <glyph glyph-name="uni20BF.case" horiz-adv-x="493" d="M375 375c66 -22 100 -77 100 -156v-23c0 -94 -43 -162 -130 -186v-99h-70v89h-7h-52v-89h-69v89h-101v710h101v82h69v-82h48h11v82h70v-92c82 -24 122 -86 122 -172v-22c0 -61 -30 -114 -92 -131zM302 524c0 55 -17 76 -58 76h-38v-190h38c43 0 58 30 58 91v23zM250 109 c41 0 59 27 59 92v26c0 62 -19 84 -59 84h-44v-202h44z"/>
    <glyph glyph-name="uni20BF.tf" d="M352 366c66 -22 101 -75 101 -152v-22c0 -95 -45 -157 -125 -181v-118h-69v107h-15h-44v-107h-69v107h-95v695h95v90h69v-90h40h19v90h69v-102c75 -23 117 -79 117 -165v-23c0 -62 -32 -112 -93 -129zM281 514c0 55 -19 71 -54 71h-31v-183h31c36 0 54 25 54 88v24z M232 110c37 0 56 23 56 88v26c0 59 -19 80 -56 80h-36v-194h36z"/>
    <glyph glyph-name="uni20BF.tf.case" d="M352 373c66 -22 101 -75 101 -155v-23c0 -97 -45 -160 -125 -184v-99h-69v88h-15h-44v-88h-69v88h-95v710h95v81h69v-81h40h19v81h69v-93c75 -24 117 -81 117 -168v-23c0 -65 -32 -116 -93 -134zM281 526c0 57 -19 74 -54 74h-31v-190h31c36 0 54 26 54 92v24zM232 110 c37 0 56 24 56 91v27c0 61 -19 83 -56 83h-36v-201h36z"/>
    <glyph glyph-name="g.ss01" horiz-adv-x="472" d="M230 -207c-120 0 -200 39 -200 152v19h160v-2c0 -48 13 -64 40 -64c29 0 40 24 40 70v109c-22 -59 -61 -80 -108 -80c-76 0 -129 57 -129 166v146c0 151 64 203 139 203c57 0 90 -32 104 -78l13 66h138v-514c0 -133 -67 -193 -197 -193zM233 109c26 0 38 22 38 72v145 c0 52 -13 74 -38 74c-29 0 -40 -25 -40 -86v-127c0 -58 15 -78 40 -78z"/>
    <glyph glyph-name="gbreve.ss01" horiz-adv-x="472" d="M186 713c1 -42 16 -66 49 -66s48 24 48 66h114c-2 -103 -60 -154 -162 -154s-160 51 -162 154h113zM230 -207c-120 0 -200 39 -200 152v19h160v-2c0 -48 13 -64 40 -64c29 0 40 24 40 70v109c-22 -59 -61 -80 -108 -80c-76 0 -129 57 -129 166v146c0 151 64 203 139 203 c57 0 90 -32 104 -78l13 66h138v-514c0 -133 -67 -193 -197 -193zM233 109c26 0 38 22 38 72v145c0 52 -13 74 -38 74c-29 0 -40 -25 -40 -86v-127c0 -58 15 -78 40 -78z"/>
    <glyph glyph-name="gcircumflex.ss01" horiz-adv-x="472" d="M406 564h-120l-51 100l-51 -100h-120l87 157h168zM230 -207c-120 0 -200 39 -200 152v19h160v-2c0 -48 13 -64 40 -64c29 0 40 24 40 70v109c-22 -59 -61 -80 -108 -80c-76 0 -129 57 -129 166v146c0 151 64 203 139 203c57 0 90 -32 104 -78l13 66h138v-514 c0 -133 -67 -193 -197 -193zM233 109c26 0 38 22 38 72v145c0 52 -13 74 -38 74c-29 0 -40 -25 -40 -86v-127c0 -58 15 -78 40 -78z"/>
    <glyph glyph-name="uni0123.ss01" horiz-adv-x="472" d="M244 744l30 -49c-29 -5 -44 -16 -44 -34h66v-99h-132v80c0 55 25 91 80 102zM230 -207c-120 0 -200 39 -200 152v19h160v-2c0 -48 13 -64 40 -64c29 0 40 24 40 70v109c-22 -59 -61 -80 -108 -80c-76 0 -129 57 -129 166v146c0 151 64 203 139 203c57 0 90 -32 104 -78 l13 66h138v-514c0 -133 -67 -193 -197 -193zM233 109c26 0 38 22 38 72v145c0 52 -13 74 -38 74c-29 0 -40 -25 -40 -86v-127c0 -58 15 -78 40 -78z"/>
    <glyph glyph-name="gdotaccent.ss01" horiz-adv-x="472" d="M157 565v147h157v-147h-157zM230 -207c-120 0 -200 39 -200 152v19h160v-2c0 -48 13 -64 40 -64c29 0 40 24 40 70v109c-22 -59 -61 -80 -108 -80c-76 0 -129 57 -129 166v146c0 151 64 203 139 203c57 0 90 -32 104 -78l13 66h138v-514c0 -133 -67 -193 -197 -193z M233 109c26 0 38 22 38 72v145c0 52 -13 74 -38 74c-29 0 -40 -25 -40 -86v-127c0 -58 15 -78 40 -78z"/>
    <glyph glyph-name="g_g.liga.ss01" horiz-adv-x="944" d="M230 -207c-120 0 -200 39 -200 152v19h160v-2c0 -48 13 -64 40 -64c29 0 40 24 40 70v109c-22 -59 -61 -80 -108 -80c-76 0 -129 57 -129 166v146c0 151 64 203 139 203c57 0 90 -32 104 -78l13 66h138v-514c0 -133 -67 -193 -197 -193zM702 -207 c-120 0 -200 39 -200 152v19h160v-2c0 -48 13 -64 40 -64c29 0 40 24 40 70v109c-22 -59 -61 -80 -108 -80c-76 0 -129 57 -129 166v146c0 151 64 203 139 203c57 0 90 -32 104 -78l13 66h138v-514c0 -133 -67 -193 -197 -193zM233 109c26 0 38 22 38 72v145 c0 52 -13 74 -38 74c-29 0 -40 -25 -40 -86v-127c0 -58 15 -78 40 -78zM705 109c26 0 38 22 38 72v145c0 52 -13 74 -38 74c-29 0 -40 -25 -40 -86v-127c0 -58 15 -78 40 -78z"/>
    <glyph glyph-name="g.sups.ss01" horiz-adv-x="405" d="M199 159c-100 0 -167 25 -167 115v15h140c0 -33 8 -42 26 -42c20 0 26 15 26 42v77c-17 -42 -50 -56 -85 -56c-59 0 -102 38 -102 112v112c0 117 54 150 111 150c45 0 70 -25 80 -54l11 45h123v-367c0 -104 -55 -149 -163 -149zM203 405c15 0 22 10 22 34v112 c0 28 -8 39 -22 39c-19 0 -26 -15 -26 -50v-94c0 -32 11 -41 26 -41z"/>
    <glyph glyph-name="a.sups" horiz-adv-x="376" d="M121 301c-63 0 -102 38 -102 109c0 74 41 102 126 120l59 12v42c0 11 -7 18 -20 18c-15 0 -22 -9 -22 -48h-135c0 89 59 130 157 130c108 0 156 -38 156 -120v-180c0 -37 2 -59 6 -74h-129c-2 13 -4 39 -4 51c-5 -37 -44 -60 -92 -60zM182 388c15 0 24 10 24 23v64 l-18 -4c-17 -4 -26 -16 -26 -47c0 -24 6 -36 20 -36z"/>
    <glyph glyph-name="b.sups" horiz-adv-x="403" d="M260 301c-44 0 -73 18 -85 53l-10 -44h-122v529h136v-208c14 30 44 53 90 53c63 0 102 -44 102 -110v-134c0 -90 -38 -139 -111 -139zM203 394c16 0 24 13 24 37v122c0 27 -8 38 -26 38c-15 0 -23 -9 -23 -32v-131c0 -23 9 -34 25 -34z"/>
    <glyph glyph-name="c.sups" horiz-adv-x="378" d="M194 301c-104 0 -167 56 -167 158v53c0 116 60 172 167 172c104 0 160 -39 160 -134l-138 -25c0 58 -7 68 -22 68c-17 0 -24 -8 -24 -59v-88c0 -44 7 -53 24 -53c16 0 22 11 22 73l138 -29c0 -87 -64 -136 -160 -136z"/>
    <glyph glyph-name="d.sups" horiz-adv-x="403" d="M140 301c-65 0 -108 48 -108 117v134c0 86 42 132 111 132c39 0 69 -14 81 -52v207h136v-529h-130v48c-17 -38 -49 -57 -90 -57zM200 394c16 0 25 11 25 30v136c0 23 -8 31 -24 31c-18 0 -25 -13 -25 -36v-125c0 -22 8 -36 24 -36z"/>
    <glyph glyph-name="e.sups" horiz-adv-x="385" d="M358 469h-189v-36c0 -30 8 -42 27 -42c16 0 26 11 26 58l136 -16c0 -91 -65 -132 -163 -132c-106 0 -168 56 -168 151v79c0 100 59 153 167 153s164 -47 164 -158v-57zM192 613c-16 0 -23 -11 -23 -41v-41h46v18c0 54 -8 64 -23 64z"/>
    <glyph glyph-name="f.sups" horiz-adv-x="266" d="M248 675v-89h-56v-276h-135v276h-39v89h39v38c0 91 44 131 145 131c11 0 29 -1 46 -3v-103c-12 1 -14 2 -20 2c-24 0 -36 -12 -36 -39v-26h56z"/>
    <glyph glyph-name="g.sups" horiz-adv-x="357" d="M234 406c76 -6 114 -44 114 -110v-11c0 -79 -66 -126 -177 -126c-92 0 -152 30 -152 80v6c0 29 18 49 50 59c-27 13 -43 38 -43 69c0 42 26 68 66 75c-46 17 -70 52 -70 102v18c0 74 54 116 152 116c22 0 42 -2 60 -6c11 41 41 62 87 62c8 0 13 1 20 -1v-92 c-13 4 -25 5 -36 5c-5 0 -11 0 -16 -1c22 -20 34 -47 34 -83v-19c0 -75 -51 -114 -148 -114c-18 0 -35 1 -50 4c-1 -3 -2 -5 -2 -10c0 -12 9 -16 29 -18zM148 589v-67c0 -19 10 -30 24 -30c15 0 24 11 24 30v67c0 20 -9 30 -24 30s-24 -10 -24 -30zM231 253v8 c0 15 -9 28 -29 29l-76 3c-1 -2 -1 -5 -1 -8v-15c0 -32 19 -47 53 -47c32 0 53 11 53 30z"/>
    <glyph glyph-name="h.sups" horiz-adv-x="402" d="M43 310v529h136v-217c17 40 52 62 96 62c59 0 88 -35 88 -107v-267h-139v244c0 24 -7 34 -22 34s-23 -9 -23 -27v-251h-136z"/>
    <glyph glyph-name="i.sups" horiz-adv-x="214" d="M40 717v118h134v-118h-134zM42 310v365h130v-365h-130z"/>
    <glyph glyph-name="j.sups" horiz-adv-x="223" d="M41 717v118h134v-118h-134zM44 164c-17 0 -41 3 -52 5v104c6 -1 16 -2 22 -2c23 0 30 12 30 38v366h136v-382c0 -89 -28 -129 -136 -129z"/>
    <glyph glyph-name="k.sups" horiz-adv-x="396" d="M237 310l-34 149l-24 -56v-93h-136v529h136v-307l53 143h145l-69 -134l73 -231h-144z"/>
    <glyph glyph-name="l.sups" horiz-adv-x="222" d="M179 839v-529h-136v529h136z"/>
    <glyph glyph-name="m.sups" horiz-adv-x="574" d="M43 675h132v-53c17 43 46 62 91 62s72 -20 84 -64c19 44 48 64 94 64c60 0 91 -40 91 -119v-255h-137v248c0 22 -6 30 -19 30c-16 0 -23 -11 -23 -32v-246h-136v248c0 21 -5 30 -19 30c-15 0 -22 -10 -22 -29v-249h-136v365z"/>
    <glyph glyph-name="n.sups" horiz-adv-x="402" d="M43 310v365h132v-58c14 43 48 67 97 67c63 0 91 -34 91 -107v-267h-139v245c0 23 -7 33 -22 33c-16 0 -23 -8 -23 -23v-255h-136z"/>
    <glyph glyph-name="o.sups" horiz-adv-x="392" d="M196 301c-103 0 -169 51 -169 143v97c0 92 66 143 169 143s169 -51 169 -143v-97c0 -92 -66 -143 -169 -143zM196 387c18 0 26 11 26 40v131c0 29 -8 40 -26 40c-17 0 -26 -11 -26 -40v-131c0 -29 9 -40 26 -40z"/>
    <glyph glyph-name="p.sups" horiz-adv-x="403" d="M43 168v507h132v-46c16 36 51 55 92 55c66 0 104 -45 104 -112v-139c0 -83 -39 -132 -105 -132c-46 0 -71 15 -87 51v-184h-136zM203 394c16 0 24 13 24 36v125c0 27 -7 36 -25 36c-17 0 -24 -8 -24 -33v-132c0 -21 8 -32 25 -32z"/>
    <glyph glyph-name="q.sups" horiz-adv-x="403" d="M223 168v191c-18 -38 -45 -58 -88 -58c-63 0 -103 43 -103 112v146c0 84 39 125 106 125c46 0 80 -20 89 -52l11 43h122v-507h-137zM200 394c16 0 25 10 25 32v136c0 21 -8 29 -24 29c-18 0 -25 -10 -25 -36v-125c0 -24 8 -36 24 -36z"/>
    <glyph glyph-name="r.sups" horiz-adv-x="283" d="M167 598c9 48 40 85 96 85c3 0 4 0 7 -1v-140c-10 2 -18 3 -30 3c-17 0 -31 0 -45 -8c-11 -6 -16 -18 -16 -41v-186h-136v365h124v-77z"/>
    <glyph glyph-name="s.sups" horiz-adv-x="345" d="M175 301c-105 0 -156 36 -160 112l135 17c0 -34 5 -44 23 -44c13 0 17 6 17 25c0 21 -7 27 -47 38l-11 3c-82 23 -111 55 -111 121c0 70 56 111 151 111c93 0 145 -38 149 -109l-131 -12c-2 28 -8 41 -20 41c-10 0 -15 -7 -15 -22c0 -21 6 -29 40 -39l24 -7 c82 -24 106 -50 106 -118c0 -78 -50 -117 -150 -117z"/>
    <glyph glyph-name="t.sups" horiz-adv-x="288" d="M23 586v89h44v79l136 45v-124h62v-89h-62v-128c0 -21 13 -39 40 -39c10 0 17 0 24 1v-110c-15 -3 -40 -5 -69 -5c-92 0 -131 37 -131 118v163h-44z"/>
    <glyph glyph-name="u.sups" horiz-adv-x="404" d="M230 364c-18 -42 -50 -63 -96 -63c-67 0 -95 33 -95 103v271h139v-245c0 -22 7 -33 24 -33c15 0 23 7 23 22v256h136v-365h-131v54z"/>
    <glyph glyph-name="v.sups" horiz-adv-x="330" d="M81 310l-88 365h141l20 -179c3 -33 7 -50 9 -79h3c2 29 5 46 9 79l21 179h141l-88 -365h-168z"/>
    <glyph glyph-name="w.sups" horiz-adv-x="486" d="M65 310l-63 365h132l10 -162c2 -31 3 -56 4 -84h4c1 26 2 55 6 83l22 163h125l21 -163c4 -28 7 -57 8 -83h3c1 28 2 53 4 84l10 162h133l-64 -365h-148l-22 159c-4 30 -4 69 -5 88h-5c1 -19 0 -58 -4 -88l-23 -159h-148z"/>
    <glyph glyph-name="x.sups" horiz-adv-x="385" d="M14 310l85 192l-79 173h143l15 -48c5 -15 12 -35 13 -59h3c2 24 8 44 13 58l17 49h139l-79 -170l87 -195h-148l-18 66c-6 21 -11 36 -12 53h-3c-2 -17 -7 -32 -13 -53l-19 -66h-144z"/>
    <glyph glyph-name="y.sups" horiz-adv-x="327" d="M49 162c-18 0 -31 1 -41 3v105c11 -3 17 -3 24 -3c33 0 50 6 57 26l2 6l-98 376h148l18 -160c5 -46 5 -84 7 -123h3c2 52 3 83 7 121l18 162h140l-86 -367c-25 -104 -86 -146 -199 -146z"/>
    <glyph glyph-name="z.sups" horiz-adv-x="310" d="M18 390l123 192h-114v93h260v-76l-122 -195h130v-94h-277v80z"/>
    <glyph glyph-name="uni24FF" unicode="⓿" horiz-adv-x="624" d="M313 -17c-169 0 -288 121 -288 312v121c0 192 118 311 290 311c169 0 284 -119 284 -311v-121c0 -192 -117 -312 -286 -312zM312 163c90 0 141 50 141 192s-51 192 -141 192s-141 -50 -141 -192s51 -192 141 -192zM312 247c-23 0 -34 14 -34 108s11 108 34 108 s34 -14 34 -108s-11 -108 -34 -108z"/>
    <glyph glyph-name="uni2776" unicode="❶" horiz-adv-x="624" d="M313 -17c-169 0 -288 121 -288 312v121c0 192 118 311 290 311c169 0 284 -119 284 -311v-121c0 -192 -117 -312 -286 -312zM273 171h106v368h-85c-11 -35 -44 -46 -80 -46h-8v-100h12c17 0 39 4 55 11v-233z"/>
    <glyph glyph-name="uni2777" unicode="❷" horiz-adv-x="624" d="M313 -17c-169 0 -288 121 -288 312v121c0 192 118 311 290 311c169 0 284 -119 284 -311v-121c0 -192 -117 -312 -286 -312zM183 167h262v88h-139c73 36 139 98 139 178c0 73 -42 110 -125 110c-89 0 -140 -39 -140 -107c0 -7 0 -13 1 -20l108 -15c-1 8 -1 16 -1 24 c0 23 8 34 24 34c15 0 21 -10 21 -32c0 -64 -75 -130 -150 -179v-81z"/>
    <glyph glyph-name="uni2778" unicode="❸" horiz-adv-x="624" d="M313 -17c-169 0 -288 121 -288 312v121c0 192 118 311 290 311c169 0 284 -119 284 -311v-121c0 -192 -117 -312 -286 -312zM309 163c91 0 136 39 136 117c0 47 -27 80 -69 83c41 10 66 42 66 84c0 65 -45 100 -128 100c-88 0 -134 -36 -134 -106l107 -16 c0 27 8 40 26 40c15 0 22 -9 22 -28c0 -27 -12 -39 -41 -39h-7v-77h7c31 0 43 -11 43 -38c0 -25 -8 -36 -26 -36c-19 0 -25 10 -25 41l-107 -13c0 -76 42 -112 130 -112z"/>
    <glyph glyph-name="uni2779" unicode="❹" horiz-adv-x="624" d="M313 -17c-169 0 -288 121 -288 312v121c0 192 118 311 290 311c169 0 284 -119 284 -311v-121c0 -192 -117 -312 -286 -312zM307 171h103v72h44v82h-44v214h-126l-114 -217v-79h137v-72zM245 325l62 123v-123h-62z"/>
    <glyph glyph-name="uni277A" unicode="❺" horiz-adv-x="624" d="M313 -17c-169 0 -288 121 -288 312v121c0 192 118 311 290 311c169 0 284 -119 284 -311v-121c0 -192 -117 -312 -286 -312zM314 167c90 0 131 42 131 136c0 84 -31 125 -96 125c-31 0 -54 -9 -69 -26l6 52h139v89h-224l-14 -206l98 -9c5 12 13 17 26 17 c19 0 26 -13 26 -46c0 -37 -6 -50 -24 -50c-19 0 -26 10 -26 36l-107 -13c0 -67 48 -105 134 -105z"/>
    <glyph glyph-name="uni277B" unicode="❻" horiz-adv-x="624" d="M313 -17c-169 0 -288 121 -288 312v121c0 192 118 311 290 311c169 0 284 -119 284 -311v-121c0 -192 -117 -312 -286 -312zM312 163c88 0 134 45 134 132c0 91 -34 128 -103 128c-26 0 -44 -6 -56 -20c2 57 9 65 27 65c15 0 21 -6 22 -22l107 17c0 55 -46 84 -124 84 c-95 0 -140 -43 -140 -186c0 -150 43 -198 133 -198zM313 245c-18 0 -25 10 -27 86c7 8 15 11 25 11c19 0 28 -11 28 -47c0 -39 -7 -50 -26 -50z"/>
    <glyph glyph-name="uni277C" unicode="❼" horiz-adv-x="624" d="M313 -17c-169 0 -288 121 -288 312v121c0 192 118 311 290 311c169 0 284 -119 284 -311v-121c0 -192 -117 -312 -286 -312zM234 171h111c0 164 38 255 90 296v72h-246v-90h142c-71 -71 -97 -158 -97 -278z"/>
    <glyph glyph-name="uni277D" unicode="❽" horiz-adv-x="624" d="M313 -17c-169 0 -288 121 -288 312v121c0 192 118 311 290 311c169 0 284 -119 284 -311v-121c0 -192 -117 -312 -286 -312zM313 163c86 0 138 48 138 117c0 38 -16 70 -62 93c39 17 52 44 52 74c0 58 -49 100 -130 100c-82 0 -131 -42 -131 -102c0 -41 17 -75 63 -98 c-48 -12 -70 -44 -70 -83c0 -62 51 -101 140 -101zM324 399l-6 2c-26 10 -34 22 -34 41c0 20 6 31 27 31s26 -12 26 -31c0 -22 -2 -35 -13 -43zM313 244c-23 0 -33 12 -33 37c0 20 3 34 18 43l8 -3c32 -12 37 -22 37 -40c0 -26 -6 -37 -30 -37z"/>
    <glyph glyph-name="uni277E" unicode="❾" horiz-adv-x="624" d="M313 -17c-169 0 -288 121 -288 312v121c0 192 118 311 290 311c169 0 284 -119 284 -311v-121c0 -192 -117 -312 -286 -312zM313 163c93 0 137 44 137 191c0 150 -38 193 -133 193c-89 0 -133 -48 -133 -124c0 -85 33 -122 103 -122c24 0 42 2 57 10 c-2 -58 -7 -69 -28 -69c-18 0 -24 18 -24 34l-106 -19c0 -53 44 -94 127 -94zM317 383c-20 0 -27 14 -27 40c0 33 7 45 26 45s26 -10 28 -76c-7 -7 -14 -9 -27 -9z"/>
    <glyph glyph-name="zero.case" horiz-adv-x="483" d="M241 -15c-131 0 -214 78 -214 232v278c0 154 83 232 214 232c132 0 215 -78 215 -232v-278c0 -154 -83 -232 -215 -232zM241 107c30 0 51 26 51 85v328c0 59 -21 85 -51 85c-29 0 -50 -26 -50 -85v-328c0 -59 21 -85 50 -85z"/>
    <glyph glyph-name="one.case" horiz-adv-x="336" d="M119 0v483c-20 -15 -53 -23 -94 -23h-13v156h10c65 0 110 35 130 94h128v-710h-161z"/>
    <glyph glyph-name="two.case" horiz-adv-x="450" d="M18 0v115c92 102 146 165 186 225c42 68 57 118 57 187v19c0 40 -14 57 -42 57c-27 0 -42 -21 -42 -63v-71l-163 19v47c0 119 79 192 209 192c139 0 207 -50 207 -180v-30c0 -68 -21 -128 -70 -207c-33 -51 -72 -94 -157 -184h228v-126h-413z"/>
    <glyph glyph-name="three.case" horiz-adv-x="445" d="M224 -15c-140 0 -211 56 -211 201v31l163 17v-42c0 -64 14 -84 46 -84c29 0 43 22 43 74v36c0 66 -17 88 -62 88h-24v120h24c42 0 58 27 58 87v30c0 46 -14 63 -41 63c-30 0 -43 -22 -43 -75v-53l-163 20v33c0 135 77 196 207 196c131 0 204 -56 204 -177v-26 c0 -77 -33 -139 -108 -154c77 -10 113 -63 113 -142v-46c0 -126 -73 -197 -206 -197z"/>
    <glyph glyph-name="four.case" horiz-adv-x="449" d="M447 157h-69v-157h-157v157h-219v119l188 434h188v-429h69v-124zM223 468c0 23 1 52 3 73h-1c-5 -23 -13 -43 -24 -73l-52 -137c-10 -26 -15 -36 -24 -50h98v187z"/>
    <glyph glyph-name="five.case" horiz-adv-x="444" d="M221 -15c-129 0 -207 67 -207 177v30l162 17v-30c0 -52 16 -74 45 -74c32 0 45 23 45 82v91c0 62 -12 84 -44 84c-27 0 -43 -20 -49 -59l-149 13l21 394h355v-130h-229l-8 -155c21 38 62 59 114 59c101 0 153 -66 153 -187v-108c0 -134 -73 -204 -209 -204z"/>
    <glyph glyph-name="six.case" horiz-adv-x="453" d="M281 483c103 0 157 -61 157 -186v-100c0 -131 -70 -212 -205 -212c-152 0 -214 86 -214 270v217c0 175 76 255 215 255c134 0 200 -56 200 -164v-19l-161 -19v23c0 39 -11 63 -41 63c-38 0 -52 -31 -52 -117v-53c21 27 53 42 101 42zM276 192v96c0 49 -16 75 -47 75 c-23 0 -38 -12 -49 -38v-114c0 -82 15 -107 49 -107c30 0 47 23 47 88z"/>
    <glyph glyph-name="seven.case" horiz-adv-x="393" d="M80 0v32c0 204 59 403 151 546h-227v132h382v-109c-96 -140 -140 -334 -140 -522v-79h-166z"/>
    <glyph glyph-name="eight.case" horiz-adv-x="449" d="M345 386c62 -31 91 -76 91 -160v-51c0 -116 -83 -190 -212 -190c-131 0 -211 71 -211 189v51c0 59 32 105 92 131c-53 29 -83 77 -83 154v41c0 106 81 176 201 176c123 0 199 -65 199 -172v-41c0 -60 -22 -98 -77 -128zM179 560v-63c0 -35 18 -52 54 -66l7 -3 c19 15 27 36 27 67v63c0 43 -14 62 -44 62s-44 -19 -44 -60zM272 164v78c0 40 -12 50 -58 68l-6 3c-23 -15 -32 -35 -32 -69v-79c0 -43 17 -63 49 -63c31 0 47 21 47 62z"/>
    <glyph glyph-name="nine.case" horiz-adv-x="451" d="M221 727c151 0 211 -74 211 -257v-238c0 -178 -73 -247 -214 -247c-132 0 -200 68 -200 174v23l160 21v-26c0 -46 13 -76 44 -76c36 0 49 30 49 110v79c-22 -24 -56 -35 -99 -35c-101 0 -157 61 -157 183v82c0 130 69 207 206 207zM222 376c22 0 37 9 49 36v111 c0 64 -17 90 -49 90c-30 0 -47 -22 -47 -84v-80c0 -48 17 -73 47 -73z"/>
    <glyph glyph-name="one.case.ss02" horiz-adv-x="420" d="M302 125h104v-125h-377v125h113v371c-17 -18 -43 -28 -80 -28h-32v155h29c59 0 98 33 116 87h127v-585z"/>
    <glyph glyph-name="zero.case.zero" horiz-adv-x="483" d="M241 727c132 0 215 -78 215 -232v-278c0 -154 -83 -232 -215 -232c-131 0 -214 78 -214 232v278c0 154 83 232 214 232zM241 605c-29 0 -50 -26 -50 -85v-221l100 240c-4 46 -23 66 -50 66zM241 107c30 0 51 26 51 85v224l-100 -242c4 -46 23 -67 49 -67z"/>
    <glyph glyph-name="uni24EA" unicode="⓪" horiz-adv-x="624" d="M313 -17c-169 0 -288 122 -288 312v121c0 193 118 311 290 311c169 0 284 -118 284 -311v-121c0 -191 -117 -312 -286 -312zM313 43c129 0 218 97 218 252v121c0 155 -89 251 -216 251c-131 0 -221 -95 -221 -251v-121c0 -155 90 -252 219 -252zM312 163 c-90 0 -141 50 -141 192s51 192 141 192s141 -50 141 -192s-51 -192 -141 -192zM312 247c23 0 34 14 34 108s-11 108 -34 108s-34 -14 -34 -108s11 -108 34 -108z"/>
    <glyph glyph-name="uni2460" unicode="①" horiz-adv-x="624" d="M313 -17c-169 0 -288 122 -288 312v121c0 193 118 311 290 311c169 0 284 -118 284 -311v-121c0 -191 -117 -312 -286 -312zM313 43c129 0 218 97 218 252v121c0 155 -89 251 -216 251c-131 0 -221 -95 -221 -251v-121c0 -155 90 -252 219 -252zM273 171v233 c-16 -7 -38 -11 -55 -11h-12v100h8c36 0 69 11 80 46h85v-368h-106z"/>
    <glyph glyph-name="uni2461" unicode="②" horiz-adv-x="624" d="M313 -17c-169 0 -288 122 -288 312v121c0 193 118 311 290 311c169 0 284 -118 284 -311v-121c0 -191 -117 -312 -286 -312zM313 43c129 0 218 97 218 252v121c0 155 -89 251 -216 251c-131 0 -221 -95 -221 -251v-121c0 -155 90 -252 219 -252zM183 167v81 c75 49 150 115 150 179c0 22 -6 32 -21 32c-16 0 -24 -11 -24 -34c0 -8 0 -16 1 -24l-108 15c-1 7 -1 13 -1 20c0 68 51 107 140 107c83 0 125 -37 125 -110c0 -80 -66 -142 -139 -178h139v-88h-262z"/>
    <glyph glyph-name="uni2462" unicode="③" horiz-adv-x="624" d="M313 -17c-169 0 -288 122 -288 312v121c0 193 118 311 290 311c169 0 284 -118 284 -311v-121c0 -191 -117 -312 -286 -312zM313 43c129 0 218 97 218 252v121c0 155 -89 251 -216 251c-131 0 -221 -95 -221 -251v-121c0 -155 90 -252 219 -252zM309 163 c-88 0 -130 36 -130 112l107 13c0 -31 6 -41 25 -41c18 0 26 11 26 36c0 27 -12 38 -43 38h-7v77h7c29 0 41 12 41 39c0 19 -7 28 -22 28c-18 0 -26 -13 -26 -40l-107 16c0 70 46 106 134 106c83 0 128 -35 128 -100c0 -42 -25 -74 -66 -84c42 -3 69 -36 69 -83 c0 -78 -45 -117 -136 -117z"/>
    <glyph glyph-name="uni2463" unicode="④" horiz-adv-x="624" d="M313 -17c-169 0 -288 122 -288 312v121c0 193 118 311 290 311c169 0 284 -118 284 -311v-121c0 -191 -117 -312 -286 -312zM313 43c129 0 218 97 218 252v121c0 155 -89 251 -216 251c-131 0 -221 -95 -221 -251v-121c0 -155 90 -252 219 -252zM454 243h-44v-72h-103v72 h-137v79l114 217h126v-214h44v-82zM307 448l-62 -123h62v123z"/>
    <glyph glyph-name="uni2464" unicode="⑤" horiz-adv-x="624" d="M313 -17c-169 0 -288 122 -288 312v121c0 193 118 311 290 311c169 0 284 -118 284 -311v-121c0 -191 -117 -312 -286 -312zM313 43c129 0 218 97 218 252v121c0 155 -89 251 -216 251c-131 0 -221 -95 -221 -251v-121c0 -155 90 -252 219 -252zM314 167 c-86 0 -134 38 -134 105l107 13c0 -26 7 -36 26 -36c18 0 24 13 24 50c0 33 -7 46 -26 46c-13 0 -21 -5 -26 -17l-98 9l14 206h224v-89h-139l-6 -52c15 17 38 26 69 26c65 0 96 -41 96 -125c0 -94 -41 -136 -131 -136z"/>
    <glyph glyph-name="uni2465" unicode="⑥" horiz-adv-x="624" d="M315 727c169 0 284 -118 284 -311v-121c0 -191 -117 -312 -286 -312s-288 122 -288 312v121c0 193 118 311 290 311zM531 295v121c0 155 -89 251 -216 251c-131 0 -221 -95 -221 -251v-121c0 -155 90 -252 219 -252s218 97 218 252zM343 423c69 0 103 -37 103 -128 c0 -87 -46 -132 -134 -132c-90 0 -133 48 -133 198c0 143 45 186 140 186c78 0 124 -29 124 -84l-107 -17c-1 16 -7 22 -22 22c-18 0 -25 -8 -27 -65c12 14 30 20 56 20zM313 245c19 0 26 11 26 50c0 36 -9 47 -28 47c-10 0 -18 -3 -25 -11c2 -76 9 -86 27 -86z"/>
    <glyph glyph-name="uni2466" unicode="⑦" horiz-adv-x="624" d="M313 -17c-169 0 -288 122 -288 312v121c0 193 118 311 290 311c169 0 284 -118 284 -311v-121c0 -191 -117 -312 -286 -312zM313 43c129 0 218 97 218 252v121c0 155 -89 251 -216 251c-131 0 -221 -95 -221 -251v-121c0 -155 90 -252 219 -252zM189 449v90h246v-72 c-52 -41 -90 -132 -90 -217v-79h-111v34c0 91 37 184 97 244h-142z"/>
    <glyph glyph-name="uni2467" unicode="⑧" horiz-adv-x="624" d="M315 727c169 0 284 -118 284 -311v-121c0 -191 -117 -312 -286 -312s-288 122 -288 312v121c0 193 118 311 290 311zM531 295v121c0 155 -89 251 -216 251c-131 0 -221 -95 -221 -251v-121c0 -155 90 -252 219 -252s218 97 218 252zM389 373c46 -23 62 -55 62 -93 c0 -69 -52 -117 -138 -117c-89 0 -140 39 -140 101c0 39 22 71 70 83c-46 23 -63 57 -63 98c0 60 49 102 131 102c81 0 130 -42 130 -100c0 -30 -13 -57 -52 -74zM311 473c-21 0 -27 -11 -27 -31c0 -19 8 -31 34 -41l6 -2c11 8 13 21 13 43c0 19 -5 31 -26 31zM313 244 c24 0 30 11 30 37c0 18 -5 28 -37 40l-8 3c-15 -9 -18 -23 -18 -43c0 -25 10 -37 33 -37z"/>
    <glyph glyph-name="uni2468" unicode="⑨" horiz-adv-x="624" d="M315 727c169 0 284 -118 284 -311v-121c0 -191 -117 -312 -286 -312s-288 122 -288 312v121c0 193 118 311 290 311zM531 295v121c0 155 -89 251 -216 251c-131 0 -221 -95 -221 -251v-121c0 -155 90 -252 219 -252s218 97 218 252zM312 547c95 0 133 -43 133 -193 c0 -147 -44 -191 -137 -191c-83 0 -127 41 -127 94l106 19c0 -16 6 -34 24 -34c21 0 26 11 28 69c-15 -8 -33 -10 -57 -10c-70 0 -103 37 -103 122c0 76 44 124 133 124zM312 383c13 0 20 2 27 9c-2 66 -9 76 -28 76s-26 -12 -26 -45c0 -26 7 -40 27 -40z"/>
    <glyph glyph-name="zero.osf" horiz-adv-x="480" d="M240 -15c-126 0 -210 73 -210 214v137c0 141 84 214 210 214s210 -73 210 -214v-137c0 -141 -84 -214 -210 -214zM240 110c27 0 48 20 48 75v165c0 55 -21 75 -48 75s-48 -20 -48 -75v-165c0 -55 21 -75 48 -75z"/>
    <glyph glyph-name="one.osf" horiz-adv-x="431" d="M308 132h103v-132h-371v132h108v204c-19 -19 -55 -30 -94 -30h-14v153h12c58 0 108 29 128 76h128v-403z"/>
    <glyph glyph-name="two.osf" horiz-adv-x="451" d="M27 116c68 46 141 105 182 142s54 67 54 105v14c0 37 -12 52 -36 52c-21 0 -38 -18 -38 -54v-57l-164 20v34c0 114 82 178 202 178c125 0 201 -54 201 -163v-21c0 -45 -18 -84 -44 -114c-37 -43 -91 -84 -160 -126h210v-126h-407v116z"/>
    <glyph glyph-name="three.osf" horiz-adv-x="445" d="M224 -165c-137 0 -211 54 -211 183v40l163 16v-38c0 -62 15 -79 46 -79c29 0 43 30 43 80v22c0 64 -17 85 -62 85h-24v122h24c43 0 58 24 58 75v24c0 46 -14 64 -41 64c-28 0 -43 -19 -43 -72v-46l-163 20v40c0 117 79 179 207 179c130 0 204 -63 204 -184v-19 c0 -73 -34 -123 -105 -136c78 -11 110 -69 110 -141v-34c0 -125 -74 -201 -206 -201z"/>
    <glyph glyph-name="four.osf" horiz-adv-x="467" d="M232 -150v149h-222v119l191 417h188v-412h68v-124h-68v-149h-157zM133 123h99v153c0 29 0 51 2 93h-1c-11 -40 -19 -60 -28 -87l-43 -95c-9 -23 -17 -44 -29 -64z"/>
    <glyph glyph-name="five.osf" horiz-adv-x="445" d="M220 -165c-137 0 -206 66 -206 183v28l163 18v-37c0 -52 15 -69 45 -69c32 0 45 30 45 85v57c0 58 -11 95 -45 95c-27 0 -42 -19 -47 -61l-151 12l20 389h355v-130h-227l-8 -148c18 30 51 56 113 56c95 0 154 -62 154 -198v-66c0 -145 -83 -214 -211 -214z"/>
    <glyph glyph-name="six.osf" horiz-adv-x="453" d="M281 473c103 0 157 -61 157 -186v-90c0 -131 -70 -212 -205 -212c-152 0 -214 86 -214 270v200c0 175 76 255 215 255c134 0 200 -56 200 -164v-19l-161 -19v23c0 39 -11 63 -41 63c-38 0 -52 -31 -52 -117v-46c21 27 53 42 101 42zM276 192v86c0 49 -16 75 -47 75 c-23 0 -38 -12 -49 -38v-104c0 -82 15 -107 49 -107c30 0 47 23 47 88z"/>
    <glyph glyph-name="seven.osf" horiz-adv-x="390" d="M77 -150v54c0 185 58 365 151 499h-224v132h379v-110c-96 -129 -141 -303 -141 -481v-94h-165z"/>
    <glyph glyph-name="eight.osf" horiz-adv-x="449" d="M345 376c62 -31 91 -76 91 -160v-41c0 -116 -83 -190 -212 -190c-131 0 -211 71 -211 189v41c0 59 32 105 92 131c-53 29 -83 77 -83 154v34c0 106 81 176 201 176c123 0 199 -65 199 -172v-34c0 -60 -22 -98 -77 -128zM179 543v-56c0 -35 18 -52 54 -66l7 -3 c19 15 27 36 27 67v56c0 43 -14 62 -44 62s-44 -19 -44 -60zM272 164v68c0 40 -12 50 -58 68l-6 3c-23 -15 -32 -35 -32 -69v-69c0 -43 17 -63 49 -63c31 0 47 21 47 62z"/>
    <glyph glyph-name="nine.osf" horiz-adv-x="451" d="M221 550c148 0 211 -80 211 -268v-192c0 -174 -68 -255 -214 -255c-132 0 -200 61 -200 180v24l160 24v-38c0 -46 16 -71 44 -71c36 0 49 27 49 104v82c-22 -23 -55 -34 -101 -34c-101 0 -155 63 -155 181v56c0 133 73 207 206 207zM222 227c23 0 38 10 49 34v86 c0 61 -15 88 -49 88c-32 0 -47 -26 -47 -84v-52c0 -47 16 -72 47 -72z"/>
    <glyph glyph-name="zero.osf.zero" horiz-adv-x="480" d="M240 550c126 0 210 -73 210 -214v-137c0 -141 -84 -214 -210 -214s-210 73 -210 214v137c0 141 84 214 210 214zM240 425c-27 0 -48 -20 -48 -75v-136l90 178c-8 24 -23 33 -42 33zM240 110c27 0 48 20 48 75v140l-91 -178c7 -27 24 -37 43 -37z"/>
    <glyph glyph-name="one.ss02" horiz-adv-x="422" d="M303 125h104v-125h-377v125h113v356c-17 -18 -43 -28 -80 -28h-32v155h29c59 0 98 33 116 87h127v-570z"/>
    <glyph glyph-name="zero.tf.case" d="M232 -15c-128 0 -208 72 -208 231v279c0 160 80 232 208 232c127 0 208 -72 208 -232v-279c0 -159 -81 -231 -208 -231zM232 105c27 0 46 21 46 86v330c0 65 -19 86 -46 86c-28 0 -46 -21 -46 -86v-330c0 -65 18 -86 46 -86z"/>
    <glyph glyph-name="one.tf.case" d="M316 125h104v-125h-377v125h113v371c-17 -18 -43 -28 -80 -28h-32v155h29c59 0 98 33 116 87h127v-585z"/>
    <glyph glyph-name="two.tf.case" d="M33 0v119c72 83 139 161 182 230c41 67 52 106 52 176v23c0 41 -13 54 -37 54c-25 0 -39 -18 -39 -60v-77l-162 19v46c0 123 79 197 201 197c127 0 200 -45 200 -175v-33c0 -66 -16 -114 -57 -186c-36 -60 -93 -133 -160 -207h222v-126h-402z"/>
    <glyph glyph-name="three.tf.case" d="M233 -15c-136 0 -207 63 -207 199v31l163 16v-46c0 -59 13 -77 42 -77c27 0 41 25 41 73v38c0 65 -17 87 -59 87h-24v120h24c39 0 54 26 54 83v31c0 47 -12 66 -38 66c-27 0 -39 -20 -39 -70v-57l-162 21v30c0 128 76 197 203 197c126 0 199 -45 199 -168v-38 c0 -77 -32 -136 -105 -150c78 -11 110 -63 110 -144v-44c0 -127 -73 -198 -202 -198z"/>
    <glyph glyph-name="four.tf.case" d="M233 0v157h-218v119l184 434h188v-429h67v-124h-67v-157h-154zM136 281h97v165c0 31 0 61 4 104h-2c-9 -42 -17 -70 -29 -101l-47 -120c-9 -22 -15 -37 -23 -48z"/>
    <glyph glyph-name="five.tf.case" d="M235 -15c-138 0 -205 65 -205 182v27l161 17v-26c0 -52 13 -76 43 -76c31 0 43 29 43 83v80c0 59 -10 96 -43 96c-26 0 -40 -19 -44 -63l-149 13l20 392h348v-130h-224l-8 -150c19 31 50 56 113 56c91 0 147 -59 147 -199v-90c0 -146 -80 -212 -202 -212z"/>
    <glyph glyph-name="six.tf.case" d="M287 483c100 0 153 -63 153 -189v-96c0 -129 -70 -213 -204 -213c-148 0 -208 86 -208 270v233c0 171 75 239 211 239c131 0 197 -49 197 -157v-26l-161 -19v23c0 39 -10 63 -40 63c-33 0 -46 -28 -46 -106v-64c21 27 51 42 98 42zM278 192v96c0 49 -15 75 -43 75 c-22 0 -36 -12 -46 -38v-114c0 -82 15 -107 46 -107c28 0 43 23 43 88z"/>
    <glyph glyph-name="seven.tf.case" d="M118 0v32c0 195 52 396 153 546h-228v132h376v-109c-88 -130 -136 -318 -136 -522v-79h-165z"/>
    <glyph glyph-name="eight.tf.case" d="M337 393c71 -31 105 -77 105 -167v-51c0 -116 -82 -190 -210 -190c-131 0 -210 71 -210 189v31c0 65 29 117 99 146c-58 29 -90 78 -90 159v41c0 106 80 176 200 176c122 0 198 -65 198 -172v-21c0 -69 -22 -112 -92 -141zM187 560v-63c0 -35 18 -52 54 -66l7 -3 c18 15 26 36 26 67v63c0 43 -14 62 -43 62s-44 -19 -44 -60zM279 164v78c0 40 -12 50 -57 68l-6 3c-23 -15 -31 -35 -31 -69v-79c0 -43 16 -63 48 -63c30 0 46 21 46 62z"/>
    <glyph glyph-name="nine.tf.case" d="M224 727c149 0 208 -84 208 -274v-211c0 -178 -72 -257 -211 -257c-130 0 -198 70 -198 164v33l161 21v-26c0 -46 11 -76 41 -76c34 0 47 30 47 110v79c-20 -22 -52 -35 -97 -35c-99 0 -155 61 -155 183v82c0 130 68 207 204 207zM225 376c22 0 36 11 47 37v110 c0 64 -17 90 -47 90c-28 0 -44 -22 -44 -84v-80c0 -48 15 -73 44 -73z"/>
    <glyph glyph-name="zero.tf.case.zero" d="M232 727c127 0 208 -72 208 -232v-279c0 -159 -81 -231 -208 -231c-128 0 -208 72 -208 231v279c0 160 80 232 208 232zM232 607c-28 0 -46 -21 -46 -86v-221l92 223c0 63 -19 84 -46 84zM232 105c27 0 46 21 46 86v207l-92 -222c3 -53 20 -71 46 -71z"/>
    <glyph glyph-name="zero.tosf" d="M232 -15c-123 0 -205 73 -205 214v137c0 141 82 214 205 214s205 -73 205 -214v-137c0 -141 -82 -214 -205 -214zM232 110c24 0 43 20 43 75v165c0 55 -19 75 -43 75s-43 -20 -43 -75v-165c0 -55 19 -75 43 -75z"/>
    <glyph glyph-name="one.tosf" d="M322 132h98v-132h-361v132h104v204c-17 -19 -46 -30 -79 -30h-21v153h20c51 0 94 29 111 76h128v-403z"/>
    <glyph glyph-name="two.tosf" d="M29 116c77 53 149 106 185 140c38 35 51 59 51 97v21c0 36 -12 55 -37 55c-24 0 -37 -19 -37 -53v-57l-164 20v33c0 117 79 178 202 178c129 0 201 -50 201 -163v-21c0 -43 -15 -76 -44 -114s-75 -74 -160 -126h210v-126h-407v116z"/>
    <glyph glyph-name="three.tosf" d="M234 -165c-136 0 -208 61 -208 201v20l163 16v-37c0 -61 15 -78 43 -78c27 0 40 23 40 71v23c0 64 -16 91 -59 91h-23v122h24c38 0 54 26 54 78v24c0 47 -13 63 -38 63c-27 0 -41 -18 -41 -70v-46l-162 20v18c0 131 78 199 205 199s198 -64 198 -184v-20 c0 -71 -31 -123 -105 -137c79 -10 110 -74 110 -146v-34c0 -123 -72 -194 -201 -194z"/>
    <glyph glyph-name="four.tosf" d="M233 -150v149h-218v119l183 417h189v-412h67v-124h-67v-149h-154zM140 123h93v141c0 34 0 64 1 95h-2c-8 -26 -17 -52 -27 -77l-38 -92c-9 -24 -18 -45 -27 -67z"/>
    <glyph glyph-name="five.tosf" d="M231 -165c-137 0 -201 66 -201 182v24l160 21v-28c0 -54 14 -75 43 -75c32 0 43 30 43 84v56c0 60 -10 96 -43 96c-25 0 -40 -19 -44 -62l-149 13l19 389h349v-130h-223l-8 -146c17 29 51 55 110 55c93 0 150 -62 150 -198v-67c0 -146 -79 -214 -206 -214z"/>
    <glyph glyph-name="six.tosf" d="M287 473c100 0 153 -63 153 -189v-86c0 -129 -70 -213 -204 -213c-148 0 -208 86 -208 270v216c0 171 75 239 211 239c131 0 197 -49 197 -157v-26l-161 -19v23c0 39 -10 63 -40 63c-33 0 -46 -28 -46 -106v-57c21 27 51 42 98 42zM278 192v86c0 49 -15 75 -43 75 c-22 0 -36 -12 -46 -38v-104c0 -82 15 -107 46 -107c28 0 43 23 43 88z"/>
    <glyph glyph-name="seven.tosf" d="M118 -150v32c0 191 52 374 153 521h-228v132h376v-109c-88 -127 -136 -297 -136 -497v-79h-165z"/>
    <glyph glyph-name="eight.tosf" d="M337 383c71 -31 105 -77 105 -167v-41c0 -116 -82 -190 -210 -190c-131 0 -210 71 -210 189v21c0 65 29 117 99 146c-58 29 -90 78 -90 159v34c0 106 80 176 200 176c122 0 198 -65 198 -172v-14c0 -69 -22 -112 -92 -141zM187 543v-56c0 -35 18 -52 54 -66l7 -3 c18 15 26 36 26 67v56c0 43 -14 62 -43 62s-44 -19 -44 -60zM279 164v68c0 40 -12 50 -57 68l-6 3c-23 -15 -31 -35 -31 -69v-69c0 -43 16 -63 48 -63c30 0 46 21 46 62z"/>
    <glyph glyph-name="nine.tosf" d="M224 550c149 0 208 -84 208 -267v-201c0 -168 -72 -247 -211 -247c-130 0 -198 70 -198 164v33l161 21v-26c0 -46 11 -76 41 -76c34 0 46 30 47 110v79c-20 -22 -52 -35 -97 -35c-99 0 -155 61 -155 183v55c0 130 68 207 204 207zM225 226c22 0 36 11 47 37v83 c0 64 -17 90 -47 90c-28 0 -44 -22 -44 -84v-53c0 -48 15 -73 44 -73z"/>
    <glyph glyph-name="zero.tosf.zero" d="M232 550c123 0 205 -73 205 -214v-137c0 -141 -82 -214 -205 -214s-205 73 -205 214v137c0 141 82 214 205 214zM232 425c-24 0 -43 -20 -43 -75v-128l83 163c-7 29 -22 40 -40 40zM232 110c24 0 43 20 43 75v129l-83 -162c6 -30 22 -42 40 -42z"/>
    <glyph glyph-name="zero.subs" horiz-adv-x="402" d="M201 -151c-105 0 -173 59 -173 265s68 265 173 265s173 -59 173 -265s-68 -265 -173 -265zM201 -48c16 0 31 13 31 162s-15 162 -31 162s-31 -13 -31 -162s15 -162 31 -162z"/>
    <glyph glyph-name="one.subs" horiz-adv-x="287" d="M100 -140v318c-15 -8 -39 -14 -73 -14h-9v136h7c54 0 87 27 104 67h110v-507h-139z"/>
    <glyph glyph-name="two.subs" horiz-adv-x="383" d="M23 -140v97c121 121 188 181 188 284c0 22 -8 31 -25 31c-16 0 -25 -15 -25 -37c0 -18 0 -32 3 -50l-143 15c-2 11 -3 20 -3 31c0 89 64 147 171 147c115 0 171 -36 171 -137c0 -115 -60 -165 -174 -274h174v-107h-337z"/>
    <glyph glyph-name="three.subs" horiz-adv-x="375" d="M190 -151c-115 0 -172 41 -172 163l141 14c0 -62 8 -73 29 -73c18 0 26 12 26 55c0 50 -11 60 -43 60h-18v99h19c29 0 39 16 39 62c0 37 -8 47 -25 47c-19 0 -26 -14 -26 -65l-142 16c0 106 63 151 169 151c108 0 166 -43 166 -137c0 -63 -25 -110 -86 -120 c61 -7 90 -41 90 -118c0 -98 -59 -154 -167 -154z"/>
    <glyph glyph-name="four.subs" horiz-adv-x="377" d="M368 -37h-52v-103h-133v103h-172v102l143 302h162v-298h52v-106zM183 224l-67 -155h67v155z"/>
    <glyph glyph-name="five.subs" horiz-adv-x="373" d="M185 -151c-105 0 -169 51 -169 143l140 15c0 -44 10 -57 28 -57c21 0 28 12 28 75c0 69 -7 80 -27 80c-18 0 -27 -11 -32 -35l-129 11l17 286h289v-109h-181l-5 -90c16 27 48 41 88 41c80 0 122 -39 122 -172c0 -146 -59 -188 -169 -188z"/>
    <glyph glyph-name="six.subs" horiz-adv-x="378" d="M236 208c81 0 124 -44 124 -168c0 -130 -57 -191 -166 -191c-124 0 -174 66 -174 263c0 202 61 266 175 266c110 0 163 -43 163 -131l-139 -10c0 29 -7 43 -26 43c-20 0 -29 -12 -33 -91c18 12 41 19 76 19zM190 -51c19 0 30 13 30 80c0 62 -10 77 -30 77 c-13 0 -23 -3 -31 -10c0 -134 10 -147 31 -147z"/>
    <glyph glyph-name="seven.subs" horiz-adv-x="330" d="M68 -140v19c0 146 46 281 115 377h-172v111h305v-93c-72 -97 -105 -226 -105 -361v-53h-143z"/>
    <glyph glyph-name="eight.subs" horiz-adv-x="376" d="M290 137c52 -27 70 -66 70 -144c0 -87 -69 -144 -173 -144c-105 0 -171 55 -171 144c0 57 23 94 71 115c-43 24 -64 63 -64 116c0 96 62 154 164 154c103 0 161 -53 161 -137c0 -52 -16 -81 -58 -104zM187 288c-21 0 -29 -13 -29 -51s8 -52 38 -63l3 -1 c11 13 16 32 16 64c0 38 -8 51 -28 51zM188 -51c23 0 29 15 29 64c0 37 -6 45 -41 58c-14 -11 -19 -29 -19 -58c0 -49 7 -64 31 -64z"/>
    <glyph glyph-name="nine.subs" horiz-adv-x="377" d="M185 378c124 0 172 -56 172 -270c0 -208 -60 -259 -174 -259c-110 0 -163 54 -163 137l138 16c0 -34 7 -55 28 -55c19 0 28 14 30 109c-16 -15 -42 -21 -75 -21c-78 0 -123 45 -123 167c0 117 55 176 167 176zM186 138c13 0 22 4 31 19c-2 114 -13 126 -31 126 s-30 -12 -30 -76c0 -54 11 -69 30 -69z"/>
    <glyph glyph-name="zero.dnom" horiz-adv-x="336" d="M168 -8c-90 0 -141 50 -141 192s51 192 141 192s141 -50 141 -192s-51 -192 -141 -192zM168 76c23 0 34 14 34 108s-11 108 -34 108s-34 -14 -34 -108s11 -108 34 -108z"/>
    <glyph glyph-name="one.dnom" horiz-adv-x="233" d="M82 0v233c-16 -7 -38 -11 -55 -11h-12v100h8c36 0 69 11 80 46h85v-368h-106z"/>
    <glyph glyph-name="two.dnom" horiz-adv-x="297" d="M16 0v81c75 49 150 115 150 179c0 22 -6 32 -21 32c-16 0 -24 -11 -24 -34c0 -8 0 -16 1 -24l-108 15c-1 7 -1 13 -1 20c0 68 51 107 140 107c83 0 125 -37 125 -110c0 -80 -66 -142 -139 -178h139v-88h-262z"/>
    <glyph glyph-name="three.dnom" horiz-adv-x="293" d="M141 -8c-88 0 -130 36 -130 112l107 13c0 -31 6 -41 25 -41c18 0 26 11 26 36c0 27 -12 38 -43 38h-7v77h7c29 0 41 12 41 39c0 19 -7 28 -22 28c-18 0 -26 -13 -26 -40l-107 16c0 70 46 106 134 106c83 0 128 -35 128 -100c0 -42 -25 -74 -66 -84c42 -3 69 -36 69 -83 c0 -78 -45 -117 -136 -117z"/>
    <glyph glyph-name="four.dnom" horiz-adv-x="306" d="M295 72h-44v-72h-103v72h-137v79l114 217h126v-214h44v-82zM148 277l-62 -123h62v123z"/>
    <glyph glyph-name="five.dnom" horiz-adv-x="295" d="M150 -8c-86 0 -134 38 -134 105l107 13c0 -26 7 -36 26 -36c18 0 24 13 24 50c0 33 -7 46 -26 46c-13 0 -21 -5 -26 -17l-98 9l14 206h224v-89h-139l-6 -52c15 17 38 26 69 26c65 0 96 -41 96 -125c0 -94 -41 -136 -131 -136z"/>
    <glyph glyph-name="six.dnom" horiz-adv-x="306" d="M187 252c69 0 103 -37 103 -128c0 -87 -46 -132 -134 -132c-90 0 -133 48 -133 198c0 143 45 186 140 186c78 0 124 -29 124 -84l-107 -17c-1 16 -7 22 -22 22c-18 0 -25 -8 -27 -65c12 14 30 20 56 20zM157 74c19 0 26 11 26 50c0 36 -9 47 -28 47c-10 0 -18 -3 -25 -11 c2 -76 9 -86 27 -86z"/>
    <glyph glyph-name="seven.dnom" horiz-adv-x="274" d="M13 278v90h246v-72c-52 -41 -90 -132 -90 -217v-79h-111v34c0 91 37 184 97 244h-142z"/>
    <glyph glyph-name="eight.dnom" horiz-adv-x="310" d="M232 202c46 -23 62 -55 62 -93c0 -69 -52 -117 -138 -117c-89 0 -140 39 -140 101c0 39 22 71 70 83c-46 23 -63 57 -63 98c0 60 49 102 131 102c81 0 130 -42 130 -100c0 -30 -13 -57 -52 -74zM154 302c-21 0 -27 -11 -27 -31c0 -19 8 -31 34 -41l6 -2c11 8 13 21 13 43 c0 19 -5 31 -26 31zM156 73c24 0 30 11 30 37c0 18 -5 28 -37 40l-8 3c-15 -9 -18 -23 -18 -43c0 -25 10 -37 33 -37z"/>
    <glyph glyph-name="nine.dnom" horiz-adv-x="305" d="M149 376c95 0 133 -43 133 -193c0 -147 -44 -191 -137 -191c-83 0 -127 41 -127 94l106 19c0 -16 6 -34 24 -34c21 0 26 11 28 69c-15 -8 -33 -10 -57 -10c-70 0 -103 37 -103 122c0 76 44 124 133 124zM149 212c13 0 20 2 27 9c-2 66 -9 76 -28 76s-26 -12 -26 -45 c0 -26 7 -40 27 -40z"/>
    <glyph glyph-name="zero.numr" horiz-adv-x="336" d="M168 334c-90 0 -141 50 -141 192s51 192 141 192s141 -50 141 -192s-51 -192 -141 -192zM168 418c23 0 34 14 34 108s-11 108 -34 108s-34 -14 -34 -108s11 -108 34 -108z"/>
    <glyph glyph-name="one.numr" horiz-adv-x="233" d="M82 342v233c-16 -7 -38 -11 -55 -11h-12v100h8c36 0 69 11 80 46h85v-368h-106z"/>
    <glyph glyph-name="two.numr" horiz-adv-x="297" d="M16 342v81c75 49 150 115 150 179c0 22 -6 32 -21 32c-16 0 -24 -11 -24 -34c0 -8 0 -16 1 -24l-108 15c-1 7 -1 13 -1 20c0 68 51 107 140 107c83 0 125 -37 125 -110c0 -80 -66 -142 -139 -178h139v-88h-262z"/>
    <glyph glyph-name="three.numr" horiz-adv-x="293" d="M141 334c-88 0 -130 36 -130 112l107 13c0 -31 6 -41 25 -41c18 0 26 11 26 36c0 27 -12 38 -43 38h-7v77h7c29 0 41 12 41 39c0 19 -7 28 -22 28c-18 0 -26 -13 -26 -40l-107 16c0 70 46 106 134 106c83 0 128 -35 128 -100c0 -42 -25 -74 -66 -84c42 -3 69 -36 69 -83 c0 -78 -45 -117 -136 -117z"/>
    <glyph glyph-name="four.numr" horiz-adv-x="306" d="M295 414h-44v-72h-103v72h-137v79l114 217h126v-214h44v-82zM148 619l-62 -123h62v123z"/>
    <glyph glyph-name="five.numr" horiz-adv-x="295" d="M150 334c-86 0 -134 38 -134 105l107 13c0 -26 7 -36 26 -36c18 0 24 13 24 50c0 33 -7 46 -26 46c-13 0 -21 -5 -26 -17l-98 9l14 206h224v-89h-139l-6 -52c15 17 38 26 69 26c65 0 96 -41 96 -125c0 -94 -41 -136 -131 -136z"/>
    <glyph glyph-name="six.numr" horiz-adv-x="306" d="M187 594c69 0 103 -37 103 -128c0 -87 -46 -132 -134 -132c-90 0 -133 48 -133 198c0 143 45 186 140 186c78 0 124 -29 124 -84l-107 -17c-1 16 -7 22 -22 22c-18 0 -25 -8 -27 -65c12 14 30 20 56 20zM157 416c19 0 26 11 26 50c0 36 -9 47 -28 47 c-10 0 -18 -3 -25 -11c2 -76 9 -86 27 -86z"/>
    <glyph glyph-name="seven.numr" horiz-adv-x="274" d="M13 620v90h246v-72c-52 -41 -90 -132 -90 -217v-79h-111v34c0 91 37 184 97 244h-142z"/>
    <glyph glyph-name="eight.numr" horiz-adv-x="310" d="M232 544c46 -23 62 -55 62 -93c0 -69 -52 -117 -138 -117c-89 0 -140 39 -140 101c0 39 22 71 70 83c-46 23 -63 57 -63 98c0 60 49 102 131 102c81 0 130 -42 130 -100c0 -30 -13 -57 -52 -74zM154 644c-21 0 -27 -11 -27 -31c0 -19 8 -31 34 -41l6 -2c11 8 13 21 13 43 c0 19 -5 31 -26 31zM156 415c24 0 30 11 30 37c0 18 -5 28 -37 40l-8 3c-15 -9 -18 -23 -18 -43c0 -25 10 -37 33 -37z"/>
    <glyph glyph-name="nine.numr" horiz-adv-x="305" d="M149 718c95 0 133 -43 133 -193c0 -147 -44 -191 -137 -191c-83 0 -127 41 -127 94l106 19c0 -16 6 -34 24 -34c21 0 26 11 28 69c-15 -8 -33 -10 -57 -10c-70 0 -103 37 -103 122c0 76 44 124 133 124zM149 554c13 0 20 2 27 9c-2 66 -9 76 -28 76s-26 -12 -26 -45 c0 -26 7 -40 27 -40z"/>
    <glyph glyph-name="zero.sups" horiz-adv-x="402" d="M201 299c-105 0 -173 59 -173 265s68 265 173 265s173 -59 173 -265s-68 -265 -173 -265zM201 402c16 0 31 13 31 162s-15 162 -31 162s-31 -13 -31 -162s15 -162 31 -162z"/>
    <glyph glyph-name="one.sups" horiz-adv-x="287" d="M100 310v318c-15 -8 -39 -14 -73 -14h-9v136h7c54 0 87 27 104 67h110v-507h-139z"/>
    <glyph glyph-name="two.sups" horiz-adv-x="383" d="M23 310v97c121 121 188 181 188 284c0 22 -8 31 -25 31c-16 0 -25 -15 -25 -37c0 -18 0 -32 3 -50l-143 15c-2 11 -3 20 -3 31c0 89 64 147 171 147c115 0 171 -36 171 -137c0 -115 -60 -165 -174 -274h174v-107h-337z"/>
    <glyph glyph-name="three.sups" horiz-adv-x="375" d="M190 299c-115 0 -172 41 -172 163l141 14c0 -62 8 -73 29 -73c18 0 26 12 26 55c0 50 -11 60 -43 60h-18v99h19c29 0 39 16 39 62c0 37 -8 47 -25 47c-19 0 -26 -14 -26 -65l-142 16c0 106 63 151 169 151c108 0 166 -43 166 -137c0 -63 -25 -110 -86 -120 c61 -7 90 -41 90 -118c0 -98 -59 -154 -167 -154z"/>
    <glyph glyph-name="four.sups" horiz-adv-x="377" d="M368 413h-52v-103h-133v103h-172v102l143 302h162v-298h52v-106zM183 674l-67 -155h67v155z"/>
    <glyph glyph-name="five.sups" horiz-adv-x="373" d="M185 299c-105 0 -169 51 -169 143l140 15c0 -44 10 -57 28 -57c21 0 28 12 28 75c0 69 -7 80 -27 80c-18 0 -27 -11 -32 -35l-129 11l17 286h289v-109h-181l-5 -90c16 27 48 41 88 41c80 0 122 -39 122 -172c0 -146 -59 -188 -169 -188z"/>
    <glyph glyph-name="six.sups" horiz-adv-x="378" d="M236 658c81 0 124 -44 124 -168c0 -130 -57 -191 -166 -191c-124 0 -174 66 -174 263c0 202 61 266 175 266c110 0 163 -43 163 -131l-139 -10c0 29 -7 43 -26 43c-20 0 -29 -12 -33 -91c18 12 41 19 76 19zM190 399c19 0 30 13 30 80c0 62 -10 77 -30 77 c-13 0 -23 -3 -31 -10c0 -134 10 -147 31 -147z"/>
    <glyph glyph-name="seven.sups" horiz-adv-x="330" d="M68 310v19c0 146 46 281 115 377h-172v111h305v-93c-72 -97 -105 -226 -105 -361v-53h-143z"/>
    <glyph glyph-name="eight.sups" horiz-adv-x="376" d="M290 587c52 -27 70 -66 70 -144c0 -87 -69 -144 -173 -144c-105 0 -171 55 -171 144c0 57 23 94 71 115c-43 24 -64 63 -64 116c0 96 62 154 164 154c103 0 161 -53 161 -137c0 -52 -16 -81 -58 -104zM187 738c-21 0 -29 -13 -29 -51s8 -52 38 -63l3 -1 c11 13 16 32 16 64c0 38 -8 51 -28 51zM188 399c23 0 29 15 29 64c0 37 -6 45 -41 58c-14 -11 -19 -29 -19 -58c0 -49 7 -64 31 -64z"/>
    <glyph glyph-name="nine.sups" horiz-adv-x="377" d="M185 828c124 0 172 -56 172 -270c0 -208 -60 -259 -174 -259c-110 0 -163 54 -163 137l138 16c0 -34 7 -55 28 -55c19 0 28 14 30 109c-16 -15 -42 -21 -75 -21c-78 0 -123 45 -123 167c0 117 55 176 167 176zM186 588c13 0 22 4 31 19c-2 114 -13 126 -31 126 s-30 -12 -30 -76c0 -54 11 -69 30 -69z"/>
    <glyph glyph-name="colon.case" horiz-adv-x="219" d="M187 551v-185h-155v185h155zM187 185v-185h-155v185h155z"/>
    <glyph glyph-name="semicolon.case" horiz-adv-x="239" d="M197 553v-185h-155v185h155zM83 -166l-40 82c46 17 56 39 56 80v4h-67v185h175v-172c0 -90 -37 -152 -124 -179z"/>
    <glyph glyph-name="exclamdown.case" horiz-adv-x="275" d="M223 537h-172v171h172v-171zM65 465h144l20 -478h-183z"/>
    <glyph glyph-name="questiondown.case" horiz-adv-x="420" d="M296 720v-171h-153v171h153zM296 497v-35c0 -62 -24 -99 -54 -136l-40 -49c-18 -22 -28 -47 -28 -80v-31c0 -32 9 -55 38 -55c30 0 39 22 39 58v73l164 -13v-65c0 -110 -70 -171 -202 -171c-130 0 -204 55 -204 169v27c0 54 25 95 52 127l46 55c22 27 36 57 36 99v27h153 z"/>
    <glyph glyph-name="periodcentered.case" horiz-adv-x="219" d="M187 472v-185h-155v185h155z"/>
    <glyph glyph-name="bullet.case" horiz-adv-x="307" d="M152 248c-69 0 -120 49 -120 122c0 75 51 125 120 125c71 0 123 -49 123 -125c0 -73 -52 -122 -123 -122z"/>
    <glyph glyph-name="slash.case" horiz-adv-x="415" d="M187 -87h-142l183 877h142z"/>
    <glyph glyph-name="backslash.case" horiz-adv-x="415" d="M228 -87l-183 877h142l183 -877h-142z"/>
    <glyph glyph-name="asterisk.ss04" horiz-adv-x="255" d="M128 710l-31 -93h-97l79 -57l-30 -93l79 57l79 -57l-31 93l79 57h-97z"/>
    <glyph glyph-name="period.tf" horiz-adv-x="232" d="M193 185v-185h-155v185h155z"/>
    <glyph glyph-name="comma.tf" horiz-adv-x="232" d="M79 -166l-40 82c46 17 56 39 56 80v4h-67v185h175v-172c0 -90 -37 -152 -124 -179z"/>
    <glyph glyph-name="colon.tf" horiz-adv-x="232" d="M193 501v-185h-155v185h155zM193 185v-185h-155v185h155z"/>
    <glyph glyph-name="semicolon.tf" horiz-adv-x="232" d="M203 553v-185h-155v185h155zM79 -166l-40 82c46 17 56 39 56 80v4h-67v185h175v-172c0 -90 -37 -152 -124 -179z"/>
    <glyph glyph-name="slash.tf" d="M211 -117h-142l183 877h142z"/>
    <glyph glyph-name="parenleft.case" horiz-adv-x="290" d="M175 -110c-89 127 -140 307 -140 468c0 160 49 335 140 454l126 -43c-79 -119 -118 -259 -118 -413c0 -155 37 -290 122 -419z"/>
    <glyph glyph-name="parenright.case" horiz-adv-x="290" d="M115 -110l-130 47c85 129 122 264 122 419c0 154 -39 294 -118 413l126 43c91 -119 140 -294 140 -454c0 -161 -51 -341 -140 -468z"/>
    <glyph glyph-name="braceleft.case" horiz-adv-x="298" d="M244 -88c-118 0 -165 37 -165 145v153c0 55 -5 97 -72 99v101c68 2 71 36 71 95v162c0 91 55 132 163 132h51v-110h-24c-32 0 -48 -9 -48 -57v-138c0 -68 -14 -113 -88 -134c74 -25 87 -75 87 -141v-134c0 -54 17 -61 49 -61h27v-112h-51z"/>
    <glyph glyph-name="braceright.case" horiz-adv-x="298" d="M54 -88h-51v112h27c32 0 49 7 49 61v134c0 66 13 116 87 141c-74 21 -88 66 -88 134v138c0 48 -16 57 -48 57h-24v110h51c108 0 163 -41 163 -132v-162c0 -59 3 -93 71 -95v-101c-67 -2 -72 -44 -72 -99v-153c0 -108 -47 -145 -165 -145z"/>
    <glyph glyph-name="bracketleft.case" horiz-adv-x="277" d="M46 -84v871h228v-109h-85v-653h85v-109h-228z"/>
    <glyph glyph-name="bracketright.case" horiz-adv-x="277" d="M231 -84h-228v109h85v653h-85v109h228v-871z"/>
    <glyph glyph-name="parenleft.tf" d="M237 -140c-89 127 -140 307 -140 468c0 160 49 335 140 454l126 -43c-79 -119 -118 -259 -118 -413c0 -155 37 -290 122 -419z"/>
    <glyph glyph-name="parenright.tf" d="M227 -140l-130 47c85 129 122 264 122 419c0 154 -39 294 -118 413l126 43c91 -119 140 -294 140 -454c0 -161 -51 -341 -140 -468z"/>
    <glyph glyph-name="hyphen.case" horiz-adv-x="317" d="M32 421h253v-146h-253v146z"/>
    <glyph glyph-name="endash.case" horiz-adv-x="459" d="M32 411h395v-126h-395v126z"/>
    <glyph glyph-name="emdash.case" horiz-adv-x="669" d="M32 411h605v-126h-605v126z"/>
    <glyph glyph-name="underscore.case" horiz-adv-x="376" d="M0 -17h376v-90h-376v90z"/>
    <glyph glyph-name="hyphen.tf" d="M55 351h353v-146h-353v146z"/>
    <glyph glyph-name="underscore.tf" d="M0 -90h464v-90h-464v90z"/>
    <glyph glyph-name="guillemotleft.case" horiz-adv-x="494" d="M116 137l-112 209l116 206h136l-113 -205l111 -210h-138zM330 137l-112 209l116 206h136l-113 -205l111 -210h-138z"/>
    <glyph glyph-name="guillemotright.case" horiz-adv-x="494" d="M164 137h-138l111 210l-113 205h136l116 -206zM378 137h-138l111 210l-113 205h136l116 -206z"/>
    <glyph glyph-name="guilsinglleft.case" horiz-adv-x="280" d="M116 137l-112 209l116 206h136l-113 -205l111 -210h-138z"/>
    <glyph glyph-name="guilsinglright.case" horiz-adv-x="280" d="M164 137h-138l111 210l-113 205h136l116 -206z"/>
    <glyph glyph-name="parenleft.subs" horiz-adv-x="256" d="M153 -243c-68 92 -108 225 -108 342s38 245 108 332l112 -34c-61 -86 -91 -188 -91 -299c0 -113 29 -211 95 -303z"/>
    <glyph glyph-name="parenright.subs" horiz-adv-x="256" d="M103 -243l-116 38c66 92 95 190 95 303c0 111 -30 213 -91 299l112 34c70 -87 108 -215 108 -332s-40 -250 -108 -342z"/>
    <glyph glyph-name="parenleft.sups" horiz-adv-x="256" d="M153 207c-68 92 -108 225 -108 342s38 245 108 332l112 -34c-61 -86 -91 -188 -91 -299c0 -113 29 -211 95 -303z"/>
    <glyph glyph-name="parenright.sups" horiz-adv-x="256" d="M103 207l-116 38c66 92 95 190 95 303c0 111 -30 213 -91 299l112 34c70 -87 108 -215 108 -332s-40 -250 -108 -342z"/>
    <glyph glyph-name="uni0E3F" unicode="฿" horiz-adv-x="494" d="M375 367c66 -22 101 -74 101 -153v-21c0 -124 -73 -192 -204 -193v-107h-50v107h-176v695h176v91h50v-91c124 -2 196 -56 196 -158v-42c0 -65 -35 -112 -93 -128zM174 590v-191h48v191h-48zM327 517c0 48 -17 70 -55 73v-191c37 3 55 31 55 88v30zM174 105h48v202h-48 v-202zM334 194v32c0 57 -20 81 -62 81v-202c42 0 62 28 62 89z"/>
    <glyph glyph-name="uni20BA" unicode="₺" horiz-adv-x="466" d="M319 220l146 -25c-18 -104 -68 -195 -214 -195h-194v249l-61 -18v77l61 18v77l-61 -18v78l61 18v214h165v-166l117 34v-78l-117 -34v-76l117 34v-78l-117 -34v-172h18c52 0 70 35 79 95z"/>
    <glyph glyph-name="uni20BD" unicode="₽" horiz-adv-x="476" d="M247 695c145 0 223 -68 223 -196v-36c0 -136 -76 -211 -215 -211h-43v-75h79v-66h-79v-111h-164v111h-64v66h64v75h-64v108h64v335h199zM298 465v28c0 67 -17 92 -59 92h-27v-225h26c42 0 60 30 60 105z"/>
    <glyph glyph-name="uni20B9" unicode="₹" horiz-adv-x="424" d="M421 594h-135c21 -22 34 -50 39 -83h96v-67h-95c-5 -79 -46 -135 -113 -159l136 -285h-172l-136 294v64h32c53 0 78 25 82 86h-114v67h114c-4 60 -28 83 -81 83h-33v101h380v-101z"/>
    <glyph glyph-name="uni20A9" unicode="₩" horiz-adv-x="683" d="M665 398h-47l-8 -69h55v-54h-61l-30 -275h-181l-24 275h-55l-24 -275h-181l-30 275h-61v54h55l-8 69h-47v54h41l-27 243h136l13 -243h59l25 243h153l25 -243h59l13 243h136l-27 -243h41v-54zM337 587c-1 -49 -4 -85 -8 -135h25c-4 50 -7 86 -8 135h-9zM184 398l4 -69h40 l7 69h-51zM319 329h45l-6 69h-33zM495 329l4 69h-51l7 -69h40zM218 229l5 46h-32l2 -31c3 -41 6 -88 8 -141h5c4 52 7 86 12 126zM490 244l2 31h-32l5 -46c5 -40 8 -74 12 -126h5c2 53 5 100 8 141z"/>
    <glyph glyph-name="uni0E3F.case" horiz-adv-x="494" d="M375 377c66 -22 101 -74 101 -153v-31c0 -124 -73 -192 -204 -193v-87h-50v87h-176v710h176v76h50v-76c124 -2 196 -56 196 -158v-47c0 -65 -35 -112 -93 -128zM174 605v-196h48v196h-48zM327 532c0 48 -17 70 -55 73v-196c37 3 55 31 55 88v35zM174 105h48v212h-48v-212 zM334 194v42c0 57 -20 81 -62 81v-212c42 0 62 28 62 89z"/>
    <glyph glyph-name="currency.case" horiz-adv-x="479" d="M427 295c0 -31 -7 -59 -19 -82l46 -54l-68 -65l-48 52c-27 -13 -58 -20 -93 -20c-38 0 -72 8 -100 23l-49 -56l-71 65l53 61c-11 22 -17 49 -17 79v102c0 34 6 64 17 89l-53 60l71 65l50 -55c27 14 60 21 99 21c35 0 65 -6 91 -18l50 53l68 -65l-47 -55 c13 -26 20 -57 20 -93v-107zM291 302v104c0 46 -19 65 -46 65c-28 0 -48 -19 -48 -67v-102c0 -46 20 -66 48 -66c27 0 46 20 46 66z"/>
    <glyph glyph-name="dollar.case" horiz-adv-x="475" d="M327 400c100 -48 138 -91 138 -180v-52c0 -98 -75 -171 -200 -182v-73h-49v72c-119 7 -204 74 -204 192v29l133 35v-41c0 -65 31 -94 71 -102v210l-69 32c-79 37 -122 89 -122 177v36c0 110 83 166 191 173v64h49v-64c100 -7 191 -59 191 -183v-26l-126 -35v37 c0 60 -24 91 -65 99v-188zM160 525c0 -34 18 -51 56 -71v165c-37 -6 -56 -30 -56 -65v-29zM324 171v32c0 35 -15 57 -59 81v-186c36 7 59 30 59 73z"/>
    <glyph glyph-name="Euro.case" horiz-adv-x="496" d="M320 214l164 -23v-21c0 -122 -90 -185 -219 -185c-140 0 -224 83 -224 235v40h-48v63h48v82h-48v63h48v29c0 151 86 230 226 230c137 0 216 -73 216 -171v-26l-164 -21v27c0 47 -23 64 -53 64c-36 0 -58 -26 -58 -89v-43h133v-63h-133v-82h133v-63h-133v-53 c0 -65 24 -95 59 -95c28 0 53 21 53 69v33z"/>
    <glyph glyph-name="uni20BA.case" horiz-adv-x="466" d="M319 220l146 -25c-18 -104 -68 -195 -214 -195h-194v249l-61 -18v77l61 18v77l-61 -18v78l61 18v229h165v-181l117 34v-78l-117 -34v-76l117 34v-78l-117 -34v-172h18c52 0 70 35 79 95z"/>
    <glyph glyph-name="uni20BD.case" horiz-adv-x="476" d="M247 710c145 0 223 -68 223 -196v-51c0 -136 -76 -211 -215 -211h-43v-75h79v-66h-79v-111h-164v111h-64v66h64v75h-64v108h64v350h199zM298 465v43c0 67 -17 92 -59 92h-27v-240h26c42 0 60 30 60 105z"/>
    <glyph glyph-name="uni20B9.case" horiz-adv-x="424" d="M421 609h-135c24 -25 37 -58 40 -98h95v-67h-95c-5 -79 -46 -135 -113 -159l136 -285h-172l-136 294v64h32c53 0 78 25 82 86h-114v67h115c-2 71 -24 98 -82 98h-33v101h380v-101z"/>
    <glyph glyph-name="sterling.case" horiz-adv-x="517" d="M349 208l159 -29c-5 -125 -65 -194 -173 -194c-68 0 -107 22 -177 23c-33 0 -70 -6 -110 -16l-49 122c70 28 101 76 101 155c0 15 -1 29 -3 44h-73v82h56c-9 39 -17 82 -17 131c0 129 74 201 209 201c136 0 208 -63 208 -191v-26l-163 -30v53c0 51 -15 77 -45 77 s-43 -25 -43 -70c0 -53 10 -96 19 -145h102v-82h-93c1 -8 1 -17 1 -26c0 -73 -34 -129 -92 -156c16 3 34 5 52 5c31 0 51 -8 74 -8c35 0 53 26 57 80z"/>
    <glyph glyph-name="uni0E3F.tf.case" d="M352 373c67 -22 101 -75 101 -155v-23c0 -123 -71 -191 -196 -195v-88h-50v88h-170v709h170v82h50v-82c119 -5 189 -68 189 -180v-23c0 -65 -33 -115 -94 -133zM207 606h-46v-199h46v199zM310 528c0 55 -19 75 -53 78v-199c35 4 53 30 53 92v29zM161 104h46v210h-46v-210 zM316 197v33c0 60 -21 83 -59 84v-210c38 2 59 26 59 93z"/>
    <glyph glyph-name="currency.tf.case" d="M419 295c0 -31 -7 -59 -19 -82l46 -54l-68 -65l-48 52c-27 -13 -58 -20 -93 -20c-38 0 -72 8 -100 23l-49 -56l-71 65l53 61c-11 22 -17 49 -17 79v102c0 34 6 64 17 89l-53 60l71 65l50 -55c27 14 60 21 99 21c35 0 65 -6 91 -18l50 53l68 -65l-47 -55 c13 -26 20 -57 20 -93v-107zM283 302v104c0 46 -19 65 -46 65c-28 0 -48 -19 -48 -67v-102c0 -46 20 -66 48 -66c27 0 46 20 46 66z"/>
    <glyph glyph-name="dollar.tf.case" d="M319 390c99 -56 130 -106 130 -191v-34c0 -104 -74 -171 -196 -179v-73h-44v72c-116 7 -194 73 -194 187v34l134 35v-48c0 -55 23 -86 60 -94v194l-68 40c-78 46 -117 97 -117 185v37c0 106 70 165 185 171v64h44v-64c116 -7 188 -74 188 -184v-32l-133 -31v43 c0 58 -18 88 -55 97v-192zM156 535c0 -38 17 -59 53 -82v167c-34 -6 -53 -25 -53 -60v-25zM307 166v24c0 32 -21 54 -54 76v-169c36 6 54 29 54 69z"/>
    <glyph glyph-name="Euro.tf.case" d="M293 214l159 -33v-13c0 -113 -77 -183 -205 -183c-133 0 -207 83 -207 227v50h-40v64h40v76h-40v63h40v40c0 140 76 222 210 222c127 0 201 -69 201 -182v-7l-158 -32v32c0 41 -16 65 -45 65c-31 0 -46 -28 -46 -80v-58h85v-63h-85v-76h85v-64h-85v-67 c0 -56 15 -85 47 -85c26 0 42 27 43 69z"/>
    <glyph glyph-name="uni20BA.tf.case" d="M319 224l145 -25c-17 -106 -67 -199 -212 -199h-188v255l-63 -19v79l63 19v78l-63 -19v79l63 19v219h163v-170l111 33v-79l-111 -33v-78l111 33v-79l-111 -33v-179h13c51 0 69 37 79 99z"/>
    <glyph glyph-name="uni20BD.tf.case" d="M242 710c152 0 213 -80 213 -199v-36c0 -130 -62 -216 -201 -216h-40v-63h81v-68h-81v-128h-156v128h-64v68h64v63h-64v108h64v343h184zM296 476v29c0 69 -16 94 -60 94h-22v-232h21c46 0 61 34 61 109z"/>
    <glyph glyph-name="uni20B9.tf.case" d="M427 608h-130c20 -23 33 -52 37 -86h93v-68h-92c-5 -84 -45 -140 -111 -163l138 -291h-175l-133 298v67h30c53 0 76 26 80 89h-110v68h110c-4 63 -27 86 -81 86h-29v102h373v-102z"/>
    <glyph glyph-name="sterling.tf.case" d="M301 208l155 -29c-5 -126 -61 -194 -159 -194c-57 0 -92 22 -149 22c-28 0 -53 -5 -82 -15l-59 123c53 32 80 84 80 154c0 14 -1 28 -3 41h-69v82h52c-12 43 -25 84 -25 136c0 129 72 199 204 199c126 0 195 -63 195 -189v-30l-158 -31v63c0 46 -13 67 -39 67 c-28 0 -40 -18 -40 -63c0 -54 14 -101 25 -152h94v-82h-83v-12c0 -88 -33 -134 -90 -168c14 3 26 4 40 4c31 0 43 -10 65 -10c28 0 43 28 46 84z"/>
    <glyph glyph-name="uni20A9.tf.case" d="M459 394h-27l-4 -72h31v-58h-34l-14 -264h-147l-13 264h-39l-13 -264h-147l-14 264h-34v58h31l-4 72h-27v58h24l-14 258h103l3 -258h36l16 258h119l16 -258h36l3 258h103l-14 -258h24v-58zM225 582c0 -33 -2 -81 -4 -130h21c-2 49 -4 97 -4 130h-13zM121 394l1 -72h26 l5 72h-32zM215 322h33l-3 72h-27zM341 322l1 72h-32l5 -72h26zM142 222l3 42h-22v-3c1 -70 1 -101 1 -141h12zM340 261v3h-22l3 -42l6 -102h12c0 40 0 71 1 141z"/>
    <glyph glyph-name="yen.tf.case" d="M456 710l-126 -378h92v-71h-108v-71h108v-71h-108v-119h-164v119h-108v71h108v71h-108v71h92l-126 378h170l39 -207c6 -32 10 -61 13 -100h4c3 39 7 68 13 100l40 207h169z"/>
    <glyph glyph-name="uni20A9.case" horiz-adv-x="683" d="M665 398h-48l-7 -69h55v-54h-61l-30 -275h-181l-24 275h-55l-24 -275h-181l-30 275h-61v54h55l-7 69h-48v54h42l-28 258h136l14 -258h58l25 258h153l25 -258h58l14 258h136l-28 -258h42v-54zM337 602c-1 -50 -4 -98 -8 -150h25c-4 52 -7 100 -8 150h-9zM185 398l3 -69h40 l7 69h-50zM319 329h45l-6 69h-33zM495 329l3 69h-50l7 -69h40zM218 229l4 46h-31l2 -31c2 -41 6 -88 8 -141h5c4 52 8 86 12 126zM490 244l2 31h-31l4 -46c4 -40 8 -74 12 -126h5c2 53 6 100 8 141z"/>
    <glyph glyph-name="yen.case" horiz-adv-x="461" d="M462 710l-144 -411h109v-71h-114v-55h114v-71h-114v-102h-165v102h-114v71h114v55h-114v71h109l-144 411h172l39 -195c8 -39 15 -72 19 -105h3c4 33 11 66 19 105l39 195h172z"/>
    <glyph glyph-name="uni0E3F.tf" d="M352 366c67 -22 101 -75 101 -152v-22c0 -121 -71 -188 -196 -192v-107h-50v107h-170v695h170v91h50v-91c119 -5 189 -67 189 -177v-23c0 -62 -33 -112 -94 -129zM207 593h-46v-194h46v194zM310 517c0 53 -19 73 -53 76v-194c35 4 53 30 53 89v29zM161 103h46v204h-46 v-204zM316 194v32c0 58 -21 80 -59 81v-204c38 2 59 26 59 91z"/>
    <glyph glyph-name="currency.tf" d="M419 245c0 -31 -7 -59 -19 -82l46 -54l-68 -65l-48 52c-27 -13 -58 -20 -93 -20c-38 0 -72 8 -100 23l-49 -56l-71 65l53 61c-11 22 -17 49 -17 79v102c0 34 6 64 17 89l-53 60l71 65l50 -55c27 14 60 21 99 21c35 0 65 -6 91 -18l50 53l68 -65l-47 -55 c13 -26 20 -57 20 -93v-107zM283 252v104c0 46 -19 65 -46 65c-28 0 -48 -19 -48 -67v-102c0 -46 20 -66 48 -66c27 0 46 20 46 66z"/>
    <glyph glyph-name="uni20BA.tf" d="M319 220l145 -25c-17 -104 -67 -195 -212 -195h-188v250l-63 -19v78l63 19v76l-63 -19v78l63 19v213h163v-166l111 33v-78l-111 -33v-76l111 33v-78l-111 -33v-172h13c51 0 69 35 79 95z"/>
    <glyph glyph-name="uni20BD.tf" d="M242 695c152 0 213 -79 213 -195v-35c0 -128 -62 -213 -201 -213h-40v-60h81v-67h-81v-125h-156v125h-64v67h64v60h-64v108h64v335h184zM296 466v28c0 67 -16 91 -60 91h-22v-225h21c46 0 61 33 61 106z"/>
    <glyph glyph-name="uni20B9.tf" d="M427 594h-130c20 -22 32 -50 37 -83h93v-67h-92c-6 -81 -45 -136 -111 -159l138 -285h-175l-133 292v66h30c53 0 76 25 80 86h-110v67h110c-4 61 -28 83 -81 83h-29v101h373v-101z"/>
    <glyph glyph-name="uni20A9.tf" d="M459 394h-26l-4 -72h30v-58h-34l-14 -264h-147l-13 264h-39l-13 -264h-147l-14 264h-34v58h30l-4 72h-26v58h23l-13 243h103l3 -243h37l15 243h119l15 -243h37l3 243h103l-13 -243h23v-58zM225 567c0 -33 -2 -68 -4 -115h21c-2 47 -4 82 -4 115h-13zM121 394l1 -72h26 l5 72h-32zM215 322h33l-3 72h-27zM341 322l1 72h-32l5 -72h26zM142 222l3 42h-22v-3c0 -70 1 -101 1 -141h12zM340 261v3h-22l3 -42l6 -102h12c0 40 1 71 1 141z"/>
    <glyph glyph-name="plus.case" horiz-adv-x="440" d="M408 436v-115h-129v-141h-119v141h-128v115h128v131h119v-131h129z"/>
    <glyph glyph-name="minus.case" horiz-adv-x="440" d="M32 321v115h376v-115h-376z"/>
    <glyph glyph-name="multiply.case" d="M427 252l-82 -82l-114 124l-114 -123l-81 80l117 128l-115 125l82 82l111 -121l111 121l83 -82l-115 -125z"/>
    <glyph glyph-name="divide.case" horiz-adv-x="440" d="M220 471c-41 0 -70 28 -70 70s29 70 70 70c40 0 70 -27 70 -70c0 -41 -30 -70 -70 -70zM32 321v115h376v-115h-376zM220 146c-41 0 -70 28 -70 69c0 42 29 71 70 71c40 0 70 -28 70 -71c0 -41 -30 -69 -70 -69z"/>
    <glyph glyph-name="equal.case" horiz-adv-x="440" d="M32 408v115h376v-115h-376zM32 235v115h376v-115h-376z"/>
    <glyph glyph-name="notequal.case" d="M420 408h-133l-22 -58h155v-115h-200l-39 -101h-86l39 101h-90v115h135l22 58h-157v115h202l35 90h86l-35 -90h88v-115z"/>
    <glyph glyph-name="greater.case" d="M90 137v143l212 97l-212 97v141l331 -172v-134z"/>
    <glyph glyph-name="less.case" d="M374 137l-331 172v134l331 172v-141l-212 -97l212 -97v-143z"/>
    <glyph glyph-name="greaterequal.case" d="M67 180v143l212 97l-212 97v141l331 -172v-134zM398 165v-115h-332v115h332z"/>
    <glyph glyph-name="lessequal.case" d="M397 180l-331 172v134l331 172v-141l-212 -97l212 -97v-143zM66 165h332v-115h-332v115z"/>
    <glyph glyph-name="plusminus.case" d="M291 430h131v-116h-131v-125h-120v125h-129v116h129v125h120v-125zM42 50v110h380v-110h-380z"/>
    <glyph glyph-name="approxequal.case" d="M322 390c-66 0 -115 45 -170 45c-33 0 -74 -16 -99 -38v122c22 22 59 38 89 38c76 0 114 -46 170 -46c33 0 75 16 98 38v-122c-20 -22 -57 -37 -88 -37zM322 212c-66 0 -115 45 -170 45c-33 0 -74 -16 -99 -38v122c22 22 59 37 89 37c77 0 114 -45 170 -45 c33 0 75 16 98 38v-122c-20 -21 -57 -37 -88 -37z"/>
    <glyph glyph-name="asciitilde.case" d="M301 260c-67 0 -84 55 -132 55c-23 0 -42 -15 -48 -50l-81 34c16 103 73 140 122 140c66 0 90 -56 133 -56c26 0 42 33 50 64l79 -39c-21 -107 -72 -148 -123 -148z"/>
    <glyph glyph-name="logicalnot.case" d="M50 442h364v-269h-119v152h-245v117z"/>
    <glyph glyph-name="infinity.case" horiz-adv-x="524" d="M370 527c78 0 134 -51 134 -142v-12c0 -91 -54 -143 -130 -143c-49 0 -82 26 -110 64c-28 -40 -60 -64 -110 -64c-77 0 -134 51 -134 142v13c0 90 55 142 130 142c49 0 83 -26 110 -64c28 40 60 64 110 64zM158 329c26 0 42 21 57 49c-13 28 -30 51 -57 51 c-20 0 -35 -16 -35 -47v-6c0 -31 14 -47 35 -47zM401 376v6c0 31 -13 47 -35 47c-25 0 -42 -21 -56 -49c13 -28 29 -51 56 -51c21 0 35 15 35 47z"/>
    <glyph glyph-name="emptyset.case" horiz-adv-x="449" d="M424 564l-45 -57c19 -27 29 -62 29 -104v-105c0 -110 -73 -174 -184 -174c-48 0 -88 12 -119 35l-41 -52l-39 31l45 57c-19 27 -29 62 -29 104v105c0 110 73 174 184 174c48 0 88 -12 119 -35l41 52zM167 402v-84l103 131c-10 14 -26 20 -45 20c-34 0 -58 -20 -58 -67z M282 300v84l-103 -131c10 -14 26 -20 45 -20c34 0 58 20 58 67z"/>
    <glyph glyph-name="plus.tf.case" d="M420 436v-115h-129v-141h-119v141h-128v115h128v131h119v-131h129z"/>
    <glyph glyph-name="minus.tf.case" d="M44 321v115h376v-115h-376z"/>
    <glyph glyph-name="divide.tf.case" d="M232 471c-41 0 -70 28 -70 70s29 70 70 70c40 0 70 -27 70 -70c0 -41 -30 -70 -70 -70zM44 321v115h376v-115h-376zM232 146c-41 0 -70 28 -70 70s29 70 70 70c40 0 70 -27 70 -70c0 -41 -30 -70 -70 -70z"/>
    <glyph glyph-name="equal.tf.case" d="M42 408v115h376v-115h-376zM42 235v115h376v-115h-376z"/>
    <glyph glyph-name="emptyset.tf.case" d="M431 564l-45 -57c19 -27 29 -62 29 -104v-105c0 -110 -73 -174 -184 -174c-48 0 -88 12 -119 35l-41 -52l-39 31l45 57c-19 27 -29 62 -29 104v105c0 110 73 174 184 174c48 0 88 -12 119 -35l41 52zM174 402v-84l103 131c-10 14 -26 20 -45 20c-34 0 -58 -20 -58 -67z M289 300v84l-103 -131c10 -14 26 -20 45 -20c34 0 58 20 58 67z"/>
    <glyph glyph-name="plus.tf" d="M420 386v-115h-129v-141h-119v141h-128v115h128v131h119v-131h129z"/>
    <glyph glyph-name="minus.tf" d="M44 271v115h376v-115h-376z"/>
    <glyph glyph-name="divide.tf" d="M232 421c-41 0 -70 28 -70 70s29 70 70 70c40 0 70 -27 70 -70c0 -41 -30 -70 -70 -70zM44 271v115h376v-115h-376zM232 96c-41 0 -70 28 -70 70s29 70 70 70c40 0 70 -27 70 -70c0 -41 -30 -70 -70 -70z"/>
    <glyph glyph-name="equal.tf" d="M42 358v115h376v-115h-376zM42 185v115h376v-115h-376z"/>
    <glyph glyph-name="emptyset.tf" d="M431 514l-45 -57c19 -27 29 -62 29 -104v-105c0 -110 -73 -174 -184 -174c-48 0 -88 12 -119 35l-41 -52l-39 31l45 57c-19 27 -29 62 -29 104v105c0 110 73 174 184 174c48 0 88 -12 119 -35l41 52zM174 352v-84l103 131c-10 14 -26 20 -45 20c-34 0 -58 -20 -58 -67z M289 250v84l-103 -131c10 -14 26 -20 45 -20c34 0 58 20 58 67z"/>
    <glyph glyph-name="arrowup" unicode="↑" horiz-adv-x="423" d="M145 -35v566h-99l166 219l165 -219h-99v-566h-133z"/>
    <glyph glyph-name="uni2197" unicode="↗" horiz-adv-x="836" d="M692 519l-554 -554l-92 97l554 553l-92 96h282v-301z"/>
    <glyph glyph-name="arrowright" unicode="→" horiz-adv-x="717" d="M46 391h405v104l220 -165l-220 -165v104h-405v122z"/>
    <glyph glyph-name="uni2198" unicode="↘" horiz-adv-x="836" d="M692 203l98 109v-301h-282l92 96l-554 553l92 97z"/>
    <glyph glyph-name="arrowdown" unicode="↓" horiz-adv-x="423" d="M278 745v-566h99l-166 -219l-165 219h99v566h133z"/>
    <glyph glyph-name="uni2199" unicode="↙" horiz-adv-x="836" d="M144 203l554 554l92 -97l-554 -553l92 -96h-282v301z"/>
    <glyph glyph-name="arrowleft" unicode="←" horiz-adv-x="717" d="M671 269h-405v-104l-220 165l220 165v-104h405v-122z"/>
    <glyph glyph-name="uni2196" unicode="↖" horiz-adv-x="836" d="M144 518l-98 -109v301h282l-92 -96l554 -553l-92 -97z"/>
    <glyph glyph-name="arrowboth" unicode="↔" horiz-adv-x="814" d="M548 269h-282v-104l-220 165l220 165v-104h282v104l220 -165l-220 -165v104z"/>
    <glyph glyph-name="arrowupdn" unicode="↕" horiz-adv-x="423" d="M46 183h99v348h-99l166 219l165 -219h-99v-348h99l-165 -219z"/>
    <glyph glyph-name="uni21A9" unicode="↩" horiz-adv-x="790" d="M266 165l-220 165l220 165v-104h220c74 0 112 32 112 91v22c0 60 -37 91 -109 91h-130v122h149c149 0 236 -71 236 -206v-33c0 -135 -87 -209 -236 -209h-242v-104z"/>
    <glyph glyph-name="uni21AA" unicode="↪" horiz-adv-x="790" d="M524 165v104h-242c-149 0 -236 74 -236 209v33c0 135 87 206 236 206h149v-122h-130c-72 0 -109 -31 -109 -91v-22c0 -59 38 -91 112 -91h220v104l220 -165z"/>
    <glyph glyph-name="uni21B0" unicode="↰" horiz-adv-x="736" d="M557 -26v565h-291v-104l-220 165l220 165v-104h424v-687h-133z"/>
    <glyph glyph-name="uni21B1" unicode="↱" horiz-adv-x="736" d="M179 -26h-133v687h424v104l220 -165l-220 -165v104h-291v-565z"/>
    <glyph glyph-name="uni21B2" unicode="↲" horiz-adv-x="736" d="M557 736h133v-687h-424v-104l-220 165l220 165v-104h291v565z"/>
    <glyph glyph-name="uni21B3" unicode="↳" horiz-adv-x="736" d="M179 736v-565h291v104l220 -165l-220 -165v104h-424v687h133z"/>
    <glyph glyph-name="uni21B4" unicode="↴" horiz-adv-x="701" d="M557 682v-500h98l-165 -220l-165 220h99v378h-378v122h511z"/>
    <glyph glyph-name="uni21BB" unicode="↻" horiz-adv-x="769" d="M336 113c64 0 104 36 130 73l97 -88c-35 -53 -113 -113 -227 -113c-157 0 -290 84 -290 305v126c0 222 134 305 290 305c158 0 289 -83 289 -305v-9h98l-166 -219l-165 219h99v12c0 134 -67 179 -155 179c-86 0 -155 -44 -155 -178v-128c0 -133 68 -179 155 -179z"/>
    <glyph glyph-name="uni21C4" unicode="⇄" horiz-adv-x="802" d="M661 399h-395v-104l-220 165l220 165v-104h395v-122zM537 260v104l219 -165l-219 -165v104h-395v122h395z"/>
    <glyph glyph-name="uni21C5" unicode="⇅" horiz-adv-x="693" d="M415 36v495h-98l165 219l165 -219h-99v-495h-133zM212 -40l-166 219h99v496h134v-496h98z"/>
    <glyph glyph-name="uni21BB.alt" horiz-adv-x="821" d="M412 594c-66 0 -104 -36 -132 -72l-96 87c37 54 113 112 230 112c156 0 284 -82 284 -302v-12h98l-166 -219l-165 219h99v10c0 133 -65 177 -152 177zM408 113c66 0 104 36 132 72l97 -87c-37 -54 -113 -113 -230 -113c-156 0 -284 83 -284 303v11h-98l166 219l165 -219 h-99v-9c0 -133 64 -177 151 -177z"/>
    <glyph glyph-name="arrowup.ss03" horiz-adv-x="734" d="M298 504l-162 -176l-90 101l322 321l320 -321l-86 -101l-165 176v-539h-139v539z"/>
    <glyph glyph-name="uni2197.ss03" horiz-adv-x="837" d="M664 487l-522 -531l-96 109l529 528l-243 -9v126h459v-460h-131z"/>
    <glyph glyph-name="arrowright.ss03" horiz-adv-x="718" d="M428 262h-382v135h382l-178 165l100 88l322 -320l-322 -321l-101 88z"/>
    <glyph glyph-name="uni2198.ss03" horiz-adv-x="837" d="M664 211l-4 237h131v-460h-459v126l243 -9l-529 528l96 109z"/>
    <glyph glyph-name="arrowdown.ss03" horiz-adv-x="734" d="M298 206v539h139v-539l165 176l86 -101l-320 -321l-322 321l90 101z"/>
    <glyph glyph-name="uni2199.ss03" horiz-adv-x="837" d="M173 211l522 531l96 -109l-529 -528l243 9v-126h-459v460h131z"/>
    <glyph glyph-name="arrowleft.ss03" horiz-adv-x="718" d="M290 262l179 -165l-101 -88l-322 321l322 320l100 -88l-178 -165h382v-135h-382z"/>
    <glyph glyph-name="uni2196.ss03" horiz-adv-x="837" d="M173 487l4 -237h-131v460h459v-126l-243 9l529 -528l-96 -109z"/>
    <glyph glyph-name="uni25CF" unicode="●" horiz-adv-x="624" d="M313 -17c-169 0 -288 121 -288 312v121c0 192 118 311 290 311c169 0 284 -119 284 -311v-121c0 -192 -117 -312 -286 -312z"/>
    <glyph glyph-name="circle" unicode="○" horiz-adv-x="624" d="M313 -17c-169 0 -288 122 -288 312v121c0 193 118 311 290 311c169 0 284 -118 284 -311v-121c0 -191 -117 -312 -286 -312zM313 43c129 0 218 97 218 252v121c0 155 -89 251 -216 251c-131 0 -221 -95 -221 -251v-121c0 -155 90 -252 219 -252z"/>
    <glyph glyph-name="uni2105" unicode="℅" horiz-adv-x="705" d="M201 -14h-100l401 745h97zM15 484v86c0 95 55 146 152 146c90 0 145 -46 147 -134v-11l-119 -17v23c-1 34 -10 50 -29 50c-22 0 -32 -19 -32 -57v-86c0 -38 10 -59 32 -59c20 0 28 17 29 50v27l119 -13v-18c-4 -86 -57 -133 -149 -133c-96 0 -150 53 -150 146zM537 6 c-93 0 -151 50 -151 146v86c0 95 58 146 152 146c93 0 150 -51 150 -146v-87c0 -95 -58 -145 -151 -145zM568 151v86c0 39 -10 58 -31 58s-31 -19 -31 -58v-86c0 -40 10 -59 31 -59c22 0 31 19 31 59z"/>
    <glyph glyph-name="at.case" horiz-adv-x="640" d="M325 -25c-189 0 -300 112 -300 306v130c0 200 121 320 304 320c178 0 286 -105 286 -297v-131c0 -113 -51 -166 -140 -166c-61 0 -107 29 -117 74c-13 -44 -47 -70 -92 -70c-65 0 -103 43 -103 118c0 74 34 110 119 128l65 14v57c0 23 -9 34 -24 34 c-18 0 -27 -12 -27 -35v-37h-125v25c1 82 58 132 152 132c100 0 148 -43 148 -132v-183c0 -34 9 -49 30 -49c25 0 37 25 37 82v130c0 156 -73 238 -213 238c-141 0 -219 -89 -219 -251v-131c0 -145 87 -235 226 -235c50 0 96 10 129 29l23 -61c-38 -24 -98 -39 -159 -39z M318 230c19 0 31 17 31 41v69l-20 -6c-27 -9 -38 -24 -38 -53v-10c0 -25 10 -41 27 -41z"/>
    <glyph glyph-name="section.case" horiz-adv-x="397" d="M330 250c40 -29 57 -66 57 -116c0 -100 -68 -151 -196 -151c-108 0 -176 45 -176 129v32l126 35v-40c0 -40 23 -58 48 -58c32 0 48 15 48 44c0 37 -18 56 -72 78l-53 22c-68 28 -100 71 -100 131c0 48 21 84 61 105c-40 30 -58 68 -58 118c0 98 66 148 195 148 c110 0 170 -45 170 -125v-31l-125 -36v40c0 38 -21 55 -44 55c-30 0 -47 -15 -47 -45c0 -36 18 -55 69 -76l53 -22c69 -29 100 -70 100 -132c0 -47 -19 -82 -56 -105zM146 379c0 -31 14 -52 58 -70l35 -14c10 8 14 19 14 36c0 31 -12 50 -57 70l-34 15 c-12 -9 -16 -20 -16 -37z"/>
    <glyph glyph-name="bar.case" horiz-adv-x="226" d="M46 -87v877h134v-877h-134z"/>
    <glyph glyph-name="brokenbar.case" horiz-adv-x="226" d="M180 800v-390h-134v390h134zM180 319v-396h-134v396h134z"/>
    <glyph glyph-name="dagger.case" horiz-adv-x="424" d="M281 419v-461h-138v461h-126v121h126v213h138v-213h126v-121h-126z"/>
    <glyph glyph-name="daggerdbl.case" horiz-adv-x="424" d="M407 419h-126v-140h126v-121h-126v-200h-138v200h-126v121h126v140h-126v121h126v213h138v-213h126v-121z"/>
    <glyph glyph-name="bar.tf" horiz-adv-x="232" d="M49 -117v877h134v-877h-134z"/>
    <glyph glyph-name="plus.subs" horiz-adv-x="367" d="M332 148v-97h-99v-100h-100v100h-98v97h98v93h100v-93h99z"/>
    <glyph glyph-name="minus.subs" horiz-adv-x="367" d="M35 51v97h297v-97h-297z"/>
    <glyph glyph-name="multiply.subs" horiz-adv-x="377" d="M344 9l-70 -70l-86 90l-87 -89l-69 68l88 92l-86 90l70 69l84 -88l84 88l71 -69l-87 -90z"/>
    <glyph glyph-name="divide.subs" horiz-adv-x="367" d="M184 167c-34 0 -58 23 -58 57c0 35 24 57 58 57c33 0 58 -22 58 -57c0 -33 -25 -57 -58 -57zM35 51v97h297v-97h-297zM184 -83c-34 0 -58 23 -58 57c0 35 24 57 58 57c33 0 58 -22 58 -57c0 -33 -25 -57 -58 -57z"/>
    <glyph glyph-name="plus.sups" horiz-adv-x="367" d="M332 598v-97h-99v-100h-100v100h-98v97h98v93h100v-93h99z"/>
    <glyph glyph-name="minus.sups" horiz-adv-x="367" d="M35 501v97h297v-97h-297z"/>
    <glyph glyph-name="multiply.sups" horiz-adv-x="377" d="M344 459l-70 -70l-86 90l-87 -89l-69 68l88 92l-86 90l70 69l84 -88l84 88l71 -69l-87 -90z"/>
    <glyph glyph-name="divide.sups" horiz-adv-x="367" d="M184 617c-34 0 -58 23 -58 57c0 35 24 57 58 57c33 0 58 -22 58 -57c0 -33 -25 -57 -58 -57zM35 501v97h297v-97h-297zM184 367c-34 0 -58 23 -58 57c0 35 24 57 58 57c33 0 58 -22 58 -57c0 -33 -25 -57 -58 -57z"/>
    <glyph glyph-name="caronaccentcomb" horiz-adv-x="233" d="M102 528l-30 49c29 5 44 16 44 34h-66v99h132v-80c0 -55 -25 -91 -80 -102z"/>
    <glyph glyph-name="uniE000" unicode="" horiz-adv-x="701" d="M144 682h511v-122h-378v-378h99l-165 -220l-165 220h98v500z"/>
    </font>
</defs>
</svg>
