<svg xmlns="http://www.w3.org/2000/svg">
<defs>
<font id="GTAmerica-CompressedBold" horiz-adv-x="464">
  <font-face font-family="GT America Compressed Bold" font-weight="700" font-stretch="ultra-condensed" units-per-em="1000" panose-1="0 0 8 8 0 0 0 0 0 0" ascent="785" descent="-215" x-height="500" cap-height="710" bbox="-402 -242 998 956" underline-thickness="50" underline-position="-100" stemh="107" stemv="139" unicode-range="U+000D-FB02"/>

<glyph glyph-name="fi" unicode="fi" horiz-adv-x="512" d="M276 500v-91h-77v-409h-131v409h-54v91h54v77c0 103 51 154 155 154c17 0 36 -1 53 -4v-103c-13 1 -18 2 -26 2c-35 0 -51 -18 -51 -59v-67h77zM333 571v135h134v-135h-134zM337 0v500h127v-500h-127z"/>
    <glyph glyph-name="fl" unicode="fl" horiz-adv-x="518" d="M276 500v-91h-77v-409h-131v409h-54v91h54v77c0 103 51 154 155 154c17 0 36 -1 53 -4v-103c-13 1 -18 2 -26 2c-35 0 -51 -18 -51 -59v-67h77zM469 725v-725h-131v725h131z"/>
    <glyph glyph-name="g_g.liga" unicode="gg" horiz-adv-x="774" d="M262 502c12 53 46 83 100 83c9 0 16 -1 25 -3v-97c-14 3 -26 5 -39 5c-17 0 -31 -4 -43 -10c34 -26 52 -67 52 -121v-42c0 -98 -59 -152 -167 -152c-19 0 -37 2 -53 5c-6 -4 -10 -11 -10 -21c0 -17 12 -24 43 -32l78 -18c79 -17 125 -56 125 -131v-23 c0 -92 -61 -152 -185 -152c-112 0 -175 44 -175 114v11c0 45 27 77 76 93c-40 17 -60 46 -60 86c0 44 28 75 70 85c-50 24 -76 69 -76 135v42c0 98 59 153 167 153c27 0 51 -3 72 -10zM647 97c83 -17 125 -56 125 -131v-21c0 -94 -72 -152 -193 -152 c-111 0 -174 44 -174 114v11c0 44 27 76 73 92c-40 17 -60 47 -60 87c0 43 27 73 67 84c-51 23 -79 69 -79 136v42c0 98 60 153 168 153c27 0 51 -3 71 -10c12 53 47 83 101 83c9 0 16 -1 24 -3v-97c-13 3 -25 5 -39 5c-16 0 -30 -4 -42 -10c34 -26 52 -67 52 -121v-42 c0 -98 -59 -152 -167 -152c-18 0 -34 1 -49 4c-5 -4 -8 -11 -8 -20c0 -17 11 -25 41 -32zM234 296v84c0 39 -16 61 -44 61s-44 -22 -44 -61v-84c0 -39 16 -59 44 -59s44 20 44 59zM530 380v-84c0 -39 16 -59 44 -59c27 0 43 20 43 59v84c0 39 -16 61 -43 61 c-28 0 -44 -22 -44 -61zM205 -13l-69 12c-9 -10 -13 -24 -13 -43v-17c0 -48 24 -70 71 -70c42 0 61 21 61 55v15c0 29 -18 42 -50 48zM655 -76v13c0 29 -18 42 -50 48l-77 13c-8 -10 -12 -24 -12 -42v-17c0 -48 26 -70 72 -70c44 0 67 19 67 55z"/>
    <glyph glyph-name=".notdef" horiz-adv-x="1018" d="M998 663h-552v-47h552v-48h-552v-47h552v-48h-552v-47h552v-47h-552v-48h552v-47h-978v426h978v-47zM67 667l13 9h-16l-5 15l-4 -15h-16l13 -9l-5 -15l12 9l13 -9zM142 676h-16l13 -9l-5 -15l12 10l13 -10l-5 15l12 9h-15l-5 15zM229 676h-16l13 -9l-5 -15l12 10l13 -10 l-5 15l12 9h-15l-5 15zM315 676h-15l13 -9l-5 -15l12 10l13 -10l-5 15l12 9h-15l-5 15zM415 667l12 9h-15l-5 15l-5 -15h-15l12 -9l-4 -15l12 10l13 -10zM98 632h-15l12 -9l-4 -14l12 9l12 -9l-4 14l12 9h-15l-5 15zM371 623l13 9h-16l-4 15l-5 -15h-15l12 -9l-5 -14l13 9 l12 -9zM273 364v93h94v80h-94v94h-80v-94h-93v-80h93v-93h80zM67 580l13 9h-16l-5 14l-4 -14h-16l13 -9l-5 -15l12 9l13 -9zM142 589h-16l13 -9l-5 -15l12 9l13 -9l-5 15l12 9h-15l-5 14zM315 589h-15l13 -9l-5 -15l12 9l13 -9l-5 15l12 9h-15l-5 14zM415 580l12 9h-15 l-5 14l-5 -14h-15l12 -9l-4 -15l12 9l13 -9zM67 492l13 10h-16l-5 14l-4 -14h-16l13 -10l-5 -14l12 9l13 -9zM415 492l12 10h-15l-5 14l-5 -14h-15l12 -10l-4 -14l12 9l13 -9zM67 405l13 9h-16l-5 15l-4 -15h-16l13 -9l-5 -14l12 9l13 -9zM154 405l12 9h-15l-5 15l-4 -15 h-16l13 -9l-5 -14l12 9l13 -9zM328 405l12 9h-15l-5 15l-5 -15h-15l13 -9l-5 -14l12 9l13 -9zM415 405l12 9h-15l-5 15l-5 -15h-15l12 -9l-4 -14l12 9l13 -9zM115 347l-4 15l12 9h-15l-5 14l-5 -14h-15l12 -9l-4 -15l12 9zM376 347l-5 15l13 9h-16l-4 14l-5 -14h-15l12 -9 l-5 -15l13 9zM72 303l-5 15l13 9h-16l-5 15l-4 -15h-16l13 -9l-5 -15l12 9zM159 303l-5 15l12 9h-15l-5 15l-4 -15h-16l13 -9l-5 -15l12 9zM246 303l-5 15l12 9h-15l-5 15l-4 -15h-16l13 -9l-5 -15l12 9zM333 303l-5 15l12 9h-15l-5 15l-5 -15h-15l13 -9l-5 -15l12 9z M420 303l-5 15l12 9h-15l-5 15l-5 -15h-15l12 -9l-4 -15l12 9zM20 189v48h977v-48h-977zM20 95v47h978v-47h-978zM20 0v47h978v-47h-978z"/>
    <glyph glyph-name="CR" unicode="&#xD;" horiz-adv-x="0"/>
    <glyph glyph-name=".null" horiz-adv-x="0"/>
    <glyph glyph-name="space" unicode=" " horiz-adv-x="167"/>
    <glyph glyph-name="A" unicode="A" horiz-adv-x="482" d="M331 0l-26 166h-129l-26 -166h-139l139 710h182l138 -710h-139zM191 267h99l-35 224c-5 34 -9 63 -13 101h-3c-3 -38 -8 -67 -13 -101z"/>
    <glyph glyph-name="B" unicode="B" horiz-adv-x="471" d="M348 375c61 -20 100 -69 100 -161v-21c0 -121 -64 -193 -196 -193h-201v710h195c133 0 193 -69 193 -175v-24c0 -70 -34 -119 -91 -136zM229 614h-39v-206h40c50 0 67 32 67 100v23c0 57 -18 83 -68 83zM305 195v25c0 71 -21 100 -70 100h-45v-224h48c49 0 67 34 67 99z "/>
    <glyph glyph-name="C" unicode="C" horiz-adv-x="472" d="M239 -17c-136 0 -209 74 -209 222v301c0 145 76 221 212 221c129 0 202 -64 202 -194v-72l-143 -27v95c0 59 -20 89 -62 89c-43 0 -66 -31 -66 -100v-321c0 -68 23 -104 66 -104c41 0 63 31 63 89v106l142 -29v-77c0 -130 -77 -199 -205 -199z"/>
    <glyph glyph-name="D" unicode="D" horiz-adv-x="497" d="M51 0v710h188c148 0 228 -85 228 -245v-210c0 -167 -79 -255 -229 -255h-187zM190 101h43c62 0 91 51 91 144v226c0 95 -27 138 -91 138h-43v-508z"/>
    <glyph glyph-name="E" unicode="E" horiz-adv-x="398" d="M190 107h192v-107h-331v710h324v-107h-185v-184h171v-107h-171v-205z"/>
    <glyph glyph-name="F" unicode="F" horiz-adv-x="383" d="M375 602h-185v-184h171v-107h-171v-311h-139v710h324v-108z"/>
    <glyph glyph-name="G" unicode="G" horiz-adv-x="484" d="M197 -17c-109 0 -167 81 -167 226v282c0 150 75 236 213 236c129 0 201 -68 201 -184v-55l-142 -26v77c0 54 -19 84 -61 84c-46 0 -68 -38 -68 -111v-309c0 -71 23 -112 71 -112s69 42 69 102v90h-79v106h211v-389h-100l-7 101c-15 -71 -63 -118 -141 -118z"/>
    <glyph glyph-name="H" unicode="H" horiz-adv-x="509" d="M458 710v-710h-139v309h-129v-309h-139v710h139v-294h129v294h139z"/>
    <glyph glyph-name="I" unicode="I" horiz-adv-x="241" d="M190 0h-139v710h139v-710z"/>
    <glyph glyph-name="J" unicode="J" horiz-adv-x="287" d="M242 148c0 -123 -77 -160 -170 -160c-26 0 -48 2 -67 6v122c16 -3 28 -4 39 -4c32 0 60 15 60 67v531h138v-562z"/>
    <glyph glyph-name="K" unicode="K" horiz-adv-x="484" d="M328 0l-87 317l-51 -110v-207h-139v710h139v-332l137 332h143l-127 -277l133 -433h-148z"/>
    <glyph glyph-name="L" unicode="L" horiz-adv-x="375" d="M51 0v710h139v-588h175v-122h-314z"/>
    <glyph glyph-name="M" unicode="M" horiz-adv-x="621" d="M51 0v710h186l60 -369c6 -38 11 -77 12 -104h4c0 27 6 66 11 104l59 369h187v-710h-120v357c0 57 0 136 3 193h-4c-4 -34 -7 -60 -14 -105l-75 -445h-100l-76 445c-6 45 -12 84 -13 105h-5c3 -57 3 -136 3 -193v-357h-118z"/>
    <glyph glyph-name="N" unicode="N" horiz-adv-x="518" d="M51 0v710h149l119 -345c11 -35 21 -71 29 -106h2c-3 52 -5 104 -5 157v294h122v-710h-134l-130 374c-14 42 -23 76 -31 112h-3c3 -46 5 -90 5 -138v-348h-123z"/>
    <glyph glyph-name="O" unicode="O" horiz-adv-x="491" d="M245 -17c-135 0 -215 80 -215 225v294c0 145 80 225 215 225c136 0 216 -80 216 -225v-294c0 -145 -80 -225 -216 -225zM245 92c47 0 73 35 73 99v328c0 64 -26 99 -73 99c-46 0 -72 -35 -72 -99v-328c0 -64 26 -99 72 -99z"/>
    <glyph glyph-name="P" unicode="P" horiz-adv-x="455" d="M246 710c132 0 199 -62 200 -182v-59c0 -127 -70 -197 -197 -197h-59v-272h-139v710h195zM303 471v52c0 64 -22 91 -71 91h-42v-244h42c49 0 71 30 71 101z"/>
    <glyph glyph-name="Q" unicode="Q" horiz-adv-x="491" d="M461 208c0 -104 -41 -175 -115 -206c17 -10 40 -12 59 -12s31 1 47 5v-114c-17 -4 -30 -6 -57 -6c-75 0 -130 39 -154 108c-132 1 -211 81 -211 225v294c0 145 80 225 215 225c136 0 216 -80 216 -225v-294zM173 191c0 -64 26 -99 72 -99c47 0 73 35 73 99v328 c0 64 -26 99 -73 99c-46 0 -72 -35 -72 -99v-328z"/>
    <glyph glyph-name="R" unicode="R" horiz-adv-x="473" d="M318 0l-78 289h-50v-289h-139v710h189c148 0 206 -71 207 -190v-34c0 -84 -31 -138 -84 -164l100 -322h-145zM190 378h41c54 0 73 32 73 101v45c0 65 -20 90 -73 90h-41v-236z"/>
    <glyph glyph-name="S" unicode="S" horiz-adv-x="430" d="M216 -17c-128 0 -200 75 -200 194v57l141 27v-81c0 -57 19 -90 60 -90c40 0 56 30 56 69v29c0 44 -7 66 -52 95l-101 62c-73 44 -98 97 -98 172v37c0 116 86 173 195 173c121 0 197 -48 197 -182v-52l-138 -26v76c0 48 -17 79 -59 79c-35 0 -55 -26 -55 -60v-32 c0 -37 18 -63 51 -84l102 -62c80 -49 100 -99 100 -174v-54c0 -102 -68 -173 -199 -173z"/>
    <glyph glyph-name="T" unicode="T" horiz-adv-x="406" d="M407 710v-118h-135v-592h-138v592h-135v118h408z"/>
    <glyph glyph-name="U" unicode="U" horiz-adv-x="495" d="M45 710h139v-531c0 -51 22 -79 64 -79c40 0 64 28 64 79v531h138v-537c0 -117 -72 -190 -202 -190c-131 0 -203 73 -203 190v537z"/>
    <glyph glyph-name="V" unicode="V" horiz-adv-x="452" d="M138 0l-136 710h143l67 -463c7 -48 10 -83 12 -120h5c2 37 5 72 11 120l67 463h143l-135 -710h-177z"/>
    <glyph glyph-name="W" unicode="W" horiz-adv-x="643" d="M100 0l-81 710h128l36 -436c3 -35 6 -76 6 -116h5c3 36 7 72 10 107l51 445h133l51 -445c3 -35 6 -71 10 -107h4c1 40 3 81 6 116l37 436h128l-81 -710h-163l-48 405c-5 45 -6 88 -8 123h-5c-2 -35 -3 -78 -8 -123l-48 -405h-163z"/>
    <glyph glyph-name="X" unicode="X" horiz-adv-x="458" d="M7 0l123 377l-114 333h146l50 -179c9 -30 11 -53 15 -87h2c5 32 7 56 15 87l53 179h144l-112 -334l122 -376h-147l-61 229c-7 22 -10 49 -14 86h-3c-3 -28 -6 -54 -14 -86l-59 -229h-146z"/>
    <glyph glyph-name="Y" unicode="Y" horiz-adv-x="441" d="M152 0v255l-151 455h145l60 -237c8 -32 11 -59 15 -94h2c4 35 7 62 14 94l58 237h145l-149 -455v-255h-139z"/>
    <glyph glyph-name="Z" unicode="Z" horiz-adv-x="394" d="M17 103l209 490h-200v117h348v-101l-206 -492h215v-117h-366v103z"/>
    <glyph glyph-name="Aacute" unicode="Á" horiz-adv-x="482" d="M400 865l-102 -112h-116l85 112h133zM331 0l-26 166h-129l-26 -166h-139l139 710h182l138 -710h-139zM191 267h99l-35 224c-5 34 -9 63 -13 101h-3c-3 -38 -8 -67 -13 -101z"/>
    <glyph glyph-name="Abreve" unicode="Ă" horiz-adv-x="482" d="M240 748c-92 0 -145 40 -147 117h98c0 -26 19 -41 49 -41c31 0 49 15 50 41h97c-1 -77 -54 -117 -147 -117zM331 0l-26 166h-129l-26 -166h-139l139 710h182l138 -710h-139zM191 267h99l-35 224c-5 34 -9 63 -13 101h-3c-3 -38 -8 -67 -13 -101z"/>
    <glyph glyph-name="Acircumflex" unicode="Â" horiz-adv-x="482" d="M240 820l-48 -67h-108l83 112h146l84 -112h-109zM331 0l-26 166h-129l-26 -166h-139l139 710h182l138 -710h-139zM191 267h99l-35 224c-5 34 -9 63 -13 101h-3c-3 -38 -8 -67 -13 -101z"/>
    <glyph glyph-name="Adieresis" unicode="Ä" horiz-adv-x="482" d="M210 859v-106h-112v106h112zM382 859v-106h-112v106h112zM331 0l-26 166h-129l-26 -166h-139l139 710h182l138 -710h-139zM191 267h99l-35 224c-5 34 -9 63 -13 101h-3c-3 -38 -8 -67 -13 -101z"/>
    <glyph glyph-name="AE" unicode="Æ" horiz-adv-x="660" d="M455 107h188v-107h-326v169h-124l-48 -169h-137l223 710h405v-107h-181v-184h167v-107h-167v-205zM220 263h97v342z"/>
    <glyph glyph-name="AEacute" unicode="Ǽ" horiz-adv-x="660" d="M614 865l-102 -112h-116l85 112h133zM455 107h188v-107h-326v169h-124l-48 -169h-137l223 710h405v-107h-181v-184h167v-107h-167v-205zM220 263h97v342z"/>
    <glyph glyph-name="Agrave" unicode="À" horiz-adv-x="482" d="M296 753h-116l-101 112h133zM331 0l-26 166h-129l-26 -166h-139l139 710h182l138 -710h-139zM191 267h99l-35 224c-5 34 -9 63 -13 101h-3c-3 -38 -8 -67 -13 -101z"/>
    <glyph glyph-name="Amacron" unicode="Ā" horiz-adv-x="482" d="M387 842v-88h-293v88h293zM331 0l-26 166h-129l-26 -166h-139l139 710h182l138 -710h-139zM191 267h99l-35 224c-5 34 -9 63 -13 101h-3c-3 -38 -8 -67 -13 -101z"/>
    <glyph glyph-name="Aogonek" unicode="Ą" horiz-adv-x="482" d="M411 -94l81 -19c-9 -64 -60 -89 -120 -89c-66 0 -115 31 -115 94c0 43 25 79 74 108l-26 166h-129l-26 -166h-139l139 710h182l138 -710h-23c-62 -23 -96 -56 -96 -98c0 -21 10 -34 28 -34s28 13 32 38zM191 267h99l-35 224c-5 34 -9 63 -13 101h-3 c-3 -38 -8 -67 -13 -101z"/>
    <glyph glyph-name="Aring" unicode="Å" horiz-adv-x="482" d="M241 739c-67 0 -114 44 -114 108s47 109 114 109s115 -45 115 -109s-48 -108 -115 -108zM241 898c-29 0 -47 -22 -47 -51s18 -49 47 -49s47 20 47 49s-18 51 -47 51zM331 0l-26 166h-129l-26 -166h-139l139 710h182l138 -710h-139zM191 267h99l-35 224 c-5 34 -9 63 -13 101h-3c-3 -38 -8 -67 -13 -101z"/>
    <glyph glyph-name="Atilde" unicode="Ã" horiz-adv-x="482" d="M187 788c-18 0 -28 -13 -31 -41l-77 22c4 67 40 107 97 107c61 0 86 -47 117 -47c18 0 28 14 31 42l77 -23c-4 -66 -40 -106 -97 -106c-61 0 -86 46 -117 46zM331 0l-26 166h-129l-26 -166h-139l139 710h182l138 -710h-139zM191 267h99l-35 224c-5 34 -9 63 -13 101h-3 c-3 -38 -8 -67 -13 -101z"/>
    <glyph glyph-name="Cacute" unicode="Ć" horiz-adv-x="472" d="M178 753l85 112h133l-102 -112h-116zM239 -17c-136 0 -209 74 -209 222v301c0 145 76 221 212 221c129 0 202 -64 202 -194v-72l-143 -27v95c0 59 -20 89 -62 89c-43 0 -66 -31 -66 -100v-321c0 -68 23 -104 66 -104c41 0 63 31 63 89v106l142 -29v-77 c0 -130 -77 -199 -205 -199z"/>
    <glyph glyph-name="Ccaron" unicode="Č" horiz-adv-x="472" d="M392 860l-83 -112h-147l-82 112h107l49 -67l48 67h108zM239 -17c-136 0 -209 74 -209 222v301c0 145 76 221 212 221c129 0 202 -64 202 -194v-72l-143 -27v95c0 59 -20 89 -62 89c-43 0 -66 -31 -66 -100v-321c0 -68 23 -104 66 -104c41 0 63 31 63 89v106l142 -29v-77 c0 -130 -77 -199 -205 -199z"/>
    <glyph glyph-name="Ccedilla" unicode="Ç" horiz-adv-x="472" d="M444 461l-143 -27v95c0 59 -20 89 -62 89c-43 0 -66 -31 -66 -100v-321c0 -68 23 -104 66 -104c41 0 63 31 63 89v106l142 -29v-77c0 -119 -64 -186 -173 -197l-16 -34c9 8 25 13 44 13c45 0 75 -28 75 -81v-6c0 -56 -44 -90 -113 -90c-59 0 -99 25 -112 68l79 18 c4 -18 15 -25 31 -25c18 0 28 11 28 34v4c0 20 -11 31 -28 31c-11 0 -21 -6 -26 -16l-69 14l29 71c-106 16 -163 88 -163 219v301c0 145 76 221 212 221c129 0 202 -64 202 -194v-72z"/>
    <glyph glyph-name="Ccircumflex" unicode="Ĉ" horiz-adv-x="472" d="M393 753h-109l-48 67l-48 -67h-108l83 112h146zM239 -17c-136 0 -209 74 -209 222v301c0 145 76 221 212 221c129 0 202 -64 202 -194v-72l-143 -27v95c0 59 -20 89 -62 89c-43 0 -66 -31 -66 -100v-321c0 -68 23 -104 66 -104c41 0 63 31 63 89v106l142 -29v-77 c0 -130 -77 -199 -205 -199z"/>
    <glyph glyph-name="Cdotaccent" unicode="Ċ" horiz-adv-x="472" d="M172 753v109h128v-109h-128zM239 -17c-136 0 -209 74 -209 222v301c0 145 76 221 212 221c129 0 202 -64 202 -194v-72l-143 -27v95c0 59 -20 89 -62 89c-43 0 -66 -31 -66 -100v-321c0 -68 23 -104 66 -104c41 0 63 31 63 89v106l142 -29v-77c0 -130 -77 -199 -205 -199 z"/>
    <glyph glyph-name="Dcaron" unicode="Ď" horiz-adv-x="497" d="M399 860l-83 -112h-147l-82 112h107l49 -67l48 67h108zM51 0v710h188c148 0 228 -85 228 -245v-210c0 -167 -79 -255 -229 -255h-187zM190 101h43c62 0 91 51 91 144v226c0 95 -27 138 -91 138h-43v-508z"/>
    <glyph glyph-name="Dcroat" unicode="Đ" horiz-adv-x="497" d="M239 710c148 0 228 -85 228 -245v-210c0 -167 -79 -255 -229 -255h-187v329h-46v78h46v303h188zM324 245v226c0 95 -27 138 -91 138h-43v-202h71v-78h-71v-228h43c62 0 91 51 91 144z"/>
    <glyph glyph-name="Eacute" unicode="É" horiz-adv-x="398" d="M366 865l-102 -112h-116l85 112h133zM190 107h192v-107h-331v710h324v-107h-185v-184h171v-107h-171v-205z"/>
    <glyph glyph-name="Ebreve" unicode="Ĕ" horiz-adv-x="398" d="M207 748c-92 0 -145 40 -147 117h98c0 -26 19 -41 49 -41c31 0 49 15 50 41h97c-1 -77 -54 -117 -147 -117zM190 107h192v-107h-331v710h324v-107h-185v-184h171v-107h-171v-205z"/>
    <glyph glyph-name="Ecaron" unicode="Ě" horiz-adv-x="398" d="M280 748h-147l-82 112h107l49 -67l48 67h108zM190 107h192v-107h-331v710h324v-107h-185v-184h171v-107h-171v-205z"/>
    <glyph glyph-name="Ecircumflex" unicode="Ê" horiz-adv-x="398" d="M206 820l-48 -67h-108l83 112h146l84 -112h-109zM190 107h192v-107h-331v710h324v-107h-185v-184h171v-107h-171v-205z"/>
    <glyph glyph-name="Edieresis" unicode="Ë" horiz-adv-x="398" d="M177 859v-106h-112v106h112zM349 859v-106h-112v106h112zM190 107h192v-107h-331v710h324v-107h-185v-184h171v-107h-171v-205z"/>
    <glyph glyph-name="Edotaccent" unicode="Ė" horiz-adv-x="398" d="M270 862v-109h-128v109h128zM190 107h192v-107h-331v710h324v-107h-185v-184h171v-107h-171v-205z"/>
    <glyph glyph-name="Egrave" unicode="È" horiz-adv-x="398" d="M263 753h-116l-101 112h133zM190 107h192v-107h-331v710h324v-107h-185v-184h171v-107h-171v-205z"/>
    <glyph glyph-name="Emacron" unicode="Ē" horiz-adv-x="398" d="M354 842v-88h-293v88h293zM190 107h192v-107h-331v710h324v-107h-185v-184h171v-107h-171v-205z"/>
    <glyph glyph-name="Eogonek" unicode="Ę" horiz-adv-x="398" d="M346 -94l81 -19c-9 -64 -60 -89 -120 -89c-66 0 -115 31 -115 94c0 43 25 79 74 108h-215v710h324v-107h-185v-184h171v-107h-171v-205h192v-107c-62 -23 -96 -56 -96 -98c0 -21 10 -34 28 -34s28 13 32 38z"/>
    <glyph glyph-name="Eth" unicode="Ð" horiz-adv-x="497" d="M239 710c148 0 228 -85 228 -245v-210c0 -167 -79 -255 -229 -255h-187v329h-46v78h46v303h188zM324 245v226c0 95 -27 138 -91 138h-43v-202h71v-78h-71v-228h43c62 0 91 51 91 144z"/>
    <glyph glyph-name="Gbreve" unicode="Ğ" horiz-adv-x="484" d="M191 865c0 -26 19 -41 49 -41c31 0 49 15 50 41h97c-1 -77 -54 -117 -147 -117c-92 0 -145 40 -147 117h98zM197 -17c-109 0 -167 81 -167 226v282c0 150 75 236 213 236c129 0 201 -68 201 -184v-55l-142 -26v77c0 54 -19 84 -61 84c-46 0 -68 -38 -68 -111v-309 c0 -71 23 -112 71 -112s69 42 69 102v90h-79v106h211v-389h-100l-7 101c-15 -71 -63 -118 -141 -118z"/>
    <glyph glyph-name="Gcircumflex" unicode="Ĝ" horiz-adv-x="484" d="M397 753h-109l-48 67l-48 -67h-108l83 112h146zM197 -17c-109 0 -167 81 -167 226v282c0 150 75 236 213 236c129 0 201 -68 201 -184v-55l-142 -26v77c0 54 -19 84 -61 84c-46 0 -68 -38 -68 -111v-309c0 -71 23 -112 71 -112s69 42 69 102v90h-79v106h211v-389h-100 l-7 101c-15 -71 -63 -118 -141 -118z"/>
    <glyph glyph-name="uni0122" unicode="Ģ" horiz-adv-x="484" d="M197 -17c-109 0 -167 81 -167 226v282c0 150 75 236 213 236c129 0 201 -68 201 -184v-55l-142 -26v77c0 54 -19 84 -61 84c-46 0 -68 -38 -68 -111v-309c0 -71 23 -112 71 -112s69 42 69 102v90h-79v106h211v-389h-100l-7 101c-15 -71 -63 -118 -141 -118zM227 -215 l-26 44c29 8 42 20 42 42h-58v93h115v-78c0 -53 -21 -86 -73 -101z"/>
    <glyph glyph-name="Gdotaccent" unicode="Ġ" horiz-adv-x="484" d="M176 753v109h128v-109h-128zM197 -17c-109 0 -167 81 -167 226v282c0 150 75 236 213 236c129 0 201 -68 201 -184v-55l-142 -26v77c0 54 -19 84 -61 84c-46 0 -68 -38 -68 -111v-309c0 -71 23 -112 71 -112s69 42 69 102v90h-79v106h211v-389h-100l-7 101 c-15 -71 -63 -118 -141 -118z"/>
    <glyph glyph-name="Hbar" unicode="Ħ" horiz-adv-x="509" d="M511 593v-69h-53v-524h-139v309h-129v-309h-139v524h-54v69h54v117h139v-117h129v117h139v-117h53zM319 416v108h-129v-108h129z"/>
    <glyph glyph-name="Hcircumflex" unicode="Ĥ" horiz-adv-x="509" d="M411 753h-109l-48 67l-48 -67h-108l83 112h146zM458 710v-710h-139v309h-129v-309h-139v710h139v-294h129v294h139z"/>
    <glyph glyph-name="Iacute" unicode="Í" horiz-adv-x="241" d="M63 753l63 112h125l-72 -112h-116zM190 0h-139v710h139v-710z"/>
    <glyph glyph-name="Ibreve" unicode="Ĭ" horiz-adv-x="241" d="M85 865c0 -26 13 -41 36 -41c24 0 37 15 37 41h97c-1 -76 -49 -117 -134 -117s-132 41 -134 117h98zM190 0h-139v710h139v-710z"/>
    <glyph glyph-name="Icircumflex" unicode="Î" horiz-adv-x="241" d="M253 753h-99l-33 67l-34 -67h-99l59 112h147zM190 0h-139v710h139v-710z"/>
    <glyph glyph-name="Idieresis" unicode="Ï" horiz-adv-x="241" d="M-6 753v106h111v-106h-111zM137 753v106h112v-106h-112zM190 0h-139v710h139v-710z"/>
    <glyph glyph-name="Idotaccent" unicode="İ" horiz-adv-x="241" d="M57 753v109h128v-109h-128zM190 0h-139v710h139v-710z"/>
    <glyph glyph-name="Igrave" unicode="Ì" horiz-adv-x="241" d="M178 753h-115l-73 112h125zM190 0h-139v710h139v-710z"/>
    <glyph glyph-name="IJ" unicode="Ĳ" horiz-adv-x="528" d="M190 0h-139v710h139v-710zM483 148c0 -123 -77 -160 -170 -160c-26 0 -48 2 -67 6v122c16 -3 28 -4 39 -4c32 0 60 15 60 67v531h138v-562z"/>
    <glyph glyph-name="uni00A40301" horiz-adv-x="287" d="M115 753l63 112h125l-72 -112h-116zM242 148c0 -123 -77 -160 -170 -160c-26 0 -48 2 -67 6v122c16 -3 28 -4 39 -4c32 0 60 15 60 67v531h138v-562z"/>
    <glyph glyph-name="Imacron" unicode="Ī" horiz-adv-x="241" d="M7 760v89h230v-89h-230zM190 0h-139v710h139v-710z"/>
    <glyph glyph-name="Iogonek" unicode="Į" horiz-adv-x="241" d="M131 -94l81 -19c-9 -64 -60 -89 -120 -89c-66 0 -115 31 -115 94c0 43 25 79 74 108v710h139v-710h-23c-62 -23 -96 -56 -96 -98c0 -21 10 -34 28 -34s28 13 32 38z"/>
    <glyph glyph-name="Itilde" unicode="Ĩ" horiz-adv-x="241" d="M172 741c-56 0 -77 46 -104 46c-14 0 -23 -13 -25 -37l-68 22c2 62 36 102 89 102c56 0 77 -46 104 -46c14 0 23 12 24 37l69 -22c-1 -62 -35 -102 -89 -102zM190 0h-139v710h139v-710z"/>
    <glyph glyph-name="Jcircumflex" unicode="Ĵ" horiz-adv-x="287" d="M305 753h-99l-33 67l-34 -67h-99l59 112h147zM242 148c0 -123 -77 -160 -170 -160c-26 0 -48 2 -67 6v122c16 -3 28 -4 39 -4c32 0 60 15 60 67v531h138v-562z"/>
    <glyph glyph-name="uni0136" unicode="Ķ" horiz-adv-x="484" d="M343 433l133 -433h-148l-87 317l-51 -110v-207h-139v710h139v-332l137 332h143zM190 -129v93h115v-78c0 -53 -21 -86 -73 -101l-26 44c29 8 42 20 42 42h-58z"/>
    <glyph glyph-name="Lacute" unicode="Ĺ" horiz-adv-x="375" d="M62 753l85 112h133l-102 -112h-116zM51 0v710h139v-588h175v-122h-314z"/>
    <glyph glyph-name="Lcaron" unicode="Ľ" horiz-adv-x="375" d="M51 0v710h139v-588h175v-122h-314zM260 532l-26 43c29 8 42 20 42 42h-58v93h115v-77c0 -54 -21 -87 -73 -101z"/>
    <glyph glyph-name="uni013B" unicode="Ļ" horiz-adv-x="375" d="M51 0v710h139v-588h175v-122h-314zM199 -215l-26 44c29 8 42 20 42 42h-58v93h115v-78c0 -53 -21 -86 -73 -101z"/>
    <glyph glyph-name="Ldot" unicode="Ŀ" horiz-adv-x="375" d="M51 0v710h139v-588h175v-122h-314zM368 500v-162h-137v162h137z"/>
    <glyph glyph-name="Lslash" unicode="Ł" horiz-adv-x="375" d="M190 122h175v-122h-314v256l-56 -33v97l56 33v357h139v-273l133 79v-97l-133 -79v-218z"/>
    <glyph glyph-name="Nacute" unicode="Ń" horiz-adv-x="518" d="M201 753l85 112h133l-102 -112h-116zM51 0v710h149l119 -345c11 -35 21 -71 29 -106h2c-3 52 -5 104 -5 157v294h122v-710h-134l-130 374c-14 42 -23 76 -31 112h-3c3 -46 5 -90 5 -138v-348h-123z"/>
    <glyph glyph-name="Ncaron" unicode="Ň" horiz-adv-x="518" d="M416 860l-83 -112h-147l-82 112h107l49 -67l48 67h108zM51 0v710h149l119 -345c11 -35 21 -71 29 -106h2c-3 52 -5 104 -5 157v294h122v-710h-134l-130 374c-14 42 -23 76 -31 112h-3c3 -46 5 -90 5 -138v-348h-123z"/>
    <glyph glyph-name="uni0145" unicode="Ņ" horiz-adv-x="518" d="M51 0v710h149l119 -345c11 -35 21 -71 29 -106h2c-3 52 -5 104 -5 157v294h122v-710h-134l-130 374c-14 42 -23 76 -31 112h-3c3 -46 5 -90 5 -138v-348h-123zM245 -215l-26 44c29 8 42 20 42 42h-58v93h115v-78c0 -53 -21 -86 -73 -101z"/>
    <glyph glyph-name="Ntilde" unicode="Ñ" horiz-adv-x="518" d="M323 742c-61 0 -86 46 -117 46c-18 0 -28 -13 -31 -41l-77 22c4 67 40 107 97 107c61 0 86 -47 117 -47c18 0 28 14 31 42l77 -23c-4 -66 -40 -106 -97 -106zM51 0v710h149l119 -345c11 -35 21 -71 29 -106h2c-3 52 -5 104 -5 157v294h122v-710h-134l-130 374 c-14 42 -23 76 -31 112h-3c3 -46 5 -90 5 -138v-348h-123z"/>
    <glyph glyph-name="Eng" unicode="Ŋ" horiz-adv-x="518" d="M345 710h122v-764c0 -118 -70 -154 -156 -154c-28 0 -49 2 -70 6v115c17 -3 31 -4 43 -4c29 0 55 14 55 56v35h-6l-130 374c-14 42 -23 76 -31 112h-3c3 -46 5 -90 5 -138v-348h-123v710h149l119 -345c11 -35 21 -71 29 -106h2c-3 52 -5 104 -5 157v294z"/>
    <glyph glyph-name="Oacute" unicode="Ó" horiz-adv-x="491" d="M187 753l85 112h133l-102 -112h-116zM245 -17c-135 0 -215 80 -215 225v294c0 145 80 225 215 225c136 0 216 -80 216 -225v-294c0 -145 -80 -225 -216 -225zM245 92c47 0 73 35 73 99v328c0 64 -26 99 -73 99c-46 0 -72 -35 -72 -99v-328c0 -64 26 -99 72 -99z"/>
    <glyph glyph-name="Obreve" unicode="Ŏ" horiz-adv-x="491" d="M196 865c0 -26 19 -41 49 -41c31 0 49 15 50 41h97c-1 -77 -54 -117 -147 -117c-92 0 -145 40 -147 117h98zM245 -17c-135 0 -215 80 -215 225v294c0 145 80 225 215 225c136 0 216 -80 216 -225v-294c0 -145 -80 -225 -216 -225zM245 92c47 0 73 35 73 99v328 c0 64 -26 99 -73 99c-46 0 -72 -35 -72 -99v-328c0 -64 26 -99 72 -99z"/>
    <glyph glyph-name="Ocircumflex" unicode="Ô" horiz-adv-x="491" d="M402 753h-109l-48 67l-48 -67h-108l83 112h146zM245 -17c-135 0 -215 80 -215 225v294c0 145 80 225 215 225c136 0 216 -80 216 -225v-294c0 -145 -80 -225 -216 -225zM245 92c47 0 73 35 73 99v328c0 64 -26 99 -73 99c-46 0 -72 -35 -72 -99v-328c0 -64 26 -99 72 -99 z"/>
    <glyph glyph-name="Odieresis" unicode="Ö" horiz-adv-x="491" d="M103 753v106h112v-106h-112zM275 753v106h112v-106h-112zM245 -17c-135 0 -215 80 -215 225v294c0 145 80 225 215 225c136 0 216 -80 216 -225v-294c0 -145 -80 -225 -216 -225zM245 92c47 0 73 35 73 99v328c0 64 -26 99 -73 99c-46 0 -72 -35 -72 -99v-328 c0 -64 26 -99 72 -99z"/>
    <glyph glyph-name="OE" unicode="Œ" horiz-adv-x="644" d="M435 107h192v-107h-369c-150 0 -228 84 -228 245v228c0 156 78 237 227 237h363v-107h-185v-184h171v-107h-171v-205zM264 101h32v508h-32c-65 0 -94 -42 -94 -135v-230c0 -94 32 -143 94 -143z"/>
    <glyph glyph-name="Ograve" unicode="Ò" horiz-adv-x="491" d="M301 753h-116l-101 112h133zM245 -17c-135 0 -215 80 -215 225v294c0 145 80 225 215 225c136 0 216 -80 216 -225v-294c0 -145 -80 -225 -216 -225zM245 92c47 0 73 35 73 99v328c0 64 -26 99 -73 99c-46 0 -72 -35 -72 -99v-328c0 -64 26 -99 72 -99z"/>
    <glyph glyph-name="Ohungarumlaut" unicode="Ő" horiz-adv-x="491" d="M124 753l82 112h110l-101 -112h-91zM269 753l82 112h110l-101 -112h-91zM245 -17c-135 0 -215 80 -215 225v294c0 145 80 225 215 225c136 0 216 -80 216 -225v-294c0 -145 -80 -225 -216 -225zM245 92c47 0 73 35 73 99v328c0 64 -26 99 -73 99c-46 0 -72 -35 -72 -99 v-328c0 -64 26 -99 72 -99z"/>
    <glyph glyph-name="Omacron" unicode="Ō" horiz-adv-x="491" d="M99 754v88h293v-88h-293zM245 -17c-135 0 -215 80 -215 225v294c0 145 80 225 215 225c136 0 216 -80 216 -225v-294c0 -145 -80 -225 -216 -225zM245 92c47 0 73 35 73 99v328c0 64 -26 99 -73 99c-46 0 -72 -35 -72 -99v-328c0 -64 26 -99 72 -99z"/>
    <glyph glyph-name="Oslash" unicode="Ø" horiz-adv-x="491" d="M418 652c28 -37 43 -88 43 -150v-294c0 -145 -80 -225 -216 -225c-56 0 -102 14 -137 40l-30 -61l-42 26l35 72c-27 37 -41 86 -41 148v294c0 145 80 225 215 225c55 0 102 -13 137 -39l29 59l43 -23zM173 519v-254l142 288c-8 42 -32 65 -70 65c-46 0 -72 -35 -72 -99z M245 92c47 0 73 35 73 99v257l-143 -288c8 -44 32 -68 70 -68z"/>
    <glyph glyph-name="Oslashacute" unicode="Ǿ" horiz-adv-x="491" d="M406 865l-102 -112h-116l85 112h133zM418 652c28 -37 43 -88 43 -150v-294c0 -145 -80 -225 -216 -225c-56 0 -102 14 -137 40l-30 -61l-42 26l35 72c-27 37 -41 86 -41 148v294c0 145 80 225 215 225c55 0 102 -13 137 -39l29 59l43 -23zM173 519v-254l142 288 c-8 42 -32 65 -70 65c-46 0 -72 -35 -72 -99zM245 92c47 0 73 35 73 99v257l-143 -288c8 -44 32 -68 70 -68z"/>
    <glyph glyph-name="Otilde" unicode="Õ" horiz-adv-x="491" d="M309 742c-61 0 -86 46 -117 46c-18 0 -28 -13 -31 -41l-77 22c4 67 40 107 97 107c61 0 86 -47 117 -47c18 0 28 14 31 42l77 -23c-4 -66 -40 -106 -97 -106zM245 -17c-135 0 -215 80 -215 225v294c0 145 80 225 215 225c136 0 216 -80 216 -225v-294 c0 -145 -80 -225 -216 -225zM245 92c47 0 73 35 73 99v328c0 64 -26 99 -73 99c-46 0 -72 -35 -72 -99v-328c0 -64 26 -99 72 -99z"/>
    <glyph glyph-name="Racute" unicode="Ŕ" horiz-adv-x="473" d="M380 865l-102 -112h-116l85 112h133zM318 0l-78 289h-50v-289h-139v710h189c148 0 206 -71 207 -190v-34c0 -84 -31 -138 -84 -164l100 -322h-145zM190 378h41c54 0 73 32 73 101v45c0 65 -20 90 -73 90h-41v-236z"/>
    <glyph glyph-name="Rcaron" unicode="Ř" horiz-adv-x="473" d="M294 748h-147l-82 112h107l49 -67l48 67h108zM318 0l-78 289h-50v-289h-139v710h189c148 0 206 -71 207 -190v-34c0 -84 -31 -138 -84 -164l100 -322h-145zM190 378h41c54 0 73 32 73 101v45c0 65 -20 90 -73 90h-41v-236z"/>
    <glyph glyph-name="uni0156" unicode="Ŗ" horiz-adv-x="473" d="M363 322l100 -322h-145l-78 289h-50v-289h-139v710h189c148 0 206 -71 207 -190v-34c0 -84 -31 -138 -84 -164zM190 378h41c54 0 73 32 73 101v45c0 65 -20 90 -73 90h-41v-236zM185 -129v93h115v-78c0 -53 -21 -86 -73 -101l-26 44c29 8 42 20 42 42h-58z"/>
    <glyph glyph-name="Sacute" unicode="Ś" horiz-adv-x="430" d="M160 753l85 112h133l-102 -112h-116zM216 -17c-128 0 -200 75 -200 194v57l141 27v-81c0 -57 19 -90 60 -90c40 0 56 30 56 69v29c0 44 -7 66 -52 95l-101 62c-73 44 -98 97 -98 172v37c0 116 86 173 195 173c121 0 197 -48 197 -182v-52l-138 -26v76c0 48 -17 79 -59 79 c-35 0 -55 -26 -55 -60v-32c0 -37 18 -63 51 -84l102 -62c80 -49 100 -99 100 -174v-54c0 -102 -68 -173 -199 -173z"/>
    <glyph glyph-name="Scaron" unicode="Š" horiz-adv-x="430" d="M375 860l-83 -112h-147l-82 112h107l49 -67l48 67h108zM216 -17c-128 0 -200 75 -200 194v57l141 27v-81c0 -57 19 -90 60 -90c40 0 56 30 56 69v29c0 44 -7 66 -52 95l-101 62c-73 44 -98 97 -98 172v37c0 116 86 173 195 173c121 0 197 -48 197 -182v-52l-138 -26v76 c0 48 -17 79 -59 79c-35 0 -55 -26 -55 -60v-32c0 -37 18 -63 51 -84l102 -62c80 -49 100 -99 100 -174v-54c0 -102 -68 -173 -199 -173z"/>
    <glyph glyph-name="Scedilla" unicode="Ş" horiz-adv-x="430" d="M315 384c80 -49 100 -99 100 -174v-54c0 -91 -54 -157 -159 -171l-17 -34c9 8 25 13 44 13c45 0 75 -28 75 -81v-6c0 -56 -44 -90 -113 -90c-59 0 -99 25 -112 68l79 18c4 -18 15 -25 31 -25c18 0 28 11 28 34v4c0 20 -11 31 -28 31c-11 0 -21 -6 -26 -16l-69 14l29 70 c-103 14 -161 86 -161 192v57l141 27v-81c0 -57 19 -90 60 -90c40 0 56 30 56 69v29c0 44 -7 66 -52 95l-101 62c-73 44 -98 97 -98 172v37c0 116 86 173 195 173c121 0 197 -48 197 -182v-52l-138 -26v76c0 48 -17 79 -59 79c-35 0 -55 -26 -55 -60v-32 c0 -37 18 -63 51 -84z"/>
    <glyph glyph-name="Scircumflex" unicode="Ŝ" horiz-adv-x="430" d="M375 753h-109l-48 67l-48 -67h-108l83 112h146zM216 -17c-128 0 -200 75 -200 194v57l141 27v-81c0 -57 19 -90 60 -90c40 0 56 30 56 69v29c0 44 -7 66 -52 95l-101 62c-73 44 -98 97 -98 172v37c0 116 86 173 195 173c121 0 197 -48 197 -182v-52l-138 -26v76 c0 48 -17 79 -59 79c-35 0 -55 -26 -55 -60v-32c0 -37 18 -63 51 -84l102 -62c80 -49 100 -99 100 -174v-54c0 -102 -68 -173 -199 -173z"/>
    <glyph glyph-name="uni0218" unicode="Ș" horiz-adv-x="430" d="M216 -17c-128 0 -200 75 -200 194v57l141 27v-81c0 -57 19 -90 60 -90c40 0 56 30 56 69v29c0 44 -7 66 -52 95l-101 62c-73 44 -98 97 -98 172v37c0 116 86 173 195 173c121 0 197 -48 197 -182v-52l-138 -26v76c0 48 -17 79 -59 79c-35 0 -55 -26 -55 -60v-32 c0 -37 18 -63 51 -84l102 -62c80 -49 100 -99 100 -174v-54c0 -102 -68 -173 -199 -173zM208 -215l-26 44c29 8 42 20 42 42h-58v93h115v-78c0 -53 -21 -86 -73 -101z"/>
    <glyph glyph-name="Tbar" unicode="Ŧ" horiz-adv-x="406" d="M407 592h-135v-123h83v-68h-83v-401h-138v401h-82v68h82v123h-135v118h408v-118z"/>
    <glyph glyph-name="Tcaron" unicode="Ť" horiz-adv-x="406" d="M276 748h-147l-82 112h107l49 -67l48 67h108zM407 710v-118h-135v-592h-138v592h-135v118h408z"/>
    <glyph glyph-name="uni0162" unicode="Ţ" horiz-adv-x="406" d="M272 0h-29l-24 -49c9 8 25 13 44 13c45 0 75 -28 75 -81v-6c0 -56 -44 -90 -113 -90c-59 0 -99 25 -112 68l79 18c4 -18 15 -25 31 -25c18 0 28 11 28 34v4c0 20 -11 31 -28 31c-11 0 -21 -6 -26 -16l-69 14l35 85h-29v592h-135v118h408v-118h-135v-592z"/>
    <glyph glyph-name="uni021A" unicode="Ț" horiz-adv-x="406" d="M407 710v-118h-135v-592h-138v592h-135v118h408zM146 -129v93h115v-78c0 -53 -21 -86 -73 -101l-26 44c29 8 42 20 42 42h-58z"/>
    <glyph glyph-name="Thorn" unicode="Þ" horiz-adv-x="452" d="M254 580c122 0 189 -63 189 -180v-44c0 -124 -69 -196 -188 -196h-65v-160h-139v710h139v-130h64zM300 345v50c0 62 -21 89 -71 89h-39v-226h39c50 0 71 27 71 87z"/>
    <glyph glyph-name="Uacute" unicode="Ú" horiz-adv-x="495" d="M189 753l85 112h133l-102 -112h-116zM45 710h139v-531c0 -51 22 -79 64 -79c40 0 64 28 64 79v531h138v-537c0 -117 -72 -190 -202 -190c-131 0 -203 73 -203 190v537z"/>
    <glyph glyph-name="Ubreve" unicode="Ŭ" horiz-adv-x="495" d="M198 865c0 -26 19 -41 49 -41c31 0 49 15 50 41h97c-1 -77 -54 -117 -147 -117c-92 0 -145 40 -147 117h98zM45 710h139v-531c0 -51 22 -79 64 -79c40 0 64 28 64 79v531h138v-537c0 -117 -72 -190 -202 -190c-131 0 -203 73 -203 190v537z"/>
    <glyph glyph-name="Ucircumflex" unicode="Û" horiz-adv-x="495" d="M404 753h-109l-48 67l-48 -67h-108l83 112h146zM45 710h139v-531c0 -51 22 -79 64 -79c40 0 64 28 64 79v531h138v-537c0 -117 -72 -190 -202 -190c-131 0 -203 73 -203 190v537z"/>
    <glyph glyph-name="Udieresis" unicode="Ü" horiz-adv-x="495" d="M105 753v106h112v-106h-112zM277 753v106h112v-106h-112zM45 710h139v-531c0 -51 22 -79 64 -79c40 0 64 28 64 79v531h138v-537c0 -117 -72 -190 -202 -190c-131 0 -203 73 -203 190v537z"/>
    <glyph glyph-name="Ugrave" unicode="Ù" horiz-adv-x="495" d="M303 753h-116l-101 112h133zM45 710h139v-531c0 -51 22 -79 64 -79c40 0 64 28 64 79v531h138v-537c0 -117 -72 -190 -202 -190c-131 0 -203 73 -203 190v537z"/>
    <glyph glyph-name="Uhungarumlaut" unicode="Ű" horiz-adv-x="495" d="M126 753l82 112h110l-101 -112h-91zM271 753l82 112h110l-101 -112h-91zM45 710h139v-531c0 -51 22 -79 64 -79c40 0 64 28 64 79v531h138v-537c0 -117 -72 -190 -202 -190c-131 0 -203 73 -203 190v537z"/>
    <glyph glyph-name="Umacron" unicode="Ū" horiz-adv-x="495" d="M101 754v88h293v-88h-293zM45 710h139v-531c0 -51 22 -79 64 -79c40 0 64 28 64 79v531h138v-537c0 -117 -72 -190 -202 -190c-131 0 -203 73 -203 190v537z"/>
    <glyph glyph-name="Uogonek" unicode="Ų" horiz-adv-x="495" d="M312 710h138v-537c0 -88 -41 -151 -116 -177c-56 -23 -86 -54 -86 -94c0 -21 10 -34 28 -34s28 13 32 38l81 -19c-9 -64 -60 -89 -120 -89c-66 0 -115 31 -115 94c0 36 18 67 52 94c-104 14 -161 83 -161 187v537h139v-531c0 -51 22 -79 64 -79c40 0 64 28 64 79v531z "/>
    <glyph glyph-name="Uring" unicode="Ů" horiz-adv-x="495" d="M248 739c-67 0 -114 44 -114 108s47 109 114 109s115 -45 115 -109s-48 -108 -115 -108zM248 798c29 0 47 20 47 49s-18 51 -47 51s-47 -22 -47 -51s18 -49 47 -49zM45 710h139v-531c0 -51 22 -79 64 -79c40 0 64 28 64 79v531h138v-537c0 -117 -72 -190 -202 -190 c-131 0 -203 73 -203 190v537z"/>
    <glyph glyph-name="Utilde" unicode="Ũ" horiz-adv-x="495" d="M311 742c-61 0 -86 46 -117 46c-18 0 -28 -13 -31 -41l-77 22c4 67 40 107 97 107c61 0 86 -47 117 -47c18 0 28 14 31 42l77 -23c-4 -66 -40 -106 -97 -106zM45 710h139v-531c0 -51 22 -79 64 -79c40 0 64 28 64 79v531h138v-537c0 -117 -72 -190 -202 -190 c-131 0 -203 73 -203 190v537z"/>
    <glyph glyph-name="Wacute" unicode="Ẃ" horiz-adv-x="643" d="M263 753l85 112h133l-102 -112h-116zM100 0l-81 710h128l36 -436c3 -35 6 -76 6 -116h5c3 36 7 72 10 107l51 445h133l51 -445c3 -35 6 -71 10 -107h4c1 40 3 81 6 116l37 436h128l-81 -710h-163l-48 405c-5 45 -6 88 -8 123h-5c-2 -35 -3 -78 -8 -123l-48 -405h-163z "/>
    <glyph glyph-name="Wcircumflex" unicode="Ŵ" horiz-adv-x="643" d="M478 753h-109l-48 67l-48 -67h-108l83 112h146zM100 0l-81 710h128l36 -436c3 -35 6 -76 6 -116h5c3 36 7 72 10 107l51 445h133l51 -445c3 -35 6 -71 10 -107h4c1 40 3 81 6 116l37 436h128l-81 -710h-163l-48 405c-5 45 -6 88 -8 123h-5c-2 -35 -3 -78 -8 -123 l-48 -405h-163z"/>
    <glyph glyph-name="Wdieresis" unicode="Ẅ" horiz-adv-x="643" d="M179 753v106h112v-106h-112zM351 753v106h112v-106h-112zM100 0l-81 710h128l36 -436c3 -35 6 -76 6 -116h5c3 36 7 72 10 107l51 445h133l51 -445c3 -35 6 -71 10 -107h4c1 40 3 81 6 116l37 436h128l-81 -710h-163l-48 405c-5 45 -6 88 -8 123h-5 c-2 -35 -3 -78 -8 -123l-48 -405h-163z"/>
    <glyph glyph-name="Wgrave" unicode="Ẁ" horiz-adv-x="643" d="M377 753h-116l-101 112h133zM100 0l-81 710h128l36 -436c3 -35 6 -76 6 -116h5c3 36 7 72 10 107l51 445h133l51 -445c3 -35 6 -71 10 -107h4c1 40 3 81 6 116l37 436h128l-81 -710h-163l-48 405c-5 45 -6 88 -8 123h-5c-2 -35 -3 -78 -8 -123l-48 -405h-163z"/>
    <glyph glyph-name="Yacute" unicode="Ý" horiz-adv-x="441" d="M162 753l85 112h133l-102 -112h-116zM152 0v255l-151 455h145l60 -237c8 -32 11 -59 15 -94h2c4 35 7 62 14 94l58 237h145l-149 -455v-255h-139z"/>
    <glyph glyph-name="Ycircumflex" unicode="Ŷ" horiz-adv-x="441" d="M377 753h-109l-48 67l-48 -67h-108l83 112h146zM152 0v255l-151 455h145l60 -237c8 -32 11 -59 15 -94h2c4 35 7 62 14 94l58 237h145l-149 -455v-255h-139z"/>
    <glyph glyph-name="Ydieresis" unicode="Ÿ" horiz-adv-x="441" d="M78 753v106h112v-106h-112zM250 753v106h112v-106h-112zM152 0v255l-151 455h145l60 -237c8 -32 11 -59 15 -94h2c4 35 7 62 14 94l58 237h145l-149 -455v-255h-139z"/>
    <glyph glyph-name="Ygrave" unicode="Ỳ" horiz-adv-x="441" d="M276 753h-116l-101 112h133zM152 0v255l-151 455h145l60 -237c8 -32 11 -59 15 -94h2c4 35 7 62 14 94l58 237h145l-149 -455v-255h-139z"/>
    <glyph glyph-name="Zacute" unicode="Ź" horiz-adv-x="394" d="M138 753l85 112h133l-102 -112h-116zM17 103l209 490h-200v117h348v-101l-206 -492h215v-117h-366v103z"/>
    <glyph glyph-name="Zcaron" unicode="Ž" horiz-adv-x="394" d="M353 860l-83 -112h-147l-82 112h107l49 -67l48 67h108zM17 103l209 490h-200v117h348v-101l-206 -492h215v-117h-366v103z"/>
    <glyph glyph-name="Zdotaccent" unicode="Ż" horiz-adv-x="394" d="M133 753v109h128v-109h-128zM17 103l209 490h-200v117h348v-101l-206 -492h215v-117h-366v103z"/>
    <glyph glyph-name="a" unicode="a" horiz-adv-x="416" d="M140 -12c-71 0 -120 45 -120 122v37c0 40 15 77 42 100c23 20 57 35 108 46l73 17v61c0 37 -13 52 -39 52c-27 0 -41 -16 -41 -52v-42h-131v35c0 99 66 148 173 148c116 0 169 -44 169 -154v-244c0 -48 2 -84 8 -114h-125c-3 26 -6 57 -5 75c-9 -51 -52 -87 -112 -87z M196 80c28 0 48 22 48 62v96l-39 -10c-32 -9 -47 -33 -47 -75v-19c0 -36 14 -54 38 -54z"/>
    <glyph glyph-name="b" unicode="b" horiz-adv-x="447" d="M283 -12c-52 0 -90 27 -107 80l-11 -68h-115v725h131v-295c17 49 54 82 111 82c78 0 123 -62 123 -176v-148c0 -131 -45 -200 -132 -200zM228 86c33 0 49 28 49 89v154c0 58 -16 85 -49 85c-32 0 -48 -27 -48 -83v-160c0 -58 15 -85 48 -85z"/>
    <glyph glyph-name="c" unicode="c" horiz-adv-x="409" d="M212 -12c-115 0 -184 69 -184 185v148c0 128 65 191 184 191c113 0 174 -52 174 -161v-32l-132 -21v46c0 52 -14 72 -43 72c-31 0 -46 -22 -46 -80v-168c0 -59 15 -84 46 -84c29 0 43 23 43 76v50l132 -25v-33c0 -104 -67 -164 -174 -164z"/>
    <glyph glyph-name="d" unicode="d" horiz-adv-x="447" d="M161 -12c-80 0 -128 70 -128 185v148c0 126 48 191 131 191c51 0 87 -25 103 -77v290h131v-725h-125v73c-21 -54 -57 -85 -112 -85zM219 86c33 0 49 27 49 86v157c0 59 -16 85 -49 85s-49 -28 -49 -88v-147c0 -64 16 -93 49 -93z"/>
    <glyph glyph-name="e" unicode="e" horiz-adv-x="417" d="M389 229h-225v-71c0 -50 17 -74 49 -74c27 0 46 19 46 81v20l130 -18v-22c0 -101 -72 -157 -178 -157c-115 0 -183 66 -183 179v153c0 126 64 192 183 192c116 0 178 -60 178 -189v-94zM209 433c-30 0 -45 -23 -45 -74v-61h89v46c0 68 -14 89 -44 89z"/>
    <glyph glyph-name="f" unicode="f" horiz-adv-x="288" d="M276 500v-91h-77v-409h-131v409h-54v91h54v77c0 103 51 154 155 154c17 0 36 -1 53 -4v-103c-13 1 -18 2 -26 2c-35 0 -51 -18 -51 -59v-67h77z"/>
    <glyph glyph-name="g" unicode="g" horiz-adv-x="391" d="M265 97c76 -14 124 -55 124 -128v-24c0 -94 -73 -152 -198 -152c-112 0 -178 44 -178 114v11c0 45 27 77 76 93c-40 17 -60 46 -60 86c0 44 28 75 70 85c-50 24 -76 69 -76 135v42c0 98 59 153 167 153c27 0 51 -3 72 -10c12 53 46 83 100 83c9 0 16 -1 25 -3v-97 c-14 3 -26 5 -39 5c-17 0 -31 -4 -43 -10c34 -26 52 -67 52 -121v-42c0 -98 -59 -152 -167 -152c-19 0 -37 2 -53 5c-6 -4 -10 -11 -10 -21c0 -17 12 -25 43 -32zM146 380v-84c0 -39 16 -59 44 -59s44 20 44 59v84c0 39 -16 61 -44 61s-44 -22 -44 -61zM271 -76v13 c0 29 -18 42 -50 48l-85 14c-9 -10 -13 -24 -13 -43v-17c0 -48 28 -70 74 -70c49 0 74 19 74 55z"/>
    <glyph glyph-name="h" unicode="h" horiz-adv-x="446" d="M50 0v725h131v-304c18 59 59 91 116 91c72 0 106 -45 106 -142v-370h-134v351c0 43 -12 63 -40 63c-34 0 -48 -29 -48 -97v-317h-131z"/>
    <glyph glyph-name="i" unicode="i" horiz-adv-x="224" d="M45 571v135h134v-135h-134zM49 0v500h127v-500h-127z"/>
    <glyph glyph-name="j" unicode="j" horiz-adv-x="229" d="M45 571v135h134v-135h-134zM41 -202c-19 0 -43 2 -56 5v106c10 -1 19 -2 27 -2c26 0 37 14 37 47v546h131v-555c0 -98 -29 -147 -139 -147z"/>
    <glyph glyph-name="k" unicode="k" horiz-adv-x="437" d="M287 0l-66 228l-40 -84v-144h-131v725h131v-448l102 223h141l-103 -184l106 -316h-140z"/>
    <glyph glyph-name="l" unicode="l" horiz-adv-x="230" d="M181 725v-725h-131v725h131z"/>
    <glyph glyph-name="m" unicode="m" horiz-adv-x="644" d="M49 500h126v-79c19 61 55 91 110 91c53 0 85 -28 99 -88c21 59 58 88 111 88c71 0 107 -47 107 -142v-370h-132v352c0 43 -12 62 -37 62c-30 0 -43 -27 -43 -83v-331h-131v352c0 42 -11 62 -36 62c-30 0 -43 -26 -43 -82v-332h-131v500z"/>
    <glyph glyph-name="n" unicode="n" horiz-adv-x="445" d="M49 0v500h126v-83c19 63 59 95 119 95c74 0 108 -44 108 -142v-370h-134v350c0 45 -12 64 -40 64c-33 0 -48 -28 -48 -94v-320h-131z"/>
    <glyph glyph-name="o" unicode="o" horiz-adv-x="427" d="M213 -12c-115 0 -185 65 -185 189v146c0 124 70 189 185 189c116 0 186 -65 186 -189v-146c0 -124 -70 -189 -186 -189zM213 80c33 0 49 24 49 83v174c0 59 -16 83 -49 83c-32 0 -48 -24 -48 -83v-174c0 -59 16 -83 48 -83z"/>
    <glyph glyph-name="p" unicode="p" horiz-adv-x="446" d="M49 -195v695h126v-75c19 57 61 87 114 87c81 0 125 -62 125 -173v-160c0 -122 -48 -191 -129 -191c-55 0 -88 26 -105 74v-257h-131zM227 86c33 0 49 29 49 93v147c0 61 -15 88 -48 88c-34 0 -49 -27 -49 -87v-153c0 -62 14 -88 48 -88z"/>
    <glyph glyph-name="q" unicode="q" horiz-adv-x="446" d="M266 -195v264c-23 -54 -56 -81 -108 -81c-78 0 -125 65 -125 177v161c0 125 47 186 129 186c55 0 95 -28 111 -80l12 68h113v-695h-132zM219 86c33 0 49 26 49 87v157c0 58 -17 84 -49 84c-33 0 -49 -26 -49 -88v-147c0 -64 15 -93 49 -93z"/>
    <glyph glyph-name="r" unicode="r" horiz-adv-x="303" d="M170 390c11 64 47 122 116 122c4 0 5 0 9 -1v-139c-9 1 -18 2 -30 2c-29 0 -49 -11 -65 -32c-15 -20 -20 -53 -20 -92v-250h-131v500h121v-110z"/>
    <glyph glyph-name="s" unicode="s" horiz-adv-x="382" d="M193 -12c-105 0 -173 45 -173 128v36l132 19v-40c0 -41 20 -54 42 -54c23 0 37 13 37 40v25c0 27 -8 45 -39 55l-71 19c-69 20 -97 66 -97 127v42c0 77 61 127 166 127c100 0 167 -44 167 -126v-28l-128 -17v38c0 37 -16 48 -37 48s-36 -11 -36 -39v-22 c0 -26 4 -47 40 -59l68 -21c70 -24 98 -60 98 -117v-47c0 -76 -63 -134 -169 -134z"/>
    <glyph glyph-name="t" unicode="t" horiz-adv-x="296" d="M6 409v91h59v114l131 44v-158h82v-91h-82v-242c0 -38 15 -60 52 -60c13 0 22 1 33 2v-111c-18 -4 -44 -7 -75 -7c-99 0 -141 45 -141 141v277h-59z"/>
    <glyph glyph-name="u" unicode="u" horiz-adv-x="446" d="M156 -12c-85 0 -113 57 -113 147v365h134v-349c0 -43 14 -63 41 -63c31 0 47 30 47 85v327h132v-500h-126v78c-19 -59 -57 -90 -115 -90z"/>
    <glyph glyph-name="v" unicode="v" horiz-adv-x="368" d="M106 0l-115 500h137l42 -291c5 -36 9 -60 12 -92h4c3 32 7 56 11 92l43 291h136l-114 -500h-156z"/>
    <glyph glyph-name="w" unicode="w" horiz-adv-x="565" d="M89 0l-87 500h130l30 -302c3 -27 4 -51 5 -77h3c2 25 4 51 7 77l43 302h126l41 -302c4 -26 6 -52 8 -77h3c0 26 1 50 4 77l30 302h130l-86 -500h-144l-42 298c-5 29 -5 64 -6 85h-4c0 -21 0 -56 -5 -85l-42 -298h-144z"/>
    <glyph glyph-name="x" unicode="x" horiz-adv-x="406" d="M5 0l112 263l-102 237h138l34 -106c6 -18 13 -38 15 -61h4c2 23 9 43 15 61l32 106h136l-101 -238l113 -262h-143l-40 123c-6 22 -13 40 -14 58h-4c-2 -18 -9 -36 -16 -58l-39 -123h-140z"/>
    <glyph glyph-name="y" unicode="y" horiz-adv-x="372" d="M54 -200c-15 0 -29 1 -42 3v108c10 -2 20 -3 27 -3c42 0 65 19 75 60l6 25l-129 507h144l45 -283c6 -42 8 -78 9 -118h4c2 47 4 80 9 116l42 285h136l-121 -530c-28 -125 -94 -170 -205 -170z"/>
    <glyph glyph-name="z" unicode="z" horiz-adv-x="340" d="M15 85l163 319h-153v96h294v-83l-162 -320h172v-97h-314v85z"/>
    <glyph glyph-name="aacute" unicode="á" horiz-adv-x="416" d="M150 570l85 151h137l-111 -151h-111zM140 -12c-71 0 -120 45 -120 122v37c0 40 15 77 42 100c23 20 57 35 108 46l73 17v61c0 37 -13 52 -39 52c-27 0 -41 -16 -41 -52v-42h-131v35c0 99 66 148 173 148c116 0 169 -44 169 -154v-244c0 -48 2 -84 8 -114h-125 c-3 26 -6 57 -5 75c-9 -51 -52 -87 -112 -87zM196 80c28 0 48 22 48 62v96l-39 -10c-32 -9 -47 -33 -47 -75v-19c0 -36 14 -54 38 -54z"/>
    <glyph glyph-name="abreve" unicode="ă" horiz-adv-x="416" d="M154 707c1 -42 18 -65 51 -65s49 23 50 65h97c-2 -95 -55 -142 -147 -142s-146 47 -147 142h96zM140 -12c-71 0 -120 45 -120 122v37c0 40 15 77 42 100c23 20 57 35 108 46l73 17v61c0 37 -13 52 -39 52c-27 0 -41 -16 -41 -52v-42h-131v35c0 99 66 148 173 148 c116 0 169 -44 169 -154v-244c0 -48 2 -84 8 -114h-125c-3 26 -6 57 -5 75c-9 -51 -52 -87 -112 -87zM196 80c28 0 48 22 48 62v96l-39 -10c-32 -9 -47 -33 -47 -75v-19c0 -36 14 -54 38 -54z"/>
    <glyph glyph-name="acircumflex" unicode="â" horiz-adv-x="416" d="M360 570h-105l-49 99l-50 -99h-104l83 151h141zM140 -12c-71 0 -120 45 -120 122v37c0 40 15 77 42 100c23 20 57 35 108 46l73 17v61c0 37 -13 52 -39 52c-27 0 -41 -16 -41 -52v-42h-131v35c0 99 66 148 173 148c116 0 169 -44 169 -154v-244c0 -48 2 -84 8 -114h-125 c-3 26 -6 57 -5 75c-9 -51 -52 -87 -112 -87zM196 80c28 0 48 22 48 62v96l-39 -10c-32 -9 -47 -33 -47 -75v-19c0 -36 14 -54 38 -54z"/>
    <glyph glyph-name="adieresis" unicode="ä" horiz-adv-x="416" d="M63 577v120h114v-120h-114zM233 577v120h113v-120h-113zM140 -12c-71 0 -120 45 -120 122v37c0 40 15 77 42 100c23 20 57 35 108 46l73 17v61c0 37 -13 52 -39 52c-27 0 -41 -16 -41 -52v-42h-131v35c0 99 66 148 173 148c116 0 169 -44 169 -154v-244 c0 -48 2 -84 8 -114h-125c-3 26 -6 57 -5 75c-9 -51 -52 -87 -112 -87zM196 80c28 0 48 22 48 62v96l-39 -10c-32 -9 -47 -33 -47 -75v-19c0 -36 14 -54 38 -54z"/>
    <glyph glyph-name="ae" unicode="æ" horiz-adv-x="629" d="M601 229h-225v-71c0 -50 17 -74 51 -74c29 0 47 19 47 62v38l127 -19v-38c0 -89 -72 -139 -176 -139c-61 0 -108 21 -137 60c-24 -38 -67 -60 -126 -60c-83 0 -142 47 -142 142c0 89 42 133 139 152l87 17v72c0 36 -14 51 -41 51c-25 0 -43 -15 -43 -49v-44h-130v29 c0 106 72 154 169 154c48 0 84 -12 110 -36c28 24 66 36 113 36c115 0 177 -60 177 -177v-106zM423 433c-31 0 -47 -23 -47 -74v-61h92v65c0 49 -14 70 -45 70zM246 143v92l-37 -10c-37 -11 -53 -28 -53 -75v-8c0 -43 16 -61 41 -61c28 0 49 24 49 62z"/>
    <glyph glyph-name="aeacute" unicode="ǽ" horiz-adv-x="629" d="M480 721l-111 -151h-111l85 151h137zM601 229h-225v-71c0 -50 17 -74 51 -74c29 0 47 19 47 62v38l127 -19v-38c0 -89 -72 -139 -176 -139c-61 0 -108 21 -137 60c-24 -38 -67 -60 -126 -60c-83 0 -142 47 -142 142c0 89 42 133 139 152l87 17v72c0 36 -14 51 -41 51 c-25 0 -43 -15 -43 -49v-44h-130v29c0 106 72 154 169 154c48 0 84 -12 110 -36c28 24 66 36 113 36c115 0 177 -60 177 -177v-106zM423 433c-31 0 -47 -23 -47 -74v-61h92v65c0 49 -14 70 -45 70zM246 143v92l-37 -10c-37 -11 -53 -28 -53 -75v-8c0 -43 16 -61 41 -61 c28 0 49 24 49 62z"/>
    <glyph glyph-name="agrave" unicode="à" horiz-adv-x="416" d="M260 570h-110l-112 151h137zM140 -12c-71 0 -120 45 -120 122v37c0 40 15 77 42 100c23 20 57 35 108 46l73 17v61c0 37 -13 52 -39 52c-27 0 -41 -16 -41 -52v-42h-131v35c0 99 66 148 173 148c116 0 169 -44 169 -154v-244c0 -48 2 -84 8 -114h-125c-3 26 -6 57 -5 75 c-9 -51 -52 -87 -112 -87zM196 80c28 0 48 22 48 62v96l-39 -10c-32 -9 -47 -33 -47 -75v-19c0 -36 14 -54 38 -54z"/>
    <glyph glyph-name="amacron" unicode="ā" horiz-adv-x="416" d="M62 592v94h287v-94h-287zM140 -12c-71 0 -120 45 -120 122v37c0 40 15 77 42 100c23 20 57 35 108 46l73 17v61c0 37 -13 52 -39 52c-27 0 -41 -16 -41 -52v-42h-131v35c0 99 66 148 173 148c116 0 169 -44 169 -154v-244c0 -48 2 -84 8 -114h-125c-3 26 -6 57 -5 75 c-9 -51 -52 -87 -112 -87zM196 80c28 0 48 22 48 62v96l-39 -10c-32 -9 -47 -33 -47 -75v-19c0 -36 14 -54 38 -54z"/>
    <glyph glyph-name="aogonek" unicode="ą" horiz-adv-x="416" d="M337 -94l81 -19c-9 -64 -60 -89 -120 -89c-66 0 -115 31 -115 94c0 43 25 79 74 108c-3 26 -6 57 -5 75c-9 -51 -52 -87 -112 -87c-71 0 -120 45 -120 122v37c0 40 15 77 42 100c23 20 57 35 108 46l73 17v61c0 37 -13 52 -39 52c-27 0 -41 -16 -41 -52v-42h-131v35 c0 99 66 148 173 148c116 0 169 -44 169 -154v-244c0 -48 2 -84 8 -114h-9c-62 -23 -96 -56 -96 -98c0 -21 10 -34 28 -34s28 13 32 38zM244 142v96l-39 -10c-32 -9 -47 -33 -47 -75v-19c0 -36 14 -54 38 -54c28 0 48 22 48 62z"/>
    <glyph glyph-name="aring" unicode="å" horiz-adv-x="416" d="M206 549c-68 0 -115 44 -115 108s47 109 115 109c66 0 113 -45 113 -109s-47 -108 -113 -108zM206 613c25 0 41 18 41 44s-16 44 -41 44c-27 0 -42 -18 -42 -44s15 -44 42 -44zM140 -12c-71 0 -120 45 -120 122v37c0 40 15 77 42 100c23 20 57 35 108 46l73 17v61 c0 37 -13 52 -39 52c-27 0 -41 -16 -41 -52v-42h-131v35c0 99 66 148 173 148c116 0 169 -44 169 -154v-244c0 -48 2 -84 8 -114h-125c-3 26 -6 57 -5 75c-9 -51 -52 -87 -112 -87zM196 80c28 0 48 22 48 62v96l-39 -10c-32 -9 -47 -33 -47 -75v-19c0 -36 14 -54 38 -54z "/>
    <glyph glyph-name="atilde" unicode="ã" horiz-adv-x="416" d="M270 573c-61 0 -87 53 -118 53c-18 0 -29 -16 -32 -47l-77 22c5 71 40 114 98 114c61 0 87 -53 118 -53c19 0 29 15 32 47l77 -22c-4 -71 -39 -114 -98 -114zM140 -12c-71 0 -120 45 -120 122v37c0 40 15 77 42 100c23 20 57 35 108 46l73 17v61c0 37 -13 52 -39 52 c-27 0 -41 -16 -41 -52v-42h-131v35c0 99 66 148 173 148c116 0 169 -44 169 -154v-244c0 -48 2 -84 8 -114h-125c-3 26 -6 57 -5 75c-9 -51 -52 -87 -112 -87zM196 80c28 0 48 22 48 62v96l-39 -10c-32 -9 -47 -33 -47 -75v-19c0 -36 14 -54 38 -54z"/>
    <glyph glyph-name="cacute" unicode="ć" horiz-adv-x="409" d="M154 570l85 151h137l-111 -151h-111zM212 -12c-115 0 -184 69 -184 185v148c0 128 65 191 184 191c113 0 174 -52 174 -161v-32l-132 -21v46c0 52 -14 72 -43 72c-31 0 -46 -22 -46 -80v-168c0 -59 15 -84 46 -84c29 0 43 23 43 76v50l132 -25v-33 c0 -104 -67 -164 -174 -164z"/>
    <glyph glyph-name="ccaron" unicode="č" horiz-adv-x="409" d="M55 716h104l50 -98l49 98h105l-84 -151h-141zM212 -12c-115 0 -184 69 -184 185v148c0 128 65 191 184 191c113 0 174 -52 174 -161v-32l-132 -21v46c0 52 -14 72 -43 72c-31 0 -46 -22 -46 -80v-168c0 -59 15 -84 46 -84c29 0 43 23 43 76v50l132 -25v-33 c0 -104 -67 -164 -174 -164z"/>
    <glyph glyph-name="ccedilla" unicode="ç" horiz-adv-x="409" d="M386 319l-132 -21v46c0 52 -14 72 -43 72c-31 0 -46 -22 -46 -80v-168c0 -59 15 -84 46 -84c29 0 43 23 43 76v50l132 -25v-33c0 -90 -50 -147 -133 -161l-20 -40c9 8 25 13 44 13c45 0 75 -28 75 -81v-6c0 -56 -44 -90 -113 -90c-59 0 -99 25 -112 68l79 18 c4 -18 15 -25 31 -25c18 0 28 11 28 34v4c0 20 -11 31 -28 31c-11 0 -21 -6 -26 -16l-69 14l31 76c-91 14 -145 80 -145 182v148c0 128 65 191 184 191c113 0 174 -52 174 -161v-32z"/>
    <glyph glyph-name="ccircumflex" unicode="ĉ" horiz-adv-x="409" d="M363 570h-105l-49 99l-50 -99h-104l83 151h141zM212 -12c-115 0 -184 69 -184 185v148c0 128 65 191 184 191c113 0 174 -52 174 -161v-32l-132 -21v46c0 52 -14 72 -43 72c-31 0 -46 -22 -46 -80v-168c0 -59 15 -84 46 -84c29 0 43 23 43 76v50l132 -25v-33 c0 -104 -67 -164 -174 -164z"/>
    <glyph glyph-name="cdotaccent" unicode="ċ" horiz-adv-x="409" d="M142 571v135h134v-135h-134zM212 -12c-115 0 -184 69 -184 185v148c0 128 65 191 184 191c113 0 174 -52 174 -161v-32l-132 -21v46c0 52 -14 72 -43 72c-31 0 -46 -22 -46 -80v-168c0 -59 15 -84 46 -84c29 0 43 23 43 76v50l132 -25v-33c0 -104 -67 -164 -174 -164z "/>
    <glyph glyph-name="dcaron" unicode="ď" horiz-adv-x="518" d="M161 -12c-80 0 -128 70 -128 185v148c0 126 48 191 131 191c51 0 87 -25 103 -77v290h131v-725h-125v73c-21 -54 -57 -85 -112 -85zM465 532l-26 43c29 8 41 20 41 42h-58v93h116v-77c0 -54 -22 -87 -73 -101zM219 86c33 0 49 27 49 86v157c0 59 -16 85 -49 85 s-49 -28 -49 -88v-147c0 -64 16 -93 49 -93z"/>
    <glyph glyph-name="dcroat" unicode="đ" horiz-adv-x="447" d="M468 646v-63h-70v-583h-125v73c-21 -54 -57 -85 -112 -85c-80 0 -128 70 -128 185v148c0 126 48 191 131 191c51 0 87 -25 103 -77v148h-124v63h124v79h131v-79h70zM268 172v157c0 59 -16 85 -49 85s-49 -28 -49 -88v-147c0 -64 16 -93 49 -93s49 27 49 86z"/>
    <glyph glyph-name="eacute" unicode="é" horiz-adv-x="417" d="M375 721l-111 -151h-111l85 151h137zM389 229h-225v-71c0 -50 17 -74 49 -74c27 0 46 19 46 81v20l130 -18v-22c0 -101 -72 -157 -178 -157c-115 0 -183 66 -183 179v153c0 126 64 192 183 192c116 0 178 -60 178 -189v-94zM209 433c-30 0 -45 -23 -45 -74v-61h89v46 c0 68 -14 89 -44 89z"/>
    <glyph glyph-name="ebreve" unicode="ĕ" horiz-adv-x="417" d="M208 565c-92 0 -146 47 -147 142h96c1 -42 18 -65 51 -65s49 23 50 65h97c-2 -95 -55 -142 -147 -142zM389 229h-225v-71c0 -50 17 -74 49 -74c27 0 46 19 46 81v20l130 -18v-22c0 -101 -72 -157 -178 -157c-115 0 -183 66 -183 179v153c0 126 64 192 183 192 c116 0 178 -60 178 -189v-94zM209 433c-30 0 -45 -23 -45 -74v-61h89v46c0 68 -14 89 -44 89z"/>
    <glyph glyph-name="ecaron" unicode="ě" horiz-adv-x="417" d="M279 565h-141l-83 151h104l50 -98l49 98h105zM389 229h-225v-71c0 -50 17 -74 49 -74c27 0 46 19 46 81v20l130 -18v-22c0 -101 -72 -157 -178 -157c-115 0 -183 66 -183 179v153c0 126 64 192 183 192c116 0 178 -60 178 -189v-94zM209 433c-30 0 -45 -23 -45 -74v-61 h89v46c0 68 -14 89 -44 89z"/>
    <glyph glyph-name="ecircumflex" unicode="ê" horiz-adv-x="417" d="M209 669l-50 -99h-104l83 151h141l84 -151h-105zM389 229h-225v-71c0 -50 17 -74 49 -74c27 0 46 19 46 81v20l130 -18v-22c0 -101 -72 -157 -178 -157c-115 0 -183 66 -183 179v153c0 126 64 192 183 192c116 0 178 -60 178 -189v-94zM209 433c-30 0 -45 -23 -45 -74 v-61h89v46c0 68 -14 89 -44 89z"/>
    <glyph glyph-name="edieresis" unicode="ë" horiz-adv-x="417" d="M180 697v-120h-114v120h114zM349 697v-120h-113v120h113zM389 229h-225v-71c0 -50 17 -74 49 -74c27 0 46 19 46 81v20l130 -18v-22c0 -101 -72 -157 -178 -157c-115 0 -183 66 -183 179v153c0 126 64 192 183 192c116 0 178 -60 178 -189v-94zM209 433 c-30 0 -45 -23 -45 -74v-61h89v46c0 68 -14 89 -44 89z"/>
    <glyph glyph-name="edotaccent" unicode="ė" horiz-adv-x="417" d="M275 706v-135h-134v135h134zM389 229h-225v-71c0 -50 17 -74 49 -74c27 0 46 19 46 81v20l130 -18v-22c0 -101 -72 -157 -178 -157c-115 0 -183 66 -183 179v153c0 126 64 192 183 192c116 0 178 -60 178 -189v-94zM209 433c-30 0 -45 -23 -45 -74v-61h89v46 c0 68 -14 89 -44 89z"/>
    <glyph glyph-name="egrave" unicode="è" horiz-adv-x="417" d="M263 570h-110l-112 151h137zM389 229h-225v-71c0 -50 17 -74 49 -74c27 0 46 19 46 81v20l130 -18v-22c0 -101 -72 -157 -178 -157c-115 0 -183 66 -183 179v153c0 126 64 192 183 192c116 0 178 -60 178 -189v-94zM209 433c-30 0 -45 -23 -45 -74v-61h89v46 c0 68 -14 89 -44 89z"/>
    <glyph glyph-name="emacron" unicode="ē" horiz-adv-x="417" d="M352 686v-94h-287v94h287zM389 229h-225v-71c0 -50 17 -74 49 -74c27 0 46 19 46 81v20l130 -18v-22c0 -101 -72 -157 -178 -157c-115 0 -183 66 -183 179v153c0 126 64 192 183 192c116 0 178 -60 178 -189v-94zM209 433c-30 0 -45 -23 -45 -74v-61h89v46 c0 68 -14 89 -44 89z"/>
    <glyph glyph-name="eogonek" unicode="ę" horiz-adv-x="417" d="M389 229h-225v-71c0 -50 17 -74 49 -74c27 0 46 19 46 81v20l130 -18v-22c0 -74 -38 -124 -100 -145c-62 -23 -96 -56 -96 -98c0 -21 10 -34 28 -34s28 13 32 38l81 -19c-9 -64 -60 -89 -120 -89c-66 0 -115 31 -115 94c0 39 21 73 62 101c-84 16 -133 78 -133 174v153 c0 126 64 192 183 192c116 0 178 -60 178 -189v-94zM209 433c-30 0 -45 -23 -45 -74v-61h89v46c0 68 -14 89 -44 89z"/>
    <glyph glyph-name="gbreve" unicode="ğ" horiz-adv-x="391" d="M198 565c-92 0 -146 47 -147 142h96c1 -42 18 -65 51 -65s49 23 50 65h97c-2 -95 -55 -142 -147 -142zM265 97c76 -14 124 -55 124 -128v-24c0 -94 -73 -152 -198 -152c-112 0 -178 44 -178 114v11c0 45 27 77 76 93c-40 17 -60 46 -60 86c0 44 28 75 70 85 c-50 24 -76 69 -76 135v42c0 98 59 153 167 153c27 0 51 -3 72 -10c12 53 46 83 100 83c9 0 16 -1 25 -3v-97c-14 3 -26 5 -39 5c-17 0 -31 -4 -43 -10c34 -26 52 -67 52 -121v-42c0 -98 -59 -152 -167 -152c-19 0 -37 2 -53 5c-6 -4 -10 -11 -10 -21c0 -17 12 -25 43 -32z M146 380v-84c0 -39 16 -59 44 -59s44 20 44 59v84c0 39 -16 61 -44 61s-44 -22 -44 -61zM271 -76v13c0 29 -18 42 -50 48l-85 14c-9 -10 -13 -24 -13 -43v-17c0 -48 28 -70 74 -70c49 0 74 19 74 55z"/>
    <glyph glyph-name="gcircumflex" unicode="ĝ" horiz-adv-x="391" d="M198 675l-50 -72h-104l83 118h141l84 -118h-105zM265 97c76 -14 124 -55 124 -128v-24c0 -94 -73 -152 -198 -152c-112 0 -178 44 -178 114v11c0 45 27 77 76 93c-40 17 -60 46 -60 86c0 44 28 75 70 85c-50 24 -76 69 -76 135v42c0 98 59 153 167 153c27 0 51 -3 72 -10 c12 53 46 83 100 83c9 0 16 -1 25 -3v-97c-14 3 -26 5 -39 5c-17 0 -31 -4 -43 -10c34 -26 52 -67 52 -121v-42c0 -98 -59 -152 -167 -152c-19 0 -37 2 -53 5c-6 -4 -10 -11 -10 -21c0 -17 12 -25 43 -32zM146 380v-84c0 -39 16 -59 44 -59s44 20 44 59v84 c0 39 -16 61 -44 61s-44 -22 -44 -61zM271 -76v13c0 29 -18 42 -50 48l-85 14c-9 -10 -13 -24 -13 -43v-17c0 -48 28 -70 74 -70c49 0 74 19 74 55z"/>
    <glyph glyph-name="uni0123" unicode="ģ" horiz-adv-x="391" d="M251 662v-93h-116v77c0 54 22 87 73 101l26 -43c-29 -8 -41 -20 -41 -42h58zM265 97c76 -14 124 -55 124 -128v-24c0 -94 -73 -152 -198 -152c-112 0 -178 44 -178 114v11c0 45 27 77 76 93c-40 17 -60 46 -60 86c0 44 28 75 70 85c-50 24 -76 69 -76 135v42 c0 98 59 153 167 153c27 0 51 -3 72 -10c12 53 46 83 100 83c9 0 16 -1 25 -3v-97c-14 3 -26 5 -39 5c-17 0 -31 -4 -43 -10c34 -26 52 -67 52 -121v-42c0 -98 -59 -152 -167 -152c-19 0 -37 2 -53 5c-6 -4 -10 -11 -10 -21c0 -17 12 -25 43 -32zM146 380v-84 c0 -39 16 -59 44 -59s44 20 44 59v84c0 39 -16 61 -44 61s-44 -22 -44 -61zM271 -76v13c0 29 -18 42 -50 48l-85 14c-9 -10 -13 -24 -13 -43v-17c0 -48 28 -70 74 -70c49 0 74 19 74 55z"/>
    <glyph glyph-name="gdotaccent" unicode="ġ" horiz-adv-x="391" d="M265 706v-135h-134v135h134zM265 97c76 -14 124 -55 124 -128v-24c0 -94 -73 -152 -198 -152c-112 0 -178 44 -178 114v11c0 45 27 77 76 93c-40 17 -60 46 -60 86c0 44 28 75 70 85c-50 24 -76 69 -76 135v42c0 98 59 153 167 153c27 0 51 -3 72 -10c12 53 46 83 100 83 c9 0 16 -1 25 -3v-97c-14 3 -26 5 -39 5c-17 0 -31 -4 -43 -10c34 -26 52 -67 52 -121v-42c0 -98 -59 -152 -167 -152c-19 0 -37 2 -53 5c-6 -4 -10 -11 -10 -21c0 -17 12 -25 43 -32zM146 380v-84c0 -39 16 -59 44 -59s44 20 44 59v84c0 39 -16 61 -44 61s-44 -22 -44 -61z M271 -76v13c0 29 -18 42 -50 48l-85 14c-9 -10 -13 -24 -13 -43v-17c0 -48 28 -70 74 -70c49 0 74 19 74 55z"/>
    <glyph glyph-name="hbar" unicode="ħ" horiz-adv-x="419" d="M297 512c72 0 106 -45 106 -142v-370h-134v351c0 43 -12 63 -40 63c-34 0 -48 -29 -48 -97v-317h-131v575h-59v59h59v91h131v-91h138v-59h-138v-154c18 59 59 91 116 91z"/>
    <glyph glyph-name="hcircumflex" unicode="ĥ" horiz-adv-x="446" d="M272 753h-109l-48 67l-48 -67h-108l83 112h146zM50 0v725h131v-304c18 59 59 91 116 91c72 0 106 -45 106 -142v-370h-134v351c0 43 -12 63 -40 63c-34 0 -48 -29 -48 -97v-317h-131z"/>
    <glyph glyph-name="iacute" unicode="í" horiz-adv-x="224" d="M56 570l68 151h126l-84 -151h-110zM49 0v500h127v-500h-127z"/>
    <glyph glyph-name="ibreve" unicode="ĭ" horiz-adv-x="224" d="M73 707c0 -42 11 -65 39 -65s38 23 39 65h96c0 -95 -48 -142 -135 -142c-86 0 -134 47 -136 142h97zM49 0v500h127v-500h-127z"/>
    <glyph glyph-name="icircumflex" unicode="î" horiz-adv-x="224" d="M244 570h-97l-36 104l-36 -104h-96l62 151h141zM49 0v500h127v-500h-127z"/>
    <glyph glyph-name="idieresis" unicode="ï" horiz-adv-x="224" d="M-13 577v120h106v-120h-106zM130 577v120h107v-120h-107zM49 0v500h127v-500h-127z"/>
    <glyph glyph-name="i.loclTRK" horiz-adv-x="224" d="M45 571v135h134v-135h-134zM49 0v500h127v-500h-127z"/>
    <glyph glyph-name="dotlessi" unicode="ı" horiz-adv-x="224" d="M49 0v500h127v-500h-127z"/>
    <glyph glyph-name="igrave" unicode="ì" horiz-adv-x="224" d="M166 570h-110l-85 151h127zM49 0v500h127v-500h-127z"/>
    <glyph glyph-name="ij" unicode="ĳ" horiz-adv-x="460" d="M45 571v135h134v-135h-134zM276 571v135h134v-135h-134zM49 0v500h127v-500h-127zM272 -202c-19 0 -43 2 -56 5v106c10 -1 19 -2 27 -2c26 0 37 14 37 47v546h131v-555c0 -98 -29 -147 -139 -147z"/>
    <glyph glyph-name="uni006A0301" horiz-adv-x="229" d="M56 570l68 151h126l-84 -151h-110zM41 -202c-19 0 -43 2 -56 5v106c10 -1 19 -2 27 -2c26 0 37 14 37 47v546h131v-555c0 -98 -29 -147 -139 -147z"/>
    <glyph glyph-name="imacron" unicode="ī" horiz-adv-x="224" d="M1 592v94h222v-94h-222zM49 0v500h127v-500h-127z"/>
    <glyph glyph-name="iogonek" unicode="į" horiz-adv-x="224" d="M179 706v-135h-134v135h134zM129 -94l81 -19c-9 -64 -60 -89 -120 -89c-66 0 -115 31 -115 94c0 43 25 79 74 108v500h127v-500h-11c-62 -23 -96 -56 -96 -98c0 -21 10 -34 28 -34s28 13 32 38z"/>
    <glyph glyph-name="itilde" unicode="ĩ" horiz-adv-x="224" d="M169 573c-52 0 -75 48 -100 48c-13 0 -21 -13 -24 -41l-73 22c4 70 34 113 83 113c52 0 74 -48 100 -48c12 0 21 12 23 41l73 -23c-4 -69 -33 -112 -82 -112zM49 0v500h127v-500h-127z"/>
    <glyph glyph-name="jcircumflex" unicode="ĵ" horiz-adv-x="229" d="M244 570h-97l-36 104l-36 -104h-96l62 151h141zM41 -202c-19 0 -43 2 -56 5v106c10 -1 19 -2 27 -2c26 0 37 14 37 47v546h131v-555c0 -98 -29 -147 -139 -147z"/>
    <glyph glyph-name="uni0237" unicode="ȷ" horiz-adv-x="229" d="M41 -202c-19 0 -43 2 -56 5v106c10 -1 19 -2 27 -2c26 0 37 14 37 47v546h131v-555c0 -98 -29 -147 -139 -147z"/>
    <glyph glyph-name="uni0137" unicode="ķ" horiz-adv-x="437" d="M321 316l106 -316h-140l-66 228l-40 -84v-144h-131v725h131v-448l102 223h141zM170 -129v93h115v-78c0 -53 -21 -86 -73 -101l-26 44c29 8 42 20 42 42h-58z"/>
    <glyph glyph-name="kgreenlandic" unicode="ĸ" horiz-adv-x="436" d="M286 0l-66 228l-40 -84v-144h-131v500h131v-222l102 222h141l-103 -184l106 -316h-140z"/>
    <glyph glyph-name="lacute" unicode="ĺ" horiz-adv-x="230" d="M57 753l85 112h133l-102 -112h-116zM181 725v-725h-131v725h131z"/>
    <glyph glyph-name="lcaron" unicode="ľ" horiz-adv-x="302" d="M181 725v-725h-131v725h131zM248 532l-26 43c29 8 42 20 42 42h-58v93h116v-77c0 -54 -22 -87 -74 -101z"/>
    <glyph glyph-name="uni013C" unicode="ļ" horiz-adv-x="230" d="M181 725v-725h-131v725h131zM100 -215l-26 44c29 8 42 20 42 42h-58v93h115v-78c0 -53 -21 -86 -73 -101z"/>
    <glyph glyph-name="ldot" unicode="ŀ" horiz-adv-x="363" d="M181 725v-725h-131v725h131zM363 500v-162h-137v162h137z"/>
    <glyph glyph-name="lslash" unicode="ł" horiz-adv-x="230" d="M226 529v-90l-45 -38v-401h-131v288l-45 -38v91l45 38v346h131v-234z"/>
    <glyph glyph-name="nacute" unicode="ń" horiz-adv-x="445" d="M178 570l85 151h137l-111 -151h-111zM49 0v500h126v-83c19 63 59 95 119 95c74 0 108 -44 108 -142v-370h-134v350c0 45 -12 64 -40 64c-33 0 -48 -28 -48 -94v-320h-131z"/>
    <glyph glyph-name="napostrophe" unicode="ŉ" horiz-adv-x="458" d="M56 532l-26 43c29 8 42 20 42 42h-58v93h115v-77c0 -54 -21 -87 -73 -101zM61 0v500h127v-83c19 63 59 95 119 95c74 0 108 -44 108 -142v-370h-134v350c0 45 -12 64 -40 64c-34 0 -48 -28 -48 -94v-320h-132z"/>
    <glyph glyph-name="ncaron" unicode="ň" horiz-adv-x="445" d="M80 716h104l50 -98l49 98h105l-84 -151h-141zM49 0v500h126v-83c19 63 59 95 119 95c74 0 108 -44 108 -142v-370h-134v350c0 45 -12 64 -40 64c-33 0 -48 -28 -48 -94v-320h-131z"/>
    <glyph glyph-name="uni0146" unicode="ņ" horiz-adv-x="445" d="M49 0v500h126v-83c19 63 59 95 119 95c74 0 108 -44 108 -142v-370h-134v350c0 45 -12 64 -40 64c-33 0 -48 -28 -48 -94v-320h-131zM209 -215l-26 44c29 8 42 20 42 42h-58v93h115v-78c0 -53 -21 -86 -73 -101z"/>
    <glyph glyph-name="ntilde" unicode="ñ" horiz-adv-x="445" d="M298 573c-61 0 -87 53 -118 53c-18 0 -29 -16 -32 -47l-77 22c5 71 40 114 98 114c61 0 87 -53 118 -53c19 0 29 15 32 47l77 -22c-4 -71 -39 -114 -98 -114zM49 0v500h126v-83c19 63 59 95 119 95c74 0 108 -44 108 -142v-370h-134v350c0 45 -12 64 -40 64 c-33 0 -48 -28 -48 -94v-320h-131z"/>
    <glyph glyph-name="eng" unicode="ŋ" horiz-adv-x="445" d="M402 370v-370h-1v-52c0 -99 -29 -149 -139 -149c-19 0 -43 3 -57 6v106c10 -1 19 -2 27 -2c25 0 35 14 35 47v237h1v157c0 45 -12 64 -40 64c-33 0 -48 -28 -48 -94v-320h-131v500h126v-83c19 63 59 95 119 95c74 0 108 -44 108 -142z"/>
    <glyph glyph-name="oacute" unicode="ó" horiz-adv-x="427" d="M158 570l85 151h137l-111 -151h-111zM213 -12c-115 0 -185 65 -185 189v146c0 124 70 189 185 189c116 0 186 -65 186 -189v-146c0 -124 -70 -189 -186 -189zM213 80c33 0 49 24 49 83v174c0 59 -16 83 -49 83c-32 0 -48 -24 -48 -83v-174c0 -59 16 -83 48 -83z"/>
    <glyph glyph-name="obreve" unicode="ŏ" horiz-adv-x="427" d="M162 707c1 -42 18 -65 51 -65s49 23 50 65h97c-2 -95 -55 -142 -147 -142s-146 47 -147 142h96zM213 -12c-115 0 -185 65 -185 189v146c0 124 70 189 185 189c116 0 186 -65 186 -189v-146c0 -124 -70 -189 -186 -189zM213 80c33 0 49 24 49 83v174c0 59 -16 83 -49 83 c-32 0 -48 -24 -48 -83v-174c0 -59 16 -83 48 -83z"/>
    <glyph glyph-name="ocircumflex" unicode="ô" horiz-adv-x="427" d="M368 570h-105l-49 99l-50 -99h-104l83 151h141zM213 -12c-115 0 -185 65 -185 189v146c0 124 70 189 185 189c116 0 186 -65 186 -189v-146c0 -124 -70 -189 -186 -189zM213 80c33 0 49 24 49 83v174c0 59 -16 83 -49 83c-32 0 -48 -24 -48 -83v-174c0 -59 16 -83 48 -83 z"/>
    <glyph glyph-name="odieresis" unicode="ö" horiz-adv-x="427" d="M71 577v120h114v-120h-114zM241 577v120h113v-120h-113zM213 -12c-115 0 -185 65 -185 189v146c0 124 70 189 185 189c116 0 186 -65 186 -189v-146c0 -124 -70 -189 -186 -189zM213 80c33 0 49 24 49 83v174c0 59 -16 83 -49 83c-32 0 -48 -24 -48 -83v-174 c0 -59 16 -83 48 -83z"/>
    <glyph glyph-name="oe" unicode="œ" horiz-adv-x="644" d="M616 229h-225v-71c0 -50 17 -74 49 -74c28 0 46 19 46 81v20l130 -18v-22c0 -101 -72 -157 -178 -157c-51 0 -92 13 -123 37c-27 -25 -64 -37 -106 -37c-106 0 -181 60 -181 186v146c0 132 71 192 181 192c43 0 80 -12 107 -37c30 25 71 37 122 37 c116 0 178 -60 178 -189v-94zM437 433c-31 0 -46 -23 -46 -74v-61h89v46c0 68 -14 89 -43 89zM255 163v172c0 63 -15 85 -46 85c-30 0 -47 -22 -47 -85v-173c0 -61 18 -82 47 -82c31 0 46 20 46 83z"/>
    <glyph glyph-name="ograve" unicode="ò" horiz-adv-x="427" d="M268 570h-110l-112 151h137zM213 -12c-115 0 -185 65 -185 189v146c0 124 70 189 185 189c116 0 186 -65 186 -189v-146c0 -124 -70 -189 -186 -189zM213 80c33 0 49 24 49 83v174c0 59 -16 83 -49 83c-32 0 -48 -24 -48 -83v-174c0 -59 16 -83 48 -83z"/>
    <glyph glyph-name="ohungarumlaut" unicode="ő" horiz-adv-x="427" d="M91 570l84 151h104l-105 -151h-83zM232 570l84 151h105l-105 -151h-84zM213 -12c-115 0 -185 65 -185 189v146c0 124 70 189 185 189c116 0 186 -65 186 -189v-146c0 -124 -70 -189 -186 -189zM213 80c33 0 49 24 49 83v174c0 59 -16 83 -49 83c-32 0 -48 -24 -48 -83 v-174c0 -59 16 -83 48 -83z"/>
    <glyph glyph-name="omacron" unicode="ō" horiz-adv-x="427" d="M70 592v94h287v-94h-287zM213 -12c-115 0 -185 65 -185 189v146c0 124 70 189 185 189c116 0 186 -65 186 -189v-146c0 -124 -70 -189 -186 -189zM213 80c33 0 49 24 49 83v174c0 59 -16 83 -49 83c-32 0 -48 -24 -48 -83v-174c0 -59 16 -83 48 -83z"/>
    <glyph glyph-name="ordfeminine" unicode="ª" horiz-adv-x="355" d="M120 301c-58 0 -96 35 -96 105c0 74 36 103 118 120l59 13v40c0 24 -9 34 -27 34c-19 0 -29 -12 -29 -56h-113c0 89 54 127 142 127c97 0 140 -35 140 -119v-175c0 -37 2 -62 6 -80h-108c-2 15 -4 38 -4 50c-6 -36 -41 -59 -88 -59zM170 376c19 0 32 15 32 38v67l-26 -7 c-22 -5 -33 -20 -33 -56c0 -29 9 -42 27 -42z"/>
    <glyph glyph-name="ordmasculine" unicode="º" horiz-adv-x="366" d="M183 301c-94 0 -152 49 -152 139v105c0 90 58 139 152 139s153 -49 153 -139v-105c0 -90 -59 -139 -153 -139zM183 376c23 0 34 14 34 51v131c0 37 -11 51 -34 51c-22 0 -34 -14 -34 -51v-131c0 -37 12 -51 34 -51z"/>
    <glyph glyph-name="oslash" unicode="ø" horiz-adv-x="427" d="M360 453c25 -32 39 -75 39 -130v-146c0 -124 -70 -189 -186 -189c-47 0 -87 11 -117 33l-27 -44l-33 23l30 49c-25 31 -38 74 -38 128v146c0 124 70 189 185 189c46 0 85 -10 116 -31l25 42l34 -24zM165 337v-125l95 156c-5 37 -21 52 -47 52c-32 0 -48 -24 -48 -83z M213 80c33 0 49 24 49 83v130l-96 -157c5 -39 20 -56 47 -56z"/>
    <glyph glyph-name="oslashacute" unicode="ǿ" horiz-adv-x="427" d="M372 721l-111 -151h-111l85 151h137zM360 453c25 -32 39 -75 39 -130v-146c0 -124 -70 -189 -186 -189c-47 0 -87 11 -117 33l-27 -44l-33 23l30 49c-25 31 -38 74 -38 128v146c0 124 70 189 185 189c46 0 85 -10 116 -31l25 42l34 -24zM165 337v-125l95 156 c-5 37 -21 52 -47 52c-32 0 -48 -24 -48 -83zM213 80c33 0 49 24 49 83v130l-96 -157c5 -39 20 -56 47 -56z"/>
    <glyph glyph-name="otilde" unicode="õ" horiz-adv-x="427" d="M278 573c-61 0 -87 53 -118 53c-18 0 -29 -16 -32 -47l-77 22c5 71 40 114 98 114c61 0 87 -53 118 -53c19 0 29 15 32 47l77 -22c-4 -71 -39 -114 -98 -114zM213 -12c-115 0 -185 65 -185 189v146c0 124 70 189 185 189c116 0 186 -65 186 -189v-146 c0 -124 -70 -189 -186 -189zM213 80c33 0 49 24 49 83v174c0 59 -16 83 -49 83c-32 0 -48 -24 -48 -83v-174c0 -59 16 -83 48 -83z"/>
    <glyph glyph-name="racute" unicode="ŕ" horiz-adv-x="303" d="M102 570l85 151h137l-111 -151h-111zM170 390c11 64 47 122 116 122c4 0 5 0 9 -1v-139c-9 1 -18 2 -30 2c-29 0 -49 -11 -65 -32c-15 -20 -20 -53 -20 -92v-250h-131v500h121v-110z"/>
    <glyph glyph-name="rcaron" unicode="ř" horiz-adv-x="303" d="M4 716h104l50 -98l49 98h105l-84 -151h-141zM170 390c11 64 47 122 116 122c4 0 5 0 9 -1v-139c-9 1 -18 2 -30 2c-29 0 -49 -11 -65 -32c-15 -20 -20 -53 -20 -92v-250h-131v500h121v-110z"/>
    <glyph glyph-name="uni0157" unicode="ŗ" horiz-adv-x="303" d="M170 390c11 64 47 122 116 122c4 0 5 0 9 -1v-139c-9 1 -18 2 -30 2c-29 0 -49 -11 -65 -32c-15 -20 -20 -53 -20 -92v-250h-131v500h121v-110zM100 -215l-26 44c29 8 42 20 42 42h-58v93h115v-78c0 -53 -21 -86 -73 -101z"/>
    <glyph glyph-name="sacute" unicode="ś" horiz-adv-x="382" d="M134 570l85 151h137l-111 -151h-111zM193 -12c-105 0 -173 45 -173 128v36l132 19v-40c0 -41 20 -54 42 -54c23 0 37 13 37 40v25c0 27 -8 45 -39 55l-71 19c-69 20 -97 66 -97 127v42c0 77 61 127 166 127c100 0 167 -44 167 -126v-28l-128 -17v38c0 37 -16 48 -37 48 s-36 -11 -36 -39v-22c0 -26 4 -47 40 -59l68 -21c70 -24 98 -60 98 -117v-47c0 -76 -63 -134 -169 -134z"/>
    <glyph glyph-name="scaron" unicode="š" horiz-adv-x="382" d="M36 716h104l50 -98l49 98h105l-84 -151h-141zM193 -12c-105 0 -173 45 -173 128v36l132 19v-40c0 -41 20 -54 42 -54c23 0 37 13 37 40v25c0 27 -8 45 -39 55l-71 19c-69 20 -97 66 -97 127v42c0 77 61 127 166 127c100 0 167 -44 167 -126v-28l-128 -17v38 c0 37 -16 48 -37 48s-36 -11 -36 -39v-22c0 -26 4 -47 40 -59l68 -21c70 -24 98 -60 98 -117v-47c0 -76 -63 -134 -169 -134z"/>
    <glyph glyph-name="scedilla" unicode="ş" horiz-adv-x="382" d="M362 122c0 -67 -49 -120 -133 -132l-19 -39c9 8 25 13 44 13c45 0 75 -28 75 -81v-6c0 -56 -44 -90 -113 -90c-59 0 -99 25 -112 68l79 18c4 -18 15 -25 31 -25c18 0 28 11 28 34v4c0 20 -11 31 -28 31c-11 0 -21 -6 -26 -16l-69 14l31 76c-80 11 -130 54 -130 125v36 l132 19v-40c0 -41 20 -54 42 -54c23 0 37 13 37 40v25c0 27 -8 45 -39 55l-71 19c-69 20 -97 66 -97 127v42c0 77 61 127 166 127c100 0 167 -44 167 -126v-28l-128 -17v38c0 37 -16 48 -37 48s-36 -11 -36 -39v-22c0 -26 4 -47 40 -59l68 -21c70 -24 98 -60 98 -117v-47z "/>
    <glyph glyph-name="scircumflex" unicode="ŝ" horiz-adv-x="382" d="M344 570h-105l-49 99l-50 -99h-104l83 151h141zM193 -12c-105 0 -173 45 -173 128v36l132 19v-40c0 -41 20 -54 42 -54c23 0 37 13 37 40v25c0 27 -8 45 -39 55l-71 19c-69 20 -97 66 -97 127v42c0 77 61 127 166 127c100 0 167 -44 167 -126v-28l-128 -17v38 c0 37 -16 48 -37 48s-36 -11 -36 -39v-22c0 -26 4 -47 40 -59l68 -21c70 -24 98 -60 98 -117v-47c0 -76 -63 -134 -169 -134z"/>
    <glyph glyph-name="uni0219" unicode="ș" horiz-adv-x="382" d="M193 -12c-105 0 -173 45 -173 128v36l132 19v-40c0 -41 20 -54 42 -54c23 0 37 13 37 40v25c0 27 -8 45 -39 55l-71 19c-69 20 -97 66 -97 127v42c0 77 61 127 166 127c100 0 167 -44 167 -126v-28l-128 -17v38c0 37 -16 48 -37 48s-36 -11 -36 -39v-22 c0 -26 4 -47 40 -59l68 -21c70 -24 98 -60 98 -117v-47c0 -76 -63 -134 -169 -134zM179 -215l-26 44c29 8 42 20 42 42h-58v93h115v-78c0 -53 -21 -86 -73 -101z"/>
    <glyph glyph-name="tbar" unicode="ŧ" horiz-adv-x="299" d="M250 107c14 0 23 1 34 2v-111c-19 -4 -45 -7 -75 -7c-99 0 -142 45 -142 141v111h-61v72h61v94h-58v91h58v114l132 44v-158h81v-91h-81v-94h76v-72h-76v-76c0 -38 15 -60 51 -60z"/>
    <glyph glyph-name="tcaron" unicode="ť" horiz-adv-x="321" d="M262 532l-26 43c29 8 41 20 41 42h-58v93h116v-77c0 -54 -22 -87 -73 -101zM6 409v91h59v114l131 44v-158h82v-91h-82v-242c0 -38 15 -60 52 -60c13 0 22 1 33 2v-111c-18 -4 -44 -7 -75 -7c-99 0 -141 45 -141 141v277h-59z"/>
    <glyph glyph-name="uni0163" unicode="ţ" horiz-adv-x="296" d="M252 -36c45 0 75 -28 75 -81v-6c0 -56 -44 -90 -113 -90c-59 0 -99 25 -112 68l79 18c4 -18 15 -25 31 -25c18 0 28 11 28 34v4c0 20 -11 31 -28 31c-11 0 -21 -6 -26 -16l-69 14l34 82c-60 15 -86 59 -86 135v277h-59v91h59v114l131 44v-158h82v-91h-82v-242 c0 -38 15 -60 52 -60c13 0 22 1 33 2v-111c-14 -3 -32 -5 -53 -6l-20 -41c9 8 25 13 44 13z"/>
    <glyph glyph-name="uni021B" unicode="ț" horiz-adv-x="296" d="M6 409v91h59v114l131 44v-158h82v-91h-82v-242c0 -38 15 -60 52 -60c13 0 22 1 33 2v-111c-18 -4 -44 -7 -75 -7c-99 0 -141 45 -141 141v277h-59zM177 -215l-26 44c29 8 42 20 42 42h-58v93h115v-78c0 -53 -21 -86 -73 -101z"/>
    <glyph glyph-name="thorn" unicode="þ" horiz-adv-x="443" d="M50 -195v920h132v-295c17 51 58 82 110 82c72 0 119 -61 119 -177v-143c0 -145 -55 -204 -127 -204c-54 0 -86 29 -103 73v-256h-131zM227 91c36 0 50 32 50 101v126c0 63 -17 91 -49 91c-33 0 -48 -28 -48 -88v-138c0 -63 14 -92 47 -92z"/>
    <glyph glyph-name="uacute" unicode="ú" horiz-adv-x="446" d="M166 570l85 151h137l-111 -151h-111zM156 -12c-85 0 -113 57 -113 147v365h134v-349c0 -43 14 -63 41 -63c31 0 47 30 47 85v327h132v-500h-126v78c-19 -59 -57 -90 -115 -90z"/>
    <glyph glyph-name="ubreve" unicode="ŭ" horiz-adv-x="446" d="M171 707c1 -42 18 -65 51 -65s49 23 50 65h97c-2 -95 -55 -142 -147 -142s-146 47 -147 142h96zM156 -12c-85 0 -113 57 -113 147v365h134v-349c0 -43 14 -63 41 -63c31 0 47 30 47 85v327h132v-500h-126v78c-19 -59 -57 -90 -115 -90z"/>
    <glyph glyph-name="ucircumflex" unicode="û" horiz-adv-x="446" d="M376 570h-105l-49 99l-50 -99h-104l83 151h141zM156 -12c-85 0 -113 57 -113 147v365h134v-349c0 -43 14 -63 41 -63c31 0 47 30 47 85v327h132v-500h-126v78c-19 -59 -57 -90 -115 -90z"/>
    <glyph glyph-name="udieresis" unicode="ü" horiz-adv-x="446" d="M80 577v120h114v-120h-114zM250 577v120h113v-120h-113zM156 -12c-85 0 -113 57 -113 147v365h134v-349c0 -43 14 -63 41 -63c31 0 47 30 47 85v327h132v-500h-126v78c-19 -59 -57 -90 -115 -90z"/>
    <glyph glyph-name="ugrave" unicode="ù" horiz-adv-x="446" d="M277 570h-110l-112 151h137zM156 -12c-85 0 -113 57 -113 147v365h134v-349c0 -43 14 -63 41 -63c31 0 47 30 47 85v327h132v-500h-126v78c-19 -59 -57 -90 -115 -90z"/>
    <glyph glyph-name="uhungarumlaut" unicode="ű" horiz-adv-x="446" d="M99 570l84 151h104l-105 -151h-83zM240 570l84 151h105l-105 -151h-84zM156 -12c-85 0 -113 57 -113 147v365h134v-349c0 -43 14 -63 41 -63c31 0 47 30 47 85v327h132v-500h-126v78c-19 -59 -57 -90 -115 -90z"/>
    <glyph glyph-name="umacron" unicode="ū" horiz-adv-x="446" d="M79 592v94h287v-94h-287zM156 -12c-85 0 -113 57 -113 147v365h134v-349c0 -43 14 -63 41 -63c31 0 47 30 47 85v327h132v-500h-126v78c-19 -59 -57 -90 -115 -90z"/>
    <glyph glyph-name="uogonek" unicode="ų" horiz-adv-x="446" d="M351 -94l81 -19c-9 -64 -60 -89 -120 -89c-66 0 -115 31 -115 94c0 43 25 79 74 108v78c-19 -59 -57 -90 -115 -90c-85 0 -113 57 -113 147v365h134v-349c0 -43 14 -63 41 -63c31 0 47 30 47 85v327h132v-500h-10c-62 -23 -96 -56 -96 -98c0 -21 10 -34 28 -34 s28 13 32 38z"/>
    <glyph glyph-name="uring" unicode="ů" horiz-adv-x="446" d="M222 549c-68 0 -115 44 -115 108s47 109 115 109c66 0 113 -45 113 -109s-47 -108 -113 -108zM222 613c25 0 41 18 41 44s-16 44 -41 44c-27 0 -42 -18 -42 -44s15 -44 42 -44zM156 -12c-85 0 -113 57 -113 147v365h134v-349c0 -43 14 -63 41 -63c31 0 47 30 47 85v327 h132v-500h-126v78c-19 -59 -57 -90 -115 -90z"/>
    <glyph glyph-name="utilde" unicode="ũ" horiz-adv-x="446" d="M286 573c-61 0 -87 53 -118 53c-18 0 -29 -16 -32 -47l-77 22c5 71 40 114 98 114c61 0 87 -53 118 -53c19 0 29 15 32 47l77 -22c-4 -71 -39 -114 -98 -114zM156 -12c-85 0 -113 57 -113 147v365h134v-349c0 -43 14 -63 41 -63c31 0 47 30 47 85v327h132v-500h-126v78 c-19 -59 -57 -90 -115 -90z"/>
    <glyph glyph-name="wacute" unicode="ẃ" horiz-adv-x="565" d="M227 570l85 151h137l-111 -151h-111zM89 0l-87 500h130l30 -302c3 -27 4 -51 5 -77h3c2 25 4 51 7 77l43 302h126l41 -302c4 -26 6 -52 8 -77h3c0 26 1 50 4 77l30 302h130l-86 -500h-144l-42 298c-5 29 -5 64 -6 85h-4c0 -21 0 -56 -5 -85l-42 -298h-144z"/>
    <glyph glyph-name="wcircumflex" unicode="ŵ" horiz-adv-x="565" d="M437 570h-105l-49 99l-50 -99h-104l83 151h141zM89 0l-87 500h130l30 -302c3 -27 4 -51 5 -77h3c2 25 4 51 7 77l43 302h126l41 -302c4 -26 6 -52 8 -77h3c0 26 1 50 4 77l30 302h130l-86 -500h-144l-42 298c-5 29 -5 64 -6 85h-4c0 -21 0 -56 -5 -85l-42 -298h-144z"/>
    <glyph glyph-name="wdieresis" unicode="ẅ" horiz-adv-x="565" d="M141 577v120h114v-120h-114zM311 577v120h113v-120h-113zM89 0l-87 500h130l30 -302c3 -27 4 -51 5 -77h3c2 25 4 51 7 77l43 302h126l41 -302c4 -26 6 -52 8 -77h3c0 26 1 50 4 77l30 302h130l-86 -500h-144l-42 298c-5 29 -5 64 -6 85h-4c0 -21 0 -56 -5 -85l-42 -298 h-144z"/>
    <glyph glyph-name="wgrave" unicode="ẁ" horiz-adv-x="565" d="M338 570h-110l-112 151h137zM89 0l-87 500h130l30 -302c3 -27 4 -51 5 -77h3c2 25 4 51 7 77l43 302h126l41 -302c4 -26 6 -52 8 -77h3c0 26 1 50 4 77l30 302h130l-86 -500h-144l-42 298c-5 29 -5 64 -6 85h-4c0 -21 0 -56 -5 -85l-42 -298h-144z"/>
    <glyph glyph-name="yacute" unicode="ý" horiz-adv-x="372" d="M130 570l85 151h137l-111 -151h-111zM54 -200c-15 0 -29 1 -42 3v108c10 -2 20 -3 27 -3c42 0 65 19 75 60l6 25l-129 507h144l45 -283c6 -42 8 -78 9 -118h4c2 47 4 80 9 116l42 285h136l-121 -530c-28 -125 -94 -170 -205 -170z"/>
    <glyph glyph-name="ycircumflex" unicode="ŷ" horiz-adv-x="372" d="M340 570h-105l-49 99l-50 -99h-104l83 151h141zM54 -200c-15 0 -29 1 -42 3v108c10 -2 20 -3 27 -3c42 0 65 19 75 60l6 25l-129 507h144l45 -283c6 -42 8 -78 9 -118h4c2 47 4 80 9 116l42 285h136l-121 -530c-28 -125 -94 -170 -205 -170z"/>
    <glyph glyph-name="ydieresis" unicode="ÿ" horiz-adv-x="372" d="M44 577v120h114v-120h-114zM214 577v120h113v-120h-113zM54 -200c-15 0 -29 1 -42 3v108c10 -2 20 -3 27 -3c42 0 65 19 75 60l6 25l-129 507h144l45 -283c6 -42 8 -78 9 -118h4c2 47 4 80 9 116l42 285h136l-121 -530c-28 -125 -94 -170 -205 -170z"/>
    <glyph glyph-name="ygrave" unicode="ỳ" horiz-adv-x="372" d="M241 570h-110l-112 151h137zM54 -200c-15 0 -29 1 -42 3v108c10 -2 20 -3 27 -3c42 0 65 19 75 60l6 25l-129 507h144l45 -283c6 -42 8 -78 9 -118h4c2 47 4 80 9 116l42 285h136l-121 -530c-28 -125 -94 -170 -205 -170z"/>
    <glyph glyph-name="zacute" unicode="ź" horiz-adv-x="340" d="M114 570l85 151h137l-111 -151h-111zM15 85l163 319h-153v96h294v-83l-162 -320h172v-97h-314v85z"/>
    <glyph glyph-name="zcaron" unicode="ž" horiz-adv-x="340" d="M16 716h104l50 -98l49 98h105l-84 -151h-141zM15 85l163 319h-153v96h294v-83l-162 -320h172v-97h-314v85z"/>
    <glyph glyph-name="zdotaccent" unicode="ż" horiz-adv-x="340" d="M103 571v135h134v-135h-134zM15 85l163 319h-153v96h294v-83l-162 -320h172v-97h-314v85z"/>
    <glyph glyph-name="germandbls" unicode="ß" horiz-adv-x="442" d="M44 557c0 110 63 170 180 170c112 0 181 -54 181 -151v-47c0 -65 -34 -116 -97 -129c73 -12 111 -64 111 -152v-75c0 -110 -66 -179 -170 -179c-15 0 -30 0 -45 1v98c6 -1 13 -1 19 -1c39 0 62 27 62 82v77c0 63 -18 94 -69 95h-14v94h14c40 1 55 33 55 83v46 c0 44 -19 63 -47 63c-32 0 -49 -20 -49 -70v-562h-131v557z"/>
    <glyph glyph-name="eth" unicode="ð" horiz-adv-x="430" d="M336 603c38 -66 62 -150 62 -257v-134c0 -146 -72 -225 -186 -225c-124 0 -179 69 -179 200v113c0 128 47 202 135 202c52 0 86 -32 103 -83h2c-5 58 -26 107 -52 148l-94 -30l-19 56l73 24c-21 22 -42 40 -60 53l98 61c29 -21 57 -46 81 -76l68 22l18 -58zM266 173v145 c0 57 -16 89 -50 89c-36 0 -51 -27 -51 -90v-143c0 -64 16 -91 50 -91c35 0 51 28 51 90z"/>
    <glyph glyph-name="grave" unicode="`" horiz-adv-x="600" d="M260 570h-110l-112 151h137z"/>
    <glyph glyph-name="acute" unicode="´" horiz-adv-x="600" d="M50 570l85 151h137l-111 -151h-111z"/>
    <glyph glyph-name="circumflex" unicode="ˆ" horiz-adv-x="600" d="M358 570h-105l-49 99l-50 -99h-104l83 151h141z"/>
    <glyph glyph-name="tilde" unicode="˜" horiz-adv-x="600" d="M279 573c-61 0 -87 53 -118 53c-18 0 -29 -16 -32 -47l-77 22c5 71 40 114 98 114c61 0 87 -53 118 -53c19 0 29 15 32 47l77 -22c-4 -71 -39 -114 -98 -114z"/>
    <glyph glyph-name="caron" unicode="ˇ" horiz-adv-x="600" d="M50 716h104l50 -98l49 98h105l-84 -151h-141z"/>
    <glyph glyph-name="dieresis" unicode="¨" horiz-adv-x="600" d="M49 577v120h114v-120h-114zM219 577v120h113v-120h-113z"/>
    <glyph glyph-name="macron" unicode="¯" horiz-adv-x="600" d="M50 592v94h287v-94h-287z"/>
    <glyph glyph-name="breve" unicode="˘" horiz-adv-x="600" d="M152 707c1 -42 18 -65 51 -65s49 23 50 65h97c-2 -95 -55 -142 -147 -142s-146 47 -147 142h96z"/>
    <glyph glyph-name="ring" unicode="˚" horiz-adv-x="600" d="M163 549c-68 0 -115 44 -115 108s47 109 115 109c66 0 113 -45 113 -109s-47 -108 -113 -108zM163 613c25 0 41 18 41 44s-16 44 -41 44c-27 0 -42 -18 -42 -44s15 -44 42 -44z"/>
    <glyph glyph-name="hungarumlaut" unicode="˝" horiz-adv-x="600" d="M76 570l84 151h104l-105 -151h-83zM217 570l84 151h105l-105 -151h-84z"/>
    <glyph glyph-name="dotaccent" unicode="˙" horiz-adv-x="600" d="M50 571v135h134v-135h-134z"/>
    <glyph glyph-name="cedilla" unicode="¸" horiz-adv-x="600" d="M103 2h80l-25 -51c9 8 25 13 44 13c45 0 75 -28 75 -81v-6c0 -56 -44 -90 -113 -90c-59 0 -99 25 -112 68l79 18c4 -18 15 -25 31 -25c18 0 28 11 28 34v4c0 20 -11 31 -28 31c-11 0 -21 -6 -26 -16l-69 14z"/>
    <glyph glyph-name="ogonek" unicode="˛" horiz-adv-x="600" d="M277 -113c-9 -64 -60 -89 -120 -89c-66 0 -115 31 -115 94c0 43 25 79 74 108h116c-62 -23 -96 -56 -96 -98c0 -21 10 -34 28 -34s28 13 32 38z"/>
    <glyph glyph-name="comma" unicode="," horiz-adv-x="223" d="M78 -156l-34 68c44 19 53 41 53 84v4h-61v162h150v-151c0 -86 -31 -140 -108 -167z"/>
    <glyph glyph-name="semicolon" unicode=";" horiz-adv-x="224" d="M187 535v-162h-137v162h137zM79 -156l-34 68c44 19 53 41 53 84v4h-61v162h150v-151c0 -86 -31 -140 -108 -167z"/>
    <glyph glyph-name="colon" unicode=":" horiz-adv-x="211" d="M174 501v-162h-137v162h137zM174 162v-162h-137v162h137z"/>
    <glyph glyph-name="period" unicode="." horiz-adv-x="211" d="M174 162v-162h-137v162h137z"/>
    <glyph glyph-name="ellipsis" unicode="…" horiz-adv-x="677" d="M174 160v-160h-137v160h137zM408 160v-160h-137v160h137zM640 160v-160h-136v160h136z"/>
    <glyph glyph-name="hyphen" unicode="-" horiz-adv-x="302" d="M32 339h239v-122h-239v122z"/>
    <glyph glyph-name="exclam" unicode="!" horiz-adv-x="257" d="M70 224l-18 497h154l-19 -497h-117zM202 149v-149h-147v149h147z"/>
    <glyph glyph-name="exclamdown" unicode="¡" horiz-adv-x="257" d="M202 431h-147v149h147v-149zM70 356h117l19 -497h-154z"/>
    <glyph glyph-name="question" unicode="?" horiz-adv-x="393" d="M122 210v42c0 58 23 95 52 133l37 48c19 25 31 54 31 95v35c0 38 -13 62 -47 62c-36 0 -51 -23 -51 -67v-78l-137 11v69c0 109 66 167 187 167c119 0 186 -51 186 -162v-33c0 -58 -25 -102 -52 -136l-42 -53c-22 -28 -36 -57 -36 -100v-33h-128zM120 0v149h134v-149h-134 z"/>
    <glyph glyph-name="questiondown" unicode="¿" horiz-adv-x="393" d="M274 580v-149h-135v149h135zM271 370v-41c0 -59 -23 -96 -52 -134l-37 -48c-19 -25 -31 -54 -31 -95v-35c0 -38 14 -62 47 -62c37 0 51 23 51 67v78l137 -11v-69c0 -109 -65 -167 -186 -167c-120 0 -187 51 -187 162v33c0 58 26 102 53 136l41 53c22 28 36 58 36 100v33 h128z"/>
    <glyph glyph-name="quoteleft" unicode="‘" horiz-adv-x="223" d="M145 738l34 -68c-44 -19 -53 -41 -53 -84v-4h61v-162h-150v151c0 86 31 140 108 167z"/>
    <glyph glyph-name="quoteright" unicode="’" horiz-adv-x="223" d="M78 392l-34 68c44 19 53 41 53 84v4h-61v162h150v-151c0 -86 -31 -140 -108 -167z"/>
    <glyph glyph-name="quotedblleft" unicode="“" horiz-adv-x="413" d="M145 739l34 -68c-44 -19 -53 -41 -53 -84v-4h61v-162h-150v151c0 86 31 140 108 167zM335 739l34 -68c-45 -19 -53 -41 -53 -84v-4h61v-162h-151v151c0 86 31 140 109 167z"/>
    <glyph glyph-name="quotedblright" unicode="”" horiz-adv-x="413" d="M78 392l-34 68c44 19 53 41 53 84v4h-61v162h150v-151c0 -86 -31 -140 -108 -167zM267 392l-34 68c45 19 53 41 53 84v4h-61v162h151v-151c0 -86 -31 -140 -109 -167z"/>
    <glyph glyph-name="quotesinglbase" unicode="‚" horiz-adv-x="223" d="M78 -156l-34 68c44 19 53 41 53 84v4h-61v162h150v-151c0 -86 -31 -140 -108 -167z"/>
    <glyph glyph-name="quotedblbase" unicode="„" horiz-adv-x="413" d="M78 -157l-34 69c44 18 53 40 53 84v4h-61v162h150v-151c0 -86 -31 -140 -108 -168zM267 -157l-34 69c45 18 53 40 53 84v4h-61v162h151v-151c0 -86 -31 -140 -109 -168z"/>
    <glyph glyph-name="guilsinglleft" unicode="‹" horiz-adv-x="271" d="M126 67l-115 209l118 206h117l-114 -206l113 -209h-119z"/>
    <glyph glyph-name="guilsinglright" unicode="›" horiz-adv-x="271" d="M145 67h-119l114 209l-115 206h117l119 -206z"/>
    <glyph glyph-name="periodcentered" unicode="·" horiz-adv-x="211" d="M174 432v-162h-137v162h137z"/>
    <glyph glyph-name="slash" unicode="/" horiz-adv-x="393" d="M164 -117h-119l184 877h119z"/>
    <glyph glyph-name="bar" unicode="|" horiz-adv-x="211" d="M50 -117v877h111v-877h-111z"/>
    <glyph glyph-name="endash" unicode="–" horiz-adv-x="432" d="M32 331h369v-106h-369v106z"/>
    <glyph glyph-name="emdash" unicode="—" horiz-adv-x="660" d="M32 331h596v-106h-596v106z"/>
    <glyph glyph-name="bullet" unicode="•" horiz-adv-x="295" d="M146 232c-63 0 -109 44 -109 110c0 67 46 113 109 113c65 0 112 -45 112 -113c0 -66 -47 -110 -112 -110z"/>
    <glyph glyph-name="parenleft" unicode="(" horiz-adv-x="271" d="M177 -139c-89 127 -139 306 -139 467s49 335 140 453l103 -39c-79 -120 -118 -261 -118 -416c0 -156 37 -291 121 -423z"/>
    <glyph glyph-name="parenright" unicode=")" horiz-adv-x="271" d="M94 -139l-107 42c85 132 121 267 121 423c0 155 -39 296 -118 416l104 39c90 -118 139 -292 139 -453s-50 -340 -139 -467z"/>
    <glyph glyph-name="bracketleft" unicode="[" horiz-adv-x="262" d="M51 -114v871h205v-94h-86v-683h86v-94h-205z"/>
    <glyph glyph-name="bracketright" unicode="]" horiz-adv-x="262" d="M211 -114h-206v94h86v683h-86v94h206v-871z"/>
    <glyph glyph-name="braceleft" unicode="{" horiz-adv-x="284" d="M237 -117c-108 0 -153 36 -153 138v163c0 57 -4 99 -70 101v88c67 2 70 38 70 98v168c0 92 50 131 151 131h41v-94h-20c-37 0 -53 -11 -53 -64v-148c0 -66 -13 -114 -82 -135c69 -23 81 -74 81 -140v-145c0 -57 18 -66 54 -66h22v-95h-41z"/>
    <glyph glyph-name="braceright" unicode="}" horiz-adv-x="284" d="M47 -117h-42v95h22c37 0 55 9 55 66v145c-1 66 12 117 81 140c-69 21 -82 69 -82 135v148c0 53 -17 64 -54 64h-19v94h40c102 0 152 -39 152 -131v-168c0 -60 3 -96 70 -98v-88c-66 -2 -70 -44 -70 -101v-163c0 -102 -45 -138 -153 -138z"/>
    <glyph glyph-name="guillemotleft" unicode="«" horiz-adv-x="465" d="M126 67l-115 209l118 206h117l-114 -206l113 -209h-119zM320 67l-116 209l119 206h117l-115 -206l114 -209h-119z"/>
    <glyph glyph-name="guillemotright" unicode="»" horiz-adv-x="465" d="M145 67h-119l114 209l-115 206h117l119 -206zM339 67h-119l113 209l-114 206h117l119 -206z"/>
    <glyph glyph-name="zero" unicode="0" horiz-adv-x="467" d="M233 -15c-124 0 -200 76 -200 226v273c0 150 76 226 200 226c125 0 202 -76 202 -226v-273c0 -150 -77 -226 -202 -226zM233 90c41 0 65 33 65 103v308c0 71 -24 104 -65 104c-40 0 -64 -33 -64 -103v-308c0 -71 24 -104 64 -104z"/>
    <glyph glyph-name="one" unicode="1" horiz-adv-x="320" d="M122 0v498c-21 -19 -58 -27 -94 -27h-15v129h11c59 0 106 33 124 95h108v-695h-134z"/>
    <glyph glyph-name="two" unicode="2" horiz-adv-x="425" d="M19 0v100c88 103 141 169 183 234c41 63 59 116 59 179v21c0 49 -18 70 -53 70c-34 0 -53 -25 -53 -76v-70l-136 17v51c0 116 73 184 194 184c125 0 189 -50 189 -173v-27c0 -66 -25 -131 -72 -203c-37 -59 -80 -110 -157 -198h231v-109h-385z"/>
    <glyph glyph-name="three" unicode="3" horiz-adv-x="423" d="M212 -15c-129 0 -195 56 -195 195v32l135 16v-42c0 -71 19 -96 58 -96c37 0 55 27 55 88v31c0 68 -21 97 -71 97h-24v105h24c46 0 67 32 67 96v25c0 54 -19 74 -53 74c-37 0 -54 -24 -54 -88v-50l-136 18v35c0 129 71 189 192 189c118 0 187 -53 187 -171v-26 c0 -74 -33 -134 -102 -151c74 -10 107 -69 107 -147v-38c0 -126 -68 -192 -190 -192z"/>
    <glyph glyph-name="four" unicode="4" horiz-adv-x="443" d="M430 152h-71v-152h-131v152h-218v100l191 443h158v-438h71v-105zM229 464c0 28 1 60 3 86h-1c-6 -28 -15 -52 -28 -84l-61 -153c-9 -25 -17 -41 -27 -56h114v207z"/>
    <glyph glyph-name="five" unicode="5" horiz-adv-x="424" d="M212 -15c-119 0 -191 64 -191 174v29l136 15v-30c0 -59 20 -85 56 -85c39 0 57 29 57 99v80c0 71 -17 99 -55 99c-33 0 -54 -24 -61 -68l-123 11l20 386h328v-111h-222l-10 -175c21 39 61 62 114 62c96 0 145 -66 145 -190v-92c0 -135 -67 -204 -194 -204z"/>
    <glyph glyph-name="six" unicode="6" horiz-adv-x="435" d="M263 470c100 0 152 -63 152 -186v-94c0 -127 -64 -205 -190 -205c-139 0 -198 82 -198 252v237c0 163 71 236 199 236c121 0 184 -52 184 -157v-24l-134 -18v26c0 46 -15 74 -52 74c-45 0 -63 -34 -63 -124v-65c22 31 55 48 102 48zM280 187v91c0 58 -20 89 -58 89 c-29 0 -49 -17 -61 -50v-112c0 -87 21 -118 62 -118c36 0 57 28 57 100z"/>
    <glyph glyph-name="seven" unicode="7" horiz-adv-x="379" d="M87 0v37c1 207 58 391 152 545h-231v113h362v-92c-99 -146 -143 -328 -144 -519v-84h-139z"/>
    <glyph glyph-name="eight" unicode="8" horiz-adv-x="435" d="M323 373c63 -31 92 -76 92 -158v-46c0 -113 -76 -184 -197 -184c-125 0 -198 67 -198 183v49c0 62 33 109 94 133c-56 30 -85 75 -85 151v39c0 104 74 170 187 170c115 0 186 -62 186 -167v-43c0 -59 -24 -98 -79 -127zM160 546v-55c0 -41 21 -61 63 -77l11 -4 c27 16 38 39 38 77v58c0 49 -19 72 -56 72s-56 -22 -56 -71zM279 161v65c0 47 -17 64 -66 83l-12 5c-33 -17 -45 -41 -45 -84v-68c0 -51 22 -76 63 -76c40 0 60 25 60 75z"/>
    <glyph glyph-name="nine" unicode="9" horiz-adv-x="433" d="M212 710c137 0 195 -71 195 -240v-250c0 -167 -65 -235 -196 -235c-119 0 -186 64 -186 167v26l133 21v-31c0 -52 21 -84 56 -84c44 0 58 33 59 123v82c-23 -26 -56 -39 -99 -39c-100 0 -153 60 -153 182v78c0 127 65 200 191 200zM213 353c28 0 47 14 60 46v108 c0 73 -21 104 -61 104c-38 0 -58 -27 -58 -95v-77c0 -57 21 -86 59 -86z"/>
    <glyph glyph-name="zero.zero" horiz-adv-x="467" d="M233 710c125 0 202 -76 202 -226v-273c0 -150 -77 -226 -202 -226c-124 0 -200 76 -200 226v273c0 150 76 226 200 226zM233 605c-40 0 -64 -33 -64 -103v-233l123 286c-10 34 -30 50 -59 50zM233 90c41 0 65 33 65 103v252l-125 -294c8 -41 29 -61 60 -61z"/>
    <glyph glyph-name="asterisk" unicode="*" horiz-adv-x="336" d="M332 557l-120 -13l97 -91l-89 -62l-52 120l-52 -120l-89 62l97 91l-120 13l35 103l102 -63l-27 118h108l-26 -118l101 63z"/>
    <glyph glyph-name="asciitilde" unicode="~" d="M304 227c-68 0 -90 55 -138 55c-25 0 -43 -16 -48 -51l-75 26c12 92 64 129 116 129c68 0 95 -55 139 -55c27 0 43 28 50 60l73 -29c-16 -95 -63 -135 -117 -135z"/>
    <glyph glyph-name="brokenbar" unicode="¦" horiz-adv-x="211" d="M161 760v-386h-111v386h111zM161 273v-390h-111v390h111z"/>
    <glyph glyph-name="backslash" unicode="\" horiz-adv-x="393" d="M229 -117l-184 877h119l184 -877h-119z"/>
    <glyph glyph-name="underscore" unicode="_" horiz-adv-x="357" d="M0 -92h357v-78h-357v78z"/>
    <glyph glyph-name="quotesingle" unicode="'" horiz-adv-x="199" d="M52 427l-15 283h125l-14 -283h-96z"/>
    <glyph glyph-name="quotedbl" unicode="&quot;" horiz-adv-x="364" d="M52 427l-15 283h125l-14 -283h-96zM217 427l-15 283h126l-15 -283h-96z"/>
    <glyph glyph-name="ampersand" unicode="&amp;" horiz-adv-x="515" d="M481 102c12 0 18 0 25 1v-104c-13 -4 -26 -5 -41 -5c-35 0 -67 13 -98 39c-41 -33 -91 -50 -143 -50c-125 0 -209 67 -209 176v42c0 76 31 121 105 174l-8 11c-43 64 -61 106 -61 156v46c0 92 67 149 166 149c101 0 160 -56 160 -145v-50c0 -67 -40 -118 -99 -161 l-17 -13l101 -149c3 19 6 39 6 61v100l106 -26v-73c0 -64 -14 -118 -37 -163c14 -11 29 -16 44 -16zM175 592v-46c0 -31 10 -60 37 -104c33 25 42 62 42 101v47c0 42 -14 61 -40 61c-25 0 -39 -18 -39 -59zM146 179c0 -52 35 -88 88 -88c23 0 46 7 66 22l-128 185 c-20 -23 -26 -49 -26 -82v-37z"/>
    <glyph glyph-name="at" unicode="@" horiz-adv-x="618" d="M317 -96c-180 0 -287 111 -287 298v146c0 194 114 312 287 312c169 0 271 -104 271 -289v-134c0 -114 -46 -169 -130 -169c-55 0 -94 27 -105 73c-14 -46 -46 -72 -90 -72c-61 0 -98 43 -98 115c0 75 33 112 113 130l64 14v57c0 30 -10 43 -30 43c-22 0 -33 -14 -33 -42 v-35h-105v26c1 79 53 126 138 126c92 0 135 -40 135 -128v-185c0 -38 9 -54 31 -54c25 0 37 27 37 89v138c0 152 -69 233 -201 233c-133 0 -208 -88 -208 -246v-149c0 -142 83 -230 218 -230c47 0 91 10 126 30l21 -58c-39 -25 -94 -39 -154 -39zM305 147c23 0 39 23 39 55 v70l-28 -7c-31 -10 -43 -27 -43 -62v-7c0 -31 11 -49 32 -49z"/>
    <glyph glyph-name="copyright" unicode="©" horiz-adv-x="631" d="M316 -17c-168 0 -286 119 -286 312v121c0 194 117 311 287 311c169 0 284 -117 284 -311v-121c0 -193 -116 -312 -285 -312zM316 38c131 0 222 96 222 256v122c0 160 -91 256 -221 256c-132 0 -224 -95 -224 -256v-122c0 -160 92 -256 223 -256zM318 143 c-92 0 -140 55 -140 155v116c0 98 50 154 142 154c85 0 135 -47 135 -131v-26l-86 -12v30c0 46 -17 67 -50 67c-36 0 -55 -26 -55 -78v-124c0 -50 19 -80 55 -80c32 0 51 24 51 69v30l85 -15v-22c0 -84 -52 -133 -137 -133z"/>
    <glyph glyph-name="registered" unicode="®" horiz-adv-x="631" d="M317 727c169 0 284 -117 284 -311v-121c0 -193 -116 -312 -285 -312c-168 0 -286 119 -286 312v121c0 194 117 311 287 311zM538 294v122c0 160 -91 256 -221 256c-132 0 -224 -95 -224 -256v-122c0 -160 92 -256 223 -256s222 96 222 256zM452 431 c0 -50 -24 -84 -61 -100l71 -175h-89l-58 161h-26v-161h-85v405h119c83 0 129 -37 129 -111v-19zM289 500v-122h24c32 0 49 17 49 52v22c0 35 -18 48 -49 48h-24z"/>
    <glyph glyph-name="trademark" unicode="™" horiz-adv-x="632" d="M84 305v331h-76v74h242v-74h-76v-331h-90zM279 305v405h117l35 -195c4 -26 5 -40 7 -64h2c2 24 3 38 6 64l35 195h117v-405h-75v194c0 38 3 76 5 120h-3c-2 -17 -5 -30 -12 -71l-43 -243h-63l-43 243c-6 41 -9 54 -11 71h-4c3 -44 5 -82 5 -120v-194h-75z"/>
    <glyph glyph-name="paragraph" unicode="¶" horiz-adv-x="590" d="M246 319c-99 0 -196 53 -196 200c0 145 106 201 227 201h249v-69h-54v-750h-77v750h-72v-750h-77v418z"/>
    <glyph glyph-name="section" unicode="§" horiz-adv-x="387" d="M372 308c0 -58 -28 -103 -77 -129c51 -37 66 -67 66 -119v-14c0 -92 -64 -143 -169 -143c-115 0 -174 56 -174 140v22l109 29v-26c0 -51 19 -78 57 -78c29 0 46 16 46 47v9c0 31 -14 51 -62 81l-62 41c-63 39 -90 82 -90 141v9c0 60 29 102 81 124c-49 39 -67 78 -67 129 v13c0 81 60 131 165 131c104 0 163 -49 163 -137v-18l-110 -27v31c0 43 -17 64 -50 64c-28 0 -43 -16 -43 -45v-10c0 -27 17 -47 55 -72l64 -43c74 -46 98 -82 98 -144v-6zM134 332c0 -40 12 -57 66 -90l28 -19c16 12 23 32 23 61c0 42 -13 61 -72 100l-15 10 c-19 -10 -30 -31 -30 -62z"/>
    <glyph glyph-name="asciicircum" unicode="^" horiz-adv-x="417" d="M141 710h135l121 -263h-115l-73 174l-74 -174h-115z"/>
    <glyph glyph-name="dagger" unicode="†" horiz-adv-x="419" d="M269 398v-486h-119v486h-120v102h120v215h119v-215h120v-102h-120z"/>
    <glyph glyph-name="daggerdbl" unicode="‡" horiz-adv-x="419" d="M389 398h-120v-176h120v-102h-120v-208h-119v208h-120v102h120v176h-120v102h120v215h119v-215h120v-102z"/>
    <glyph glyph-name="emptyset" unicode="∅" horiz-adv-x="438" d="M409 512l-43 -57c16 -26 25 -59 25 -98v-110c0 -107 -68 -169 -173 -169c-45 0 -84 12 -113 34l-38 -50l-39 30l44 58c-16 26 -25 59 -25 98v110c0 107 68 168 172 168c45 0 84 -12 113 -34l38 51zM156 356v-95l112 148c-11 16 -28 23 -49 23c-37 0 -63 -23 -63 -76z M282 249v96l-113 -149c11 -16 28 -23 49 -23c38 0 64 22 64 76z"/>
    <glyph glyph-name="uni2126" unicode="Ω" horiz-adv-x="481" d="M446 0h-175l-10 265c30 8 48 42 48 90v185c0 49 -26 80 -68 80c-43 0 -69 -31 -69 -80v-185c0 -48 18 -82 49 -90l-11 -265h-174v107h81l5 86c-52 19 -84 76 -84 153v187c0 117 79 191 203 191c123 0 202 -74 202 -191v-187c0 -77 -31 -134 -84 -153l5 -86h82v-107z"/>
    <glyph glyph-name="uni2206" unicode="∆" horiz-adv-x="457" d="M13 0l123 710h189l120 -710h-432zM229 590l-71 -492h136z"/>
    <glyph glyph-name="uni00B5" unicode="µ" horiz-adv-x="451" d="M271 500h132v-500h-127v78c-18 -58 -56 -89 -112 -90v-183h-115v695h134v-349c0 -43 13 -63 41 -63c30 0 47 30 47 85v327z"/>
    <glyph glyph-name="uniF8FF" unicode="" horiz-adv-x="1018" d="M998 663h-552v-47h552v-48h-552v-47h552v-48h-552v-47h552v-47h-552v-48h552v-47h-978v426h978v-47zM67 667l13 9h-16l-5 15l-4 -15h-16l13 -9l-5 -15l12 9l13 -9zM142 676h-16l13 -9l-5 -15l12 10l13 -10l-5 15l12 9h-15l-5 15zM229 676h-16l13 -9l-5 -15l12 10l13 -10 l-5 15l12 9h-15l-5 15zM315 676h-15l13 -9l-5 -15l12 10l13 -10l-5 15l12 9h-15l-5 15zM415 667l12 9h-15l-5 15l-5 -15h-15l12 -9l-4 -15l12 10l13 -10zM98 632h-15l12 -9l-4 -14l12 9l12 -9l-4 14l12 9h-15l-5 15zM371 623l13 9h-16l-4 15l-5 -15h-15l12 -9l-5 -14l13 9 l12 -9zM273 364v93h94v80h-94v94h-80v-94h-93v-80h93v-93h80zM67 580l13 9h-16l-5 14l-4 -14h-16l13 -9l-5 -15l12 9l13 -9zM142 589h-16l13 -9l-5 -15l12 9l13 -9l-5 15l12 9h-15l-5 14zM315 589h-15l13 -9l-5 -15l12 9l13 -9l-5 15l12 9h-15l-5 14zM415 580l12 9h-15 l-5 14l-5 -14h-15l12 -9l-4 -15l12 9l13 -9zM67 492l13 10h-16l-5 14l-4 -14h-16l13 -10l-5 -14l12 9l13 -9zM415 492l12 10h-15l-5 14l-5 -14h-15l12 -10l-4 -14l12 9l13 -9zM67 405l13 9h-16l-5 15l-4 -15h-16l13 -9l-5 -14l12 9l13 -9zM154 405l12 9h-15l-5 15l-4 -15 h-16l13 -9l-5 -14l12 9l13 -9zM328 405l12 9h-15l-5 15l-5 -15h-15l13 -9l-5 -14l12 9l13 -9zM415 405l12 9h-15l-5 15l-5 -15h-15l12 -9l-4 -14l12 9l13 -9zM115 347l-4 15l12 9h-15l-5 14l-5 -14h-15l12 -9l-4 -15l12 9zM376 347l-5 15l13 9h-16l-4 14l-5 -14h-15l12 -9 l-5 -15l13 9zM72 303l-5 15l13 9h-16l-5 15l-4 -15h-16l13 -9l-5 -15l12 9zM159 303l-5 15l12 9h-15l-5 15l-4 -15h-16l13 -9l-5 -15l12 9zM246 303l-5 15l12 9h-15l-5 15l-4 -15h-16l13 -9l-5 -15l12 9zM333 303l-5 15l12 9h-15l-5 15l-5 -15h-15l13 -9l-5 -15l12 9z M420 303l-5 15l12 9h-15l-5 15l-5 -15h-15l12 -9l-4 -15l12 9zM20 189v48h977v-48h-977zM20 95v47h978v-47h-978zM20 0v47h978v-47h-978z"/>
    <glyph glyph-name="uni2113" unicode="ℓ" horiz-adv-x="403" d="M185 205c0 -80 26 -103 84 -103c22 0 36 3 53 7v-109c-21 -7 -39 -12 -86 -12c-129 0 -180 67 -180 191v8c-15 -6 -31 -13 -48 -19l-36 100c30 13 58 25 84 37v252c0 128 68 170 160 170c106 0 159 -65 159 -165c0 -132 -57 -229 -190 -310v-47zM185 580v-198 c43 40 65 92 65 176c0 54 -13 73 -34 73c-20 0 -31 -18 -31 -51z"/>
    <glyph glyph-name="estimated" unicode="℮" horiz-adv-x="528" d="M498 349h-318v-271c24 -18 55 -25 90 -25c92 0 138 51 162 172l63 -22c-23 -135 -99 -216 -227 -216c-146 0 -238 82 -238 272v192c0 180 91 269 239 269c145 0 229 -88 229 -262v-109zM356 632c-23 20 -54 29 -89 29c-33 0 -63 -8 -87 -25v-227h176v223z"/>
    <glyph glyph-name="dollar" unicode="$" horiz-adv-x="450" d="M302 382c92 -54 133 -98 133 -184v-33c0 -101 -70 -170 -185 -179v-93h-46v93c-112 6 -188 69 -188 186v38l114 26v-49c0 -66 30 -97 74 -105v225l-59 33c-72 41 -118 93 -118 179v24c0 105 75 159 177 166v84h46v-84c96 -7 176 -58 176 -176v-31l-109 -28v39 c0 64 -24 95 -67 103v-204zM143 526c0 -38 20 -59 61 -86v177c-40 -7 -61 -32 -61 -72v-19zM316 165v18c0 40 -18 64 -66 96v-197c40 7 66 33 66 83z"/>
    <glyph glyph-name="cent" unicode="¢" horiz-adv-x="445" d="M422 316l-117 -19v34c0 53 -18 80 -55 88v-338c37 8 55 36 55 88v40l117 -25v-18c0 -105 -66 -169 -172 -177v-92h-45v92c-111 8 -177 81 -177 198v117c0 128 62 199 177 207v83h45v-83c109 -7 172 -70 172 -185v-10zM147 183c0 -60 19 -93 58 -102v338 c-39 -9 -58 -42 -58 -104v-132z"/>
    <glyph glyph-name="sterling" unicode="£" horiz-adv-x="488" d="M346 194l131 -24c-4 -115 -63 -185 -161 -185c-66 0 -104 22 -171 23c-31 0 -65 -6 -102 -16l-41 103c71 31 104 85 104 168c0 20 -2 38 -4 55h-77v74h60c-8 35 -16 74 -16 125c0 125 67 193 191 193c123 0 186 -61 188 -183v-30l-136 -24v52c-1 57 -17 85 -53 85 s-51 -27 -51 -79c0 -55 10 -96 19 -139h104v-74h-93c0 -12 1 -25 1 -38c0 -79 -35 -139 -94 -168c15 3 32 5 49 5c35 0 59 -10 89 -10c38 0 59 29 63 87z"/>
    <glyph glyph-name="florin" unicode="ƒ" horiz-adv-x="385" d="M320 710c32 0 55 -6 56 -6v-106c-1 0 -18 3 -37 3c-51 0 -59 -33 -68 -98l-10 -76h78v-88h-89l-62 -489h-142l62 489h-76v88h87l9 68c19 145 66 215 192 215z"/>
    <glyph glyph-name="yen" unicode="¥" horiz-adv-x="434" d="M433 695l-142 -398h109v-66h-114v-45h114v-65h-114v-121h-138v121h-114v65h114v45h-114v66h109l-142 398h144l51 -207c8 -35 15 -63 20 -96h2c5 33 12 61 20 96l51 207h144z"/>
    <glyph glyph-name="Euro" unicode="€" horiz-adv-x="475" d="M320 208l135 -23v-27c0 -115 -84 -173 -201 -173c-131 0 -209 78 -209 224v50h-46v61h46v68h-46v61h46v41c0 143 79 220 211 220c120 0 198 -64 198 -164v-27l-136 -20v29c0 54 -28 75 -64 75c-44 0 -69 -32 -69 -100v-54h143v-61h-143v-68h143v-61h-143v-63 c0 -69 27 -104 71 -104c35 0 64 26 64 80v36z"/>
    <glyph glyph-name="currency" unicode="¤" horiz-adv-x="458" d="M405 243c0 -33 -7 -61 -20 -84l44 -52l-58 -55l-45 49c-26 -14 -58 -22 -92 -22c-38 0 -72 9 -99 25l-46 -53l-61 55l51 59c-11 23 -17 50 -17 81v106c0 35 6 65 18 90l-52 59l61 55l46 -52c27 15 60 23 99 23c35 0 65 -7 91 -20l46 50l58 -55l-46 -53 c15 -26 22 -58 22 -95v-111zM289 250v108c0 53 -23 75 -55 75c-34 0 -57 -22 -57 -77v-106c0 -53 23 -76 57 -76c32 0 55 23 55 76z"/>
    <glyph glyph-name="fraction" unicode="⁄" horiz-adv-x="149" d="M-147 -17l355 744h88l-352 -744h-91z"/>
    <glyph glyph-name="onequarter" unicode="¼" horiz-adv-x="629" d="M73 -17l355 744h88l-352 -744h-91zM82 347v245c-14 -9 -36 -15 -55 -15h-11v86h8c35 0 66 14 76 47h73v-363h-91zM616 75h-43v-75h-88v75h-133v67l114 221h107v-218h43v-70zM485 283l-68 -138h68v138z"/>
    <glyph glyph-name="onehalf" unicode="½" horiz-adv-x="654" d="M73 -17l355 744h88l-352 -744h-91zM82 347v245c-14 -9 -36 -15 -55 -15h-11v86h8c35 0 66 14 76 47h73v-363h-91zM389 0v68c79 64 147 129 147 196c0 25 -9 36 -27 36c-19 0 -29 -12 -29 -37c0 -9 0 -18 1 -27l-92 12c-1 7 -1 14 -1 22c0 64 45 101 127 101 c78 0 116 -34 116 -103c0 -80 -61 -140 -137 -194h138v-74h-243z"/>
    <glyph glyph-name="threequarters" unicode="¾" horiz-adv-x="690" d="M134 -17l355 744h88l-352 -744h-91zM137 339c-81 0 -120 33 -120 113l91 10c0 -41 9 -52 30 -52s31 12 31 44c0 34 -14 46 -47 46h-9v67h9c31 0 45 12 45 46c0 26 -10 35 -28 35c-20 0 -30 -13 -30 -50l-91 13c0 74 42 107 122 107c76 0 118 -32 118 -98 c0 -45 -23 -75 -66 -83c45 -3 69 -34 69 -85c0 -76 -42 -113 -124 -113zM677 75h-43v-75h-88v75h-133v67l114 221h107v-218h43v-70zM546 283l-68 -138h68v138z"/>
    <glyph glyph-name="uni2153" unicode="⅓" horiz-adv-x="651" d="M73 -17l355 744h88l-352 -744h-91zM82 347v245c-14 -9 -36 -15 -55 -15h-11v86h8c35 0 66 14 76 47h73v-363h-91zM507 -8c-81 0 -120 33 -120 113l91 10c0 -41 9 -52 30 -52s31 12 31 44c0 35 -14 46 -47 46h-9v67h9c31 0 45 12 45 46c0 26 -10 35 -28 35 c-20 0 -30 -13 -30 -50l-91 13c0 74 42 107 122 107c76 0 118 -32 118 -98c0 -45 -23 -75 -66 -83c45 -3 69 -34 69 -85c0 -76 -42 -113 -124 -113z"/>
    <glyph glyph-name="uni2154" unicode="⅔" horiz-adv-x="715" d="M138 -17l354 744h88l-352 -744h-90zM19 347v68c79 64 147 129 147 196c0 24 -9 36 -27 36c-19 0 -29 -12 -29 -37c0 -9 0 -18 1 -27l-92 12c-1 7 -1 14 -1 22c0 64 45 101 127 101c78 0 116 -34 116 -103c0 -80 -61 -140 -137 -194h138v-74h-243zM570 -8 c-81 0 -120 33 -120 113l91 10c0 -41 9 -52 30 -52s31 12 31 44c0 35 -14 46 -47 46h-9v67h9c31 0 45 12 45 46c0 26 -10 35 -28 35c-20 0 -30 -13 -30 -50l-91 13c0 74 42 107 122 107c76 0 118 -32 118 -98c0 -45 -23 -75 -66 -83c45 -3 69 -34 69 -85 c0 -76 -42 -113 -124 -113z"/>
    <glyph glyph-name="oneeighth" unicode="⅛" horiz-adv-x="663" d="M428 727h88l-352 -744h-91zM82 347v245c-14 -9 -36 -15 -55 -15h-11v86h8c35 0 66 14 76 47h73v-363h-91zM584 198c42 -20 60 -48 60 -93c0 -71 -49 -113 -127 -113c-81 0 -128 37 -128 102c0 42 21 71 65 83c-40 19 -58 49 -58 96c0 60 45 98 120 98 c73 0 118 -37 118 -97c0 -34 -13 -60 -50 -76zM516 309c-22 0 -31 -11 -31 -38c0 -28 10 -39 36 -48l7 -3c13 9 17 23 17 51c0 26 -7 38 -29 38zM517 60c25 0 34 12 34 45c0 29 -8 38 -38 49l-8 3c-19 -9 -24 -24 -24 -52c0 -33 12 -45 36 -45z"/>
    <glyph glyph-name="threeeighths" unicode="⅜" horiz-adv-x="724" d="M489 727h88l-352 -744h-91zM261 452c0 -76 -42 -113 -124 -113c-81 0 -120 33 -120 113l91 10c0 -41 9 -52 30 -52s31 12 31 44c0 34 -14 46 -47 46h-9v67h9c31 0 45 12 45 46c0 26 -10 35 -28 35c-20 0 -30 -13 -30 -50l-91 13c0 74 42 107 122 107 c76 0 118 -32 118 -98c0 -45 -23 -75 -66 -83c45 -3 69 -34 69 -85zM645 198c42 -20 60 -48 60 -93c0 -71 -49 -113 -127 -113c-81 0 -128 37 -128 102c0 42 21 71 65 83c-40 19 -58 49 -58 96c0 60 45 98 120 98c73 0 118 -37 118 -97c0 -34 -13 -60 -50 -76zM577 309 c-22 0 -31 -11 -31 -38c0 -28 10 -39 36 -48l7 -3c13 9 17 23 17 51c0 26 -7 38 -29 38zM578 60c25 0 34 12 34 45c0 29 -8 38 -38 49l-8 3c-19 -9 -24 -24 -24 -52c0 -33 12 -45 36 -45z"/>
    <glyph glyph-name="fiveeighths" unicode="⅝" horiz-adv-x="725" d="M490 727h88l-352 -744h-91zM264 472c0 -93 -38 -133 -121 -133c-79 0 -123 36 -123 105l92 11c0 -35 9 -46 31 -46c21 0 29 14 29 60c0 42 -9 56 -30 56c-17 0 -27 -8 -32 -25l-84 7l13 203h207v-75h-134l-6 -68c14 18 37 28 68 28c60 0 90 -38 90 -123zM646 198 c42 -20 60 -48 60 -93c0 -71 -49 -113 -127 -113c-81 0 -128 37 -128 102c0 42 21 71 65 83c-40 19 -58 49 -58 96c0 60 45 98 120 98c73 0 118 -37 118 -97c0 -34 -13 -60 -50 -76zM578 309c-22 0 -31 -11 -31 -38c0 -28 10 -39 36 -48l7 -3c13 9 17 23 17 51 c0 26 -7 38 -29 38zM579 60c25 0 34 12 34 45c0 29 -8 38 -38 49l-8 3c-19 -9 -24 -24 -24 -52c0 -33 12 -45 36 -45z"/>
    <glyph glyph-name="seveneighths" unicode="⅞" horiz-adv-x="681" d="M446 727h88l-352 -744h-91zM61 347v26c0 96 32 191 93 261h-140v76h229v-61c-55 -58 -88 -149 -88 -241v-61h-94zM602 198c42 -20 60 -48 60 -93c0 -71 -49 -113 -127 -113c-81 0 -128 37 -128 102c0 42 21 71 65 83c-40 19 -58 49 -58 96c0 60 45 98 120 98 c73 0 118 -37 118 -97c0 -34 -13 -60 -50 -76zM534 309c-22 0 -31 -11 -31 -38c0 -28 10 -39 36 -48l7 -3c13 9 17 23 17 51c0 26 -7 38 -29 38zM535 60c25 0 34 12 34 45c0 29 -8 38 -38 49l-8 3c-19 -9 -24 -24 -24 -52c0 -33 12 -45 36 -45z"/>
    <glyph glyph-name="percent" unicode="%" horiz-adv-x="647" d="M84 -14l398 742h86l-396 -742h-88zM152 340c-86 0 -139 50 -139 137v99c0 87 53 136 140 136c85 0 139 -49 139 -137v-98c0 -88 -54 -137 -140 -137zM152 416c25 0 37 20 37 60v99c0 40 -13 60 -36 60c-24 0 -37 -19 -37 -59v-100c0 -40 13 -60 36 -60zM494 -11 c-86 0 -139 50 -139 137v99c0 87 53 136 140 136c85 0 139 -49 139 -137v-98c0 -88 -54 -137 -140 -137zM494 66c25 0 37 19 37 59v99c0 40 -13 61 -36 61c-24 0 -37 -20 -37 -60v-100c0 -40 13 -59 36 -59z"/>
    <glyph glyph-name="perthousand" unicode="‰" horiz-adv-x="958" d="M84 -14l398 742h86l-396 -742h-88zM152 340c-86 0 -139 50 -139 137v99c0 87 53 136 140 136c85 0 139 -49 139 -137v-98c0 -88 -54 -137 -140 -137zM152 416c25 0 37 20 37 60v99c0 40 -13 60 -36 60c-24 0 -37 -19 -37 -59v-100c0 -40 13 -60 36 -60zM494 -11 c-86 0 -139 50 -139 137v99c0 87 53 136 140 136c85 0 139 -49 139 -137v-98c0 -88 -54 -137 -140 -137zM805 -11c-86 0 -139 50 -139 137v99c0 87 53 136 140 136c85 0 138 -49 138 -137v-98c0 -88 -53 -137 -139 -137zM494 66c25 0 37 19 37 59v99c0 40 -13 61 -36 61 c-24 0 -37 -20 -37 -60v-100c0 -40 13 -59 36 -59zM805 66c25 0 37 19 37 59v99c0 40 -13 61 -37 61c-23 0 -36 -20 -36 -60v-100c0 -40 13 -59 36 -59z"/>
    <glyph glyph-name="uni03BC" unicode="μ" horiz-adv-x="451" d="M271 500h132v-500h-127v78c-18 -58 -56 -89 -112 -90v-183h-115v695h134v-349c0 -43 13 -63 41 -63c30 0 47 30 47 85v327z"/>
    <glyph glyph-name="numbersign" unicode="#" horiz-adv-x="519" d="M517 414h-104l-22 -132h92v-92h-107l-32 -190h-101l31 190h-81l-31 -190h-101l31 190h-91v92h107l21 132h-88v91h103l31 186h101l-31 -186h81l31 186h102l-31 -186h89v-91zM290 282l21 132h-81l-21 -132h81z"/>
    <glyph glyph-name="uni2116" unicode="№" horiz-adv-x="895" d="M51 0v710h149l119 -345c11 -35 21 -71 29 -106h2c-3 52 -5 104 -5 157v294h122v-710h-134l-130 374c-14 42 -23 76 -31 112h-3c3 -46 5 -90 5 -138v-348h-123zM681 168c-107 0 -169 65 -169 175v131c0 111 62 175 169 175c106 0 167 -64 167 -175v-131 c0 -110 -61 -175 -167 -175zM681 264c32 0 49 27 49 75v139c0 49 -17 75 -49 75c-33 0 -51 -26 -51 -75v-139c0 -48 18 -75 51 -75zM511 0v102h339v-102h-339z"/>
    <glyph glyph-name="uni0394" unicode="Δ" horiz-adv-x="457" d="M13 0l123 710h189l120 -710h-432zM229 590l-71 -492h136z"/>
    <glyph glyph-name="uni03A9" unicode="Ω" horiz-adv-x="481" d="M446 0h-175l-10 265c30 8 48 42 48 90v185c0 49 -26 80 -68 80c-43 0 -69 -31 -69 -80v-185c0 -48 18 -82 49 -90l-11 -265h-174v107h81l5 86c-52 19 -84 76 -84 153v187c0 117 79 191 203 191c123 0 202 -74 202 -191v-187c0 -77 -31 -134 -84 -153l5 -86h82v-107z"/>
    <glyph glyph-name="pi" unicode="π" horiz-adv-x="482" d="M468 -2c-6 -2 -36 -8 -60 -8c-107 0 -129 64 -129 133v287h-75v-410h-130v410h-61v90h456v-90h-60v-271c0 -38 10 -52 35 -52c11 0 19 2 24 2v-91z"/>
    <glyph glyph-name="plus" unicode="+" horiz-adv-x="428" d="M397 379v-100h-131v-145h-105v145h-129v100h129v134h105v-134h131z"/>
    <glyph glyph-name="minus" unicode="−" horiz-adv-x="428" d="M32 279v100h365v-100h-365z"/>
    <glyph glyph-name="plusminus" unicode="±" d="M284 369h132v-100h-132v-132h-106v132h-130v100h130v129h106v-129zM48 0v98h368v-98h-368z"/>
    <glyph glyph-name="multiply" unicode="×" d="M418 201l-71 -72l-116 127l-116 -126l-70 70l118 129l-116 127l71 71l113 -123l113 123l72 -71l-117 -126z"/>
    <glyph glyph-name="divide" unicode="÷" horiz-adv-x="428" d="M213 421c-37 0 -63 26 -63 64c0 37 26 63 63 63s63 -25 63 -63s-26 -64 -63 -64zM32 279v100h365v-100h-365zM213 111c-37 0 -63 25 -63 63s26 63 63 63s63 -24 63 -63c0 -37 -26 -63 -63 -63z"/>
    <glyph glyph-name="equal" unicode="=" horiz-adv-x="428" d="M32 363v100h365v-100h-365zM32 195v100h365v-100h-365z"/>
    <glyph glyph-name="less" unicode="&lt;" d="M374 97l-323 173v112l323 173v-120l-219 -108l219 -108v-122z"/>
    <glyph glyph-name="greater" unicode="&gt;" d="M90 97v122l219 108l-219 108v120l323 -173v-112z"/>
    <glyph glyph-name="degree" unicode="°" horiz-adv-x="326" d="M163 408c-82 0 -133 55 -133 143v23c0 89 50 143 133 143c82 0 133 -54 133 -143v-23c0 -88 -51 -143 -133 -143zM163 484c29 0 43 20 43 63v31c0 43 -14 63 -43 63s-44 -21 -44 -63v-31c0 -42 15 -63 44 -63z"/>
    <glyph glyph-name="approxequal" unicode="≈" d="M321 345c-63 0 -115 44 -171 44c-32 0 -69 -16 -92 -37v106c20 21 57 37 86 37c73 0 114 -44 170 -44c33 0 70 15 91 37v-106c-19 -22 -54 -37 -84 -37zM321 173c-63 0 -115 44 -171 44c-32 0 -68 -15 -92 -37v106c20 21 57 37 86 37c73 0 114 -44 170 -44 c33 0 70 16 91 37v-106c-19 -21 -54 -37 -84 -37z"/>
    <glyph glyph-name="greaterequal" unicode="≥" d="M71 124v122l219 108l-219 109v120l323 -174v-112zM394 100v-100h-323v100h323z"/>
    <glyph glyph-name="infinity" unicode="∞" horiz-adv-x="508" d="M359 470c71 0 123 -49 123 -135v-12c0 -86 -50 -136 -120 -136c-47 0 -80 26 -106 64c-27 -41 -58 -64 -106 -64c-71 0 -123 49 -123 135v13c0 85 50 135 119 135c48 0 80 -25 107 -63c26 40 58 63 106 63zM153 275c28 0 45 22 60 53c-14 31 -31 55 -59 55 c-22 0 -37 -16 -37 -51v-6c0 -35 14 -51 36 -51zM392 326v6c0 35 -14 51 -37 51c-28 0 -44 -22 -59 -53c13 -31 30 -55 59 -55c22 0 37 16 37 51z"/>
    <glyph glyph-name="lessequal" unicode="≤" d="M393 124l-323 173v112l323 174v-120l-219 -109l219 -108v-122zM70 100h323v-100h-323v100z"/>
    <glyph glyph-name="logicalnot" unicode="¬" d="M57 385h350v-259h-104v156h-246v103z"/>
    <glyph glyph-name="notequal" unicode="≠" d="M414 363h-128l-26 -68h154v-100h-193l-42 -109h-75l42 109h-96v100h135l27 68h-162v100h200l38 97h74l-37 -97h89v-100z"/>
    <glyph glyph-name="integral" unicode="∫" horiz-adv-x="426" d="M98 -116c-16 0 -33 1 -51 4v110c11 -1 22 -3 31 -3c49 0 70 25 70 78v473c0 120 56 186 182 186c15 0 32 -1 51 -4v-110c-12 2 -22 3 -32 3c-50 0 -66 -27 -66 -83v-473c0 -118 -60 -181 -185 -181z"/>
    <glyph glyph-name="partialdiff" unicode="∂" horiz-adv-x="453" d="M166 718c162 0 248 -117 248 -330v-158c0 -166 -62 -244 -192 -244c-123 0 -187 70 -187 208v62c0 130 53 198 144 198c47 0 82 -19 106 -51c0 133 -47 205 -130 205c-19 0 -36 -4 -58 -13l-37 102c28 12 65 21 106 21zM225 82c39 0 60 35 60 104v143 c-13 19 -34 30 -58 30c-39 0 -59 -33 -59 -113v-74c0 -59 21 -90 57 -90z"/>
    <glyph glyph-name="product" unicode="∏" horiz-adv-x="490" d="M306 -88v685h-121v-685h-135v793h391v-793h-135z"/>
    <glyph glyph-name="radical" unicode="√" horiz-adv-x="496" d="M14 337h161l56 -275l125 672h127l-174 -828h-150l-79 323h-66v108z"/>
    <glyph glyph-name="summation" unicode="∑" horiz-adv-x="415" d="M32 -88v111l162 304l-149 268v110h324v-109h-179l148 -269l-166 -305h209v-110h-349z"/>
    <glyph glyph-name="lozenge" unicode="◊" horiz-adv-x="507" d="M305 -17h-104l-184 372l184 372h104l185 -372zM252 620l-119 -265l119 -265l123 265z"/>
    <glyph glyph-name="zero.tf" d="M232 -15c-120 0 -193 69 -193 222v280c0 154 73 223 193 223c119 0 193 -69 193 -223v-280c0 -153 -74 -222 -193 -222zM232 88c36 0 57 27 58 101v317c-1 74 -22 101 -58 101c-37 0 -58 -27 -58 -101v-317c0 -74 21 -101 58 -101z"/>
    <glyph glyph-name="one.tf" d="M304 107h107v-107h-356v107h116v402c-16 -20 -46 -30 -83 -30h-28v129h24c56 0 97 31 113 87h107v-588z"/>
    <glyph glyph-name="two.tf" d="M45 0v103c73 90 136 171 179 241c42 68 56 112 56 175v19c0 52 -20 66 -48 66c-33 0 -52 -22 -52 -74v-70l-135 16v45c0 120 73 189 188 189c113 0 183 -47 183 -170v-25c0 -63 -18 -115 -62 -188c-38 -63 -93 -139 -157 -218h225v-109h-377z"/>
    <glyph glyph-name="three.tf" d="M233 -15c-125 0 -191 61 -192 193v33l135 15v-46c0 -66 19 -90 55 -90s54 28 54 87v32c0 69 -23 98 -69 98h-24v104h23c44 0 64 31 64 93v26c0 55 -17 76 -50 76c-35 0 -52 -23 -52 -85v-52l-134 18v33c0 126 70 190 188 190c115 0 184 -46 184 -166v-33 c0 -75 -32 -132 -101 -148c75 -11 106 -69 106 -148v-37c0 -127 -68 -193 -187 -193z"/>
    <glyph glyph-name="four.tf" d="M241 0v152h-217v100l188 443h158v-438h70v-105h-70v-152h-129zM129 257h112v195c0 32 0 63 3 106h-2c-8 -42 -16 -68 -29 -104l-58 -142c-9 -23 -17 -41 -26 -55z"/>
    <glyph glyph-name="five.tf" d="M234 -15c-126 0 -189 65 -189 179v27l135 15v-28c0 -58 17 -87 54 -87c39 0 54 34 54 99v71c0 66 -13 109 -53 109c-33 0 -51 -24 -56 -71l-124 12l19 384h322v-111h-217l-9 -176c19 37 51 64 112 64c88 0 140 -60 140 -202v-76c0 -145 -72 -209 -188 -209z"/>
    <glyph glyph-name="six.tf" d="M276 470c97 0 148 -64 148 -188v-91c0 -126 -63 -206 -188 -206c-136 0 -193 82 -193 252v244c0 164 70 229 195 229c119 0 181 -51 181 -155v-26l-134 -18v23c0 46 -13 77 -50 77c-41 0 -58 -32 -58 -120v-69c21 31 54 48 99 48zM289 187v91c0 58 -19 89 -54 89 c-28 0 -46 -17 -58 -49v-113c0 -87 20 -118 58 -118c35 0 54 28 54 100z"/>
    <glyph glyph-name="seven.tf" d="M131 0v37c0 199 52 384 154 545h-233v113h358v-92c-91 -135 -140 -311 -140 -519v-84h-139z"/>
    <glyph glyph-name="eight.tf" d="M326 379c67 -32 99 -77 99 -164v-46c0 -113 -74 -184 -192 -184c-123 0 -195 67 -195 183v35c0 66 30 117 96 144c-56 29 -86 75 -86 154v39c0 104 72 170 183 170c113 0 182 -62 182 -167v-29c0 -66 -23 -108 -87 -135zM178 546v-55c0 -41 20 -61 59 -77l10 -4 c25 16 35 39 35 77v58c0 49 -17 72 -51 72c-35 0 -53 -22 -53 -71zM290 161v65c0 47 -16 64 -62 83l-12 5c-30 -17 -42 -41 -42 -84v-68c0 -51 21 -76 59 -76s57 25 57 75z"/>
    <glyph glyph-name="nine.tf" d="M227 710c136 0 193 -78 193 -247v-233c0 -170 -61 -245 -194 -245c-117 0 -185 63 -185 160v33l134 21v-31c0 -54 19 -84 54 -84c43 0 57 33 57 126v79c-21 -25 -53 -39 -97 -39c-99 0 -152 60 -152 182v78c0 127 64 200 190 200zM228 353c27 0 46 15 58 46v108 c0 73 -20 104 -59 104c-36 0 -56 -27 -56 -95v-77c0 -57 19 -86 57 -86z"/>
    <glyph glyph-name="zero.tf.zero" d="M232 710c119 0 193 -69 193 -223v-280c0 -153 -74 -222 -193 -222c-120 0 -193 69 -193 222v280c0 154 73 223 193 223zM232 607c-37 0 -58 -27 -58 -101v-237l113 277c-7 44 -26 61 -55 61zM232 88c36 0 57 27 58 101v239l-113 -278c6 -45 25 -62 55 -62z"/>
    <glyph glyph-name="dollar.tf" d="M309 374c88 -56 125 -106 125 -190v-21c0 -106 -69 -170 -182 -177v-93h-42v93c-108 6 -180 69 -180 182v44l114 27v-57c0 -58 25 -91 66 -100v215l-59 38c-69 45 -113 98 -113 183v26c0 103 68 159 172 165v84h42v-84c107 -7 174 -67 174 -178v-37l-114 -25v45 c0 65 -20 95 -60 103v-206zM151 532c0 -42 19 -66 59 -94v180c-37 -6 -59 -28 -59 -69v-17zM314 161v14c0 39 -23 65 -62 94v-188c40 6 62 33 62 80z"/>
    <glyph glyph-name="cent.tf" d="M423 314l-114 -19v36c0 56 -19 80 -52 88v-337c33 8 52 33 52 87v43l114 -25v-33c0 -102 -68 -158 -166 -165v-92h-48v92c-101 9 -168 77 -168 196v122c0 127 61 195 168 204v83h48v-83c100 -7 166 -61 166 -172v-25zM155 182c0 -60 19 -90 54 -99v335 c-35 -8 -54 -38 -54 -100v-136z"/>
    <glyph glyph-name="sterling.tf" d="M316 194l129 -24c-4 -117 -62 -185 -153 -185c-54 0 -88 23 -144 23c-28 0 -54 -6 -84 -16l-48 104c59 32 89 84 89 166c0 20 -1 38 -4 54h-72v74h55c-11 38 -22 76 -22 128c0 126 66 192 186 192c115 0 177 -57 177 -179v-36l-133 -25v63c0 52 -16 75 -47 75 c-33 0 -47 -22 -47 -74c0 -56 13 -99 23 -144h97v-74h-85c1 -10 1 -20 1 -30c0 -91 -32 -142 -91 -175c14 4 27 5 40 5c36 0 51 -12 77 -12c34 0 53 30 56 90z"/>
    <glyph glyph-name="florin.tf" d="M351 710c23 0 45 -3 57 -6v-105c-10 2 -24 3 -38 3c-45 0 -58 -27 -67 -99l-10 -75h76v-88h-87l-62 -490h-142l62 490h-75v88h86l8 66c20 157 73 216 192 216z"/>
    <glyph glyph-name="yen.tf" d="M443 695l-130 -373h98v-67h-111v-62h111v-66h-111v-127h-136v127h-111v66h111v62h-111v67h98l-130 373h143l52 -221c7 -27 11 -52 14 -87h4c3 35 7 60 13 87l53 221h143z"/>
    <glyph glyph-name="Euro.tf" d="M308 208l132 -29v-16c0 -114 -76 -178 -190 -178c-126 0 -195 80 -195 222v54h-46v61h46v66h-46v60h46v47c0 139 71 215 198 215c112 0 185 -59 185 -173v-12l-131 -28v31c0 52 -23 77 -56 77c-40 0 -60 -31 -60 -94v-63h102v-60h-102v-66h102v-61h-102v-70 c0 -66 20 -100 61 -100c32 0 55 29 56 84v33z"/>
    <glyph glyph-name="percent.tf" d="M26 -12l349 733h68l-349 -733h-68zM133 420c-69 0 -111 42 -111 122v54c0 78 42 121 110 121c69 0 111 -43 111 -122v-54c0 -79 -42 -121 -110 -121zM133 488c20 0 28 15 28 44v72c0 30 -8 45 -28 45s-29 -15 -29 -45v-71c0 -30 9 -45 29 -45zM337 -10 c-70 0 -111 43 -111 122v54c0 78 41 121 110 121s111 -43 111 -121v-55c0 -78 -42 -121 -110 -121zM337 58c20 0 28 15 28 44v73c0 29 -8 44 -28 44s-29 -15 -29 -44v-72c0 -30 9 -45 29 -45z"/>
    <glyph glyph-name="perthousand.tf" d="M127 425c-66 0 -107 40 -107 117v52c0 77 41 117 109 117s107 -40 107 -117v-52c0 -77 -39 -117 -109 -117zM102 603v-71c0 -28 8 -41 26 -41c20 0 27 13 27 41v71c0 28 -7 42 -27 42c-18 0 -26 -14 -26 -42zM418 470v-64l-386 -132v64zM335 274c68 0 108 -40 108 -117 v-52c0 -77 -40 -117 -109 -117c-26 0 -47 7 -64 20c-16 -13 -38 -20 -64 -20c-67 0 -107 40 -107 117v52c0 77 41 117 108 117c26 0 47 -7 64 -19c16 12 38 19 64 19zM233 95v71c0 28 -7 42 -26 42s-27 -14 -27 -42v-71c0 -28 8 -41 27 -41s26 13 26 41zM361 95v71 c0 28 -7 42 -26 42s-27 -14 -27 -42v-71c0 -28 8 -41 27 -41s26 13 26 41z"/>
    <glyph glyph-name="uni0308" unicode="̈" horiz-adv-x="0" d="M-332 577v120h114v-120h-114zM-162 577v120h113v-120h-113z"/>
    <glyph glyph-name="uni0307" unicode="̇" horiz-adv-x="0" d="M-184 571v135h134v-135h-134z"/>
    <glyph glyph-name="gravecomb" unicode="̀" horiz-adv-x="0" d="M-12 570h-110l-112 151h137z"/>
    <glyph glyph-name="acutecomb" unicode="́" horiz-adv-x="0" d="M-269 570l85 151h137l-111 -151h-111z"/>
    <glyph glyph-name="uni030B" unicode="̋" horiz-adv-x="0" d="M-402 570l84 151h104l-105 -151h-83zM-261 570l84 151h105l-105 -151h-84z"/>
    <glyph glyph-name="uni0302" unicode="̂" horiz-adv-x="0" d="M-49 570h-105l-49 99l-50 -99h-104l83 151h141z"/>
    <glyph glyph-name="uni030C" unicode="̌" horiz-adv-x="0" d="M-357 716h104l50 -98l49 98h105l-84 -151h-141z"/>
    <glyph glyph-name="uni0306" unicode="̆" horiz-adv-x="0" d="M-254 707c1 -42 18 -65 51 -65s49 23 50 65h97c-2 -95 -55 -142 -147 -142s-146 47 -147 142h96z"/>
    <glyph glyph-name="uni030A" unicode="̊" horiz-adv-x="0" d="M-161 549c-68 0 -115 44 -115 108s47 109 115 109c66 0 113 -45 113 -109s-47 -108 -113 -108zM-161 613c25 0 41 18 41 44s-16 44 -41 44c-27 0 -42 -18 -42 -44s15 -44 42 -44z"/>
    <glyph glyph-name="tildecomb" unicode="̃" horiz-adv-x="0" d="M-150 573c-61 0 -87 53 -118 53c-18 0 -29 -16 -32 -47l-77 22c5 71 40 114 98 114c61 0 87 -53 118 -53c19 0 29 15 32 47l77 -22c-4 -71 -39 -114 -98 -114z"/>
    <glyph glyph-name="uni0304" unicode="̄" horiz-adv-x="0" d="M-337 592v94h287v-94h-287z"/>
    <glyph glyph-name="uni0312" unicode="̒" horiz-adv-x="0" d="M-95 747l26 -43c-29 -8 -41 -20 -41 -42h58v-93h-116v77c0 54 22 87 73 101z"/>
    <glyph glyph-name="uni0326" unicode="̦" horiz-adv-x="0" d="M-125 -215l-26 44c29 8 42 20 42 42h-58v93h115v-78c0 -53 -21 -86 -73 -101z"/>
    <glyph glyph-name="uni0327" unicode="̧" horiz-adv-x="0" d="M-228 2h80l-25 -51c9 8 25 13 44 13c45 0 75 -28 75 -81v-6c0 -56 -44 -90 -113 -90c-59 0 -99 25 -112 68l79 18c4 -18 15 -25 31 -25c18 0 28 11 28 34v4c0 20 -11 31 -28 31c-11 0 -21 -6 -26 -16l-69 14z"/>
    <glyph glyph-name="uni0328" unicode="̨" horiz-adv-x="0" d="M-61 -113c-9 -64 -60 -89 -120 -89c-66 0 -115 31 -115 94c0 43 25 79 74 108h116c-62 -23 -96 -56 -96 -98c0 -21 10 -34 28 -34s28 13 32 38z"/>
    <glyph glyph-name="uni2003" unicode=" " horiz-adv-x="1000"/>
    <glyph glyph-name="uni2002" unicode=" " horiz-adv-x="500"/>
    <glyph glyph-name="uni2005" unicode=" " horiz-adv-x="250"/>
    <glyph glyph-name="uni200A" unicode=" " horiz-adv-x="75"/>
    <glyph glyph-name="uni00A0" unicode=" " horiz-adv-x="167"/>
    <glyph glyph-name="uni2009" unicode=" " horiz-adv-x="135"/>
    <glyph glyph-name="uni2004" unicode=" " horiz-adv-x="333"/>
    <glyph glyph-name="uni0243" unicode="Ƀ" horiz-adv-x="469" d="M346 366c62 -19 99 -68 99 -154v-21c0 -94 -40 -158 -121 -181v-117h-63v107h-12h-46v-107h-62v107h-90v695h90v90h62v-90h42h16v90h63v-100c76 -23 112 -81 112 -162v-22c0 -68 -32 -119 -90 -135zM298 520c0 58 -20 81 -68 81h-45v-203h46c50 0 67 31 67 99v23zM239 95 c48 0 67 31 67 98v25c0 69 -22 93 -70 93h-51v-216h54z"/>
    <glyph glyph-name="uni20BF.case" horiz-adv-x="469" d="M346 374c62 -19 99 -69 99 -157v-23c0 -95 -40 -161 -121 -184v-99h-63v89h-12h-46v-89h-62v89h-90v710h90v82h62v-82h42h16v82h63v-92c76 -23 112 -83 112 -166v-22c0 -70 -32 -122 -90 -138zM298 531c0 60 -20 84 -68 84h-45v-209h46c50 0 67 32 67 102v23zM239 95 c48 0 67 32 67 101v27c0 71 -22 95 -70 95h-51v-223h54z"/>
    <glyph glyph-name="uni20BF.tf" d="M335 365c62 -19 101 -67 101 -153v-22c0 -97 -42 -156 -117 -179v-118h-62v107h-19h-39v-107h-62v107h-85v695h85v90h62v-90h36c8 0 15 0 22 -1v91h62v-102c70 -22 108 -76 108 -159v-23c0 -70 -34 -120 -92 -136zM290 521c0 61 -23 79 -65 79h-40v-203h40 c43 0 65 28 65 100v24zM232 95c45 0 66 28 66 98v26c0 69 -23 92 -68 92h-45v-216h47z"/>
    <glyph glyph-name="uni20BF.tf.case" d="M335 373c62 -19 101 -67 101 -155v-26c0 -97 -42 -158 -117 -181v-99h-62v89c-6 -1 -13 -1 -19 -1h-39v-88h-62v88h-85v710h85v79h62v-79h36c8 0 15 0 22 -1v80h62v-91c70 -22 108 -76 108 -161v-25c0 -72 -34 -122 -92 -139zM290 534c0 62 -23 81 -65 81h-40v-209h40 c43 0 65 29 65 103v25zM232 95c45 0 66 29 66 100v30c0 70 -23 94 -68 94h-45v-224h47z"/>
    <glyph glyph-name="g.ss01" horiz-adv-x="444" d="M216 -207c-109 0 -180 42 -180 147v18h133v-4c0 -50 16 -68 47 -68c34 0 48 26 48 79v112c-21 -60 -56 -83 -104 -83c-76 0 -125 61 -125 176v141c0 143 57 201 133 201c55 0 88 -30 103 -81l12 69h112v-523c0 -125 -61 -184 -179 -184zM216 92c34 0 49 29 49 93v137 c0 64 -17 92 -49 92c-34 0 -48 -29 -48 -101v-125c0 -70 17 -96 48 -96z"/>
    <glyph glyph-name="gbreve.ss01" horiz-adv-x="444" d="M170 707c1 -42 18 -65 51 -65s49 23 50 65h97c-2 -95 -55 -142 -147 -142s-146 47 -147 142h96zM216 -207c-109 0 -180 42 -180 147v18h133v-4c0 -50 16 -68 47 -68c34 0 48 26 48 79v112c-21 -60 -56 -83 -104 -83c-76 0 -125 61 -125 176v141c0 143 57 201 133 201 c55 0 88 -30 103 -81l12 69h112v-523c0 -125 -61 -184 -179 -184zM216 92c34 0 49 29 49 93v137c0 64 -17 92 -49 92c-34 0 -48 -29 -48 -101v-125c0 -70 17 -96 48 -96z"/>
    <glyph glyph-name="gcircumflex.ss01" horiz-adv-x="444" d="M376 570h-105l-49 99l-50 -99h-104l83 151h141zM216 -207c-109 0 -180 42 -180 147v18h133v-4c0 -50 16 -68 47 -68c34 0 48 26 48 79v112c-21 -60 -56 -83 -104 -83c-76 0 -125 61 -125 176v141c0 143 57 201 133 201c55 0 88 -30 103 -81l12 69h112v-523 c0 -125 -61 -184 -179 -184zM216 92c34 0 49 29 49 93v137c0 64 -17 92 -49 92c-34 0 -48 -29 -48 -101v-125c0 -70 17 -96 48 -96z"/>
    <glyph glyph-name="uni0123.ss01" horiz-adv-x="444" d="M232 747l26 -43c-29 -8 -41 -20 -41 -42h58v-93h-116v77c0 54 22 87 73 101zM216 -207c-109 0 -180 42 -180 147v18h133v-4c0 -50 16 -68 47 -68c34 0 48 26 48 79v112c-21 -60 -56 -83 -104 -83c-76 0 -125 61 -125 176v141c0 143 57 201 133 201c55 0 88 -30 103 -81 l12 69h112v-523c0 -125 -61 -184 -179 -184zM216 92c34 0 49 29 49 93v137c0 64 -17 92 -49 92c-34 0 -48 -29 -48 -101v-125c0 -70 17 -96 48 -96z"/>
    <glyph glyph-name="gdotaccent.ss01" horiz-adv-x="444" d="M154 571v135h134v-135h-134zM216 -207c-109 0 -180 42 -180 147v18h133v-4c0 -50 16 -68 47 -68c34 0 48 26 48 79v112c-21 -60 -56 -83 -104 -83c-76 0 -125 61 -125 176v141c0 143 57 201 133 201c55 0 88 -30 103 -81l12 69h112v-523c0 -125 -61 -184 -179 -184z M216 92c34 0 49 29 49 93v137c0 64 -17 92 -49 92c-34 0 -48 -29 -48 -101v-125c0 -70 17 -96 48 -96z"/>
    <glyph glyph-name="g_g.liga.ss01" horiz-adv-x="887" d="M216 -207c-109 0 -180 42 -180 147v18h133v-4c0 -50 16 -68 47 -68c34 0 48 26 48 79v112c-21 -60 -56 -83 -104 -83c-76 0 -125 61 -125 176v141c0 143 57 201 133 201c55 0 88 -30 103 -81l12 69h112v-523c0 -125 -61 -184 -179 -184zM660 -207 c-109 0 -180 42 -180 147v18h133v-4c0 -50 16 -68 47 -68c34 0 48 26 48 79v112c-21 -60 -56 -83 -104 -83c-76 0 -125 61 -125 176v141c0 143 57 201 133 201c55 0 88 -30 103 -81l12 69h112v-523c0 -125 -61 -184 -179 -184zM216 92c34 0 49 29 49 93v137 c0 64 -17 92 -49 92c-34 0 -48 -29 -48 -101v-125c0 -70 17 -96 48 -96zM660 92c34 0 49 29 49 93v137c0 64 -17 92 -49 92c-34 0 -48 -29 -48 -101v-125c0 -70 17 -96 48 -96z"/>
    <glyph glyph-name="g.sups.ss01" horiz-adv-x="382" d="M187 159c-91 0 -150 27 -150 110v14h116v-1c0 -35 12 -47 34 -47c24 0 33 17 33 51v82c-16 -44 -46 -60 -83 -60c-59 0 -99 41 -99 121v106c0 112 49 149 106 149c44 0 69 -24 80 -58l10 49h101v-375c0 -97 -50 -141 -148 -141zM189 389c21 0 32 17 32 53v106 c0 38 -12 55 -32 55c-24 0 -34 -19 -34 -64v-91c0 -44 13 -59 34 -59z"/>
    <glyph glyph-name="a.sups" horiz-adv-x="355" d="M120 301c-58 0 -96 35 -96 105c0 74 36 103 118 120l59 13v40c0 24 -9 34 -27 34c-19 0 -29 -12 -29 -56h-113c0 89 54 127 142 127c97 0 140 -35 140 -119v-175c0 -37 2 -62 6 -80h-108c-2 15 -4 38 -4 50c-6 -36 -41 -59 -88 -59zM170 376c19 0 32 15 32 38v67l-26 -7 c-22 -5 -33 -20 -33 -56c0 -29 9 -42 27 -42z"/>
    <glyph glyph-name="b.sups" horiz-adv-x="380" d="M240 301c-42 0 -71 18 -84 53l-8 -44h-101v529h113v-209c14 32 43 54 88 54c61 0 97 -45 97 -118v-124c0 -91 -36 -141 -105 -141zM193 381c22 0 33 18 33 53v118c0 36 -11 52 -34 52c-21 0 -33 -15 -33 -49v-124c0 -34 12 -50 34 -50z"/>
    <glyph glyph-name="c.sups" horiz-adv-x="353" d="M182 301c-95 0 -151 53 -151 154v64c0 114 54 165 150 165c94 0 145 -38 145 -135l-115 -20c0 64 -10 77 -30 77c-21 0 -32 -13 -32 -71v-88c0 -53 11 -67 32 -67s30 14 30 82l115 -24c0 -91 -58 -137 -144 -137z"/>
    <glyph glyph-name="d.sups" horiz-adv-x="380" d="M138 301c-63 0 -103 49 -103 125v123c0 89 39 135 105 135c40 0 68 -16 80 -52v207h113v-529h-108v48c-16 -37 -45 -57 -87 -57zM188 381c22 0 33 17 33 49v125c0 34 -11 49 -33 49c-23 0 -33 -18 -33 -52v-118c0 -34 10 -53 33 -53z"/>
    <glyph glyph-name="e.sups" horiz-adv-x="359" d="M329 474h-181v-45c0 -35 12 -50 35 -50c20 0 33 13 33 63l113 -14c0 -86 -59 -127 -147 -127c-96 0 -151 52 -151 141v96c0 95 53 146 150 146s148 -45 148 -148v-62zM180 621c-21 0 -32 -14 -32 -49v-43h62v27c0 52 -10 65 -30 65z"/>
    <glyph glyph-name="f.sups" horiz-adv-x="251" d="M232 675v-76h-58v-289h-113v289h-41v76h41v49c0 82 41 120 129 120c12 0 28 -1 42 -3v-87c-10 1 -13 2 -20 2c-26 0 -38 -13 -38 -42v-39h58z"/>
    <glyph glyph-name="g.sups" horiz-adv-x="336" d="M221 392c67 -8 103 -42 103 -102v-13c0 -74 -59 -118 -161 -118c-87 0 -142 31 -142 82v7c0 31 20 53 55 64c-29 12 -45 35 -45 65c0 38 24 61 60 69c-42 17 -64 51 -64 99v25c0 73 49 114 137 114c21 0 41 -2 57 -7c10 40 38 61 81 61c7 0 12 0 19 -2v-79 c-12 3 -22 4 -32 4s-19 -2 -27 -4c25 -20 38 -49 38 -87v-25c0 -73 -47 -112 -135 -112c-16 0 -32 1 -45 4c-4 -3 -6 -7 -6 -14c0 -12 9 -18 32 -22zM132 587v-64c0 -24 12 -38 31 -38s30 14 30 38v64c0 26 -11 39 -30 39c-20 0 -31 -13 -31 -39zM225 253v9 c0 19 -11 32 -35 35l-72 5c-3 -5 -5 -12 -5 -21v-14c0 -33 20 -49 56 -49c35 0 56 13 56 35z"/>
    <glyph glyph-name="h.sups" horiz-adv-x="379" d="M47 310v529h113v-217c15 40 49 62 93 62c56 0 84 -34 84 -105v-269h-116v251c0 29 -9 41 -28 41c-22 0 -33 -16 -33 -50v-242h-113z"/>
    <glyph glyph-name="i.sups" horiz-adv-x="201" d="M44 722v108h113v-108h-113zM46 310v365h109v-365h-109z"/>
    <glyph glyph-name="j.sups" horiz-adv-x="207" d="M44 722v108h113v-108h-113zM42 164c-15 0 -36 2 -46 4v89c7 -1 15 -2 22 -2c22 0 29 11 29 37v383h114v-395c0 -80 -25 -116 -119 -116z"/>
    <glyph glyph-name="k.sups" horiz-adv-x="370" d="M234 310l-45 163l-29 -64v-99h-113v529h113v-322l70 158h121l-75 -135l79 -230h-121z"/>
    <glyph glyph-name="l.sups" horiz-adv-x="207" d="M160 839v-529h-113v529h113z"/>
    <glyph glyph-name="m.sups" horiz-adv-x="540" d="M47 675h109v-52c15 41 44 61 87 61c44 0 69 -19 80 -62c17 42 45 62 89 62c57 0 86 -37 86 -112v-262h-114v253c0 28 -9 39 -26 39c-20 0 -30 -16 -30 -48v-244h-113v253c0 27 -7 39 -25 39c-20 0 -30 -15 -30 -46v-246h-113v365z"/>
    <glyph glyph-name="n.sups" horiz-adv-x="379" d="M47 310v365h109v-57c14 43 47 66 94 66c60 0 87 -33 87 -105v-269h-116v251c0 29 -9 41 -29 41c-22 0 -32 -15 -32 -47v-245h-113z"/>
    <glyph glyph-name="o.sups" horiz-adv-x="366" d="M183 301c-94 0 -152 49 -152 139v105c0 90 58 139 152 139s153 -49 153 -139v-105c0 -90 -59 -139 -153 -139zM183 376c23 0 34 14 34 51v131c0 37 -11 51 -34 51c-22 0 -34 -14 -34 -51v-131c0 -37 12 -51 34 -51z"/>
    <glyph glyph-name="p.sups" horiz-adv-x="380" d="M47 168v507h109v-48c15 37 49 57 90 57c63 0 99 -45 99 -118v-130c0 -86 -38 -135 -101 -135c-44 0 -70 16 -84 50v-183h-113zM193 381c21 0 33 17 33 53v118c0 37 -11 52 -34 52s-33 -16 -33 -51v-122c0 -33 11 -50 34 -50z"/>
    <glyph glyph-name="q.sups" horiz-adv-x="380" d="M219 168v189c-17 -36 -43 -56 -85 -56c-61 0 -99 45 -99 120v134c0 86 37 129 102 129c44 0 76 -20 87 -53l9 44h100v-507h-114zM187 381c23 0 34 15 34 50v125c0 34 -11 48 -33 48c-23 0 -33 -15 -33 -52v-118c0 -36 10 -53 32 -53z"/>
    <glyph glyph-name="r.sups" horiz-adv-x="265" d="M150 596c10 48 39 87 93 87c3 0 4 0 7 -1v-118c-9 1 -16 2 -26 2c-20 0 -34 -3 -47 -15c-12 -11 -17 -28 -17 -54v-187h-113v365h103v-79z"/>
    <glyph glyph-name="s.sups" horiz-adv-x="326" d="M166 301c-96 0 -143 37 -145 113l113 15c0 -39 8 -54 31 -54c17 0 24 9 24 33c0 25 -8 35 -48 47l-13 4c-76 23 -102 55 -102 119c0 66 50 106 137 106c86 0 134 -36 136 -107l-111 -11c-1 35 -9 48 -26 48c-16 0 -23 -11 -23 -30c0 -26 7 -34 45 -47l22 -8 c75 -25 97 -50 97 -116c0 -73 -47 -112 -137 -112z"/>
    <glyph glyph-name="t.sups" horiz-adv-x="267" d="M22 599v76h44v81l114 38v-119h62v-76h-62v-156c0 -25 12 -42 40 -42c10 0 17 1 24 2v-93c-14 -3 -35 -5 -61 -5c-82 0 -117 34 -117 109v185h-44z"/>
    <glyph glyph-name="u.sups" horiz-adv-x="380" d="M224 363c-15 -41 -46 -62 -91 -62c-66 0 -91 37 -91 104v270h116v-251c0 -28 10 -41 30 -41c21 0 32 15 32 44v248h114v-365h-110v53z"/>
    <glyph glyph-name="v.sups" horiz-adv-x="314" d="M88 310l-88 365h118l28 -199c4 -29 7 -46 9 -72h3c3 26 5 43 9 72l29 199h118l-88 -365h-138z"/>
    <glyph glyph-name="w.sups" horiz-adv-x="467" d="M74 310l-65 365h111l18 -193c2 -25 3 -46 4 -70h4c1 22 2 46 5 69l29 194h107l28 -193c3 -24 5 -48 7 -70h2c1 24 2 45 4 70l18 193h112l-66 -365h-123l-29 191c-4 25 -4 57 -5 75h-4c1 -18 0 -50 -4 -75l-29 -191h-124z"/>
    <glyph glyph-name="x.sups" horiz-adv-x="354" d="M16 310l85 192l-78 173h119l22 -64c5 -14 11 -31 12 -52h3c2 21 8 38 12 52l22 64h118l-79 -172l87 -193h-124l-26 80c-5 19 -10 32 -11 47h-3c-2 -15 -7 -29 -13 -47l-26 -80h-120z"/>
    <glyph glyph-name="y.sups" horiz-adv-x="314" d="M50 162c-14 0 -25 1 -35 3v90c10 -2 16 -2 22 -2c33 0 50 10 58 35l3 13l-98 374h124l29 -187c4 -38 5 -70 7 -103h3c1 43 3 69 7 101l27 189h117l-90 -378c-23 -97 -77 -135 -174 -135z"/>
    <glyph glyph-name="z.sups" horiz-adv-x="294" d="M21 379l126 216h-118v80h239v-66l-124 -218h132v-81h-255v69z"/>
    <glyph glyph-name="uni24FF" unicode="⓿" horiz-adv-x="631" d="M316 -17c-168 0 -286 119 -286 312v121c0 194 117 311 287 311c169 0 284 -117 284 -311v-121c0 -194 -116 -312 -285 -312zM316 165c81 0 129 45 129 190s-48 190 -129 190c-82 0 -130 -45 -130 -190s48 -190 130 -190zM316 236c-24 0 -37 15 -37 119s13 119 37 119 c23 0 37 -15 37 -119s-14 -119 -37 -119z"/>
    <glyph glyph-name="uni2776" unicode="❶" horiz-adv-x="631" d="M316 -17c-168 0 -286 119 -286 312v121c0 194 117 311 287 311c169 0 284 -117 284 -311v-121c0 -194 -116 -312 -285 -312zM280 173h91v364h-73c-10 -33 -41 -48 -77 -48h-7v-86h11c19 0 41 6 55 15v-245z"/>
    <glyph glyph-name="uni2777" unicode="❷" horiz-adv-x="631" d="M316 -17c-168 0 -286 119 -286 312v121c0 194 117 311 287 311c169 0 284 -117 284 -311v-121c0 -194 -116 -312 -285 -312zM195 169h244v74h-139c77 55 138 115 138 194c0 69 -40 104 -117 104c-82 0 -127 -38 -127 -102c0 -7 0 -14 1 -22l92 -11c-1 9 -1 18 -1 26 c0 25 10 37 29 37s27 -11 27 -35c0 -68 -68 -133 -147 -197v-68z"/>
    <glyph glyph-name="uni2778" unicode="❸" horiz-adv-x="631" d="M316 -17c-168 0 -286 119 -286 312v121c0 194 117 311 287 311c169 0 284 -117 284 -311v-121c0 -194 -116 -312 -285 -312zM314 165c82 0 124 37 124 113c0 51 -25 81 -66 85c40 9 63 39 63 83c0 66 -42 99 -118 99c-80 0 -123 -33 -123 -108l92 -13c0 38 10 51 30 51 c18 0 27 -10 27 -35c0 -35 -13 -48 -42 -48h-10v-65h10c31 0 44 -11 44 -47c0 -32 -10 -43 -30 -43c-21 0 -30 11 -30 52l-92 -11c0 -80 40 -113 121 -113z"/>
    <glyph glyph-name="uni2779" unicode="❹" horiz-adv-x="631" d="M316 -17c-168 0 -286 119 -286 312v121c0 194 117 311 287 311c169 0 284 -117 284 -311v-121c0 -194 -116 -312 -285 -312zM317 173h88v75h43v70h-43v219h-108l-114 -221v-68h134v-75zM249 318l68 138v-138h-68z"/>
    <glyph glyph-name="uni277A" unicode="❺" horiz-adv-x="631" d="M316 -17c-168 0 -286 119 -286 312v121c0 194 117 311 287 311c169 0 284 -117 284 -311v-121c0 -194 -116 -312 -285 -312zM317 169c82 0 121 40 121 133c0 86 -30 124 -91 124c-31 0 -54 -10 -68 -29l6 69h135v75h-208l-13 -203l85 -8c4 17 15 25 31 25 c22 0 30 -13 30 -56c0 -46 -8 -60 -29 -60s-31 11 -31 47l-92 -11c0 -70 45 -106 124 -106z"/>
    <glyph glyph-name="uni277B" unicode="❻" horiz-adv-x="631" d="M316 -17c-168 0 -286 119 -286 312v121c0 194 117 311 287 311c169 0 284 -117 284 -311v-121c0 -194 -116 -312 -285 -312zM316 165c80 0 123 42 123 130c0 92 -33 126 -96 126c-27 0 -46 -8 -58 -23c2 70 12 80 32 80c18 0 27 -9 27 -34l92 14c0 59 -42 87 -115 87 c-86 0 -129 -42 -129 -188c0 -147 40 -192 124 -192zM317 235c-21 0 -31 12 -33 99c7 13 17 18 31 18c21 0 32 -12 32 -57c0 -48 -10 -60 -30 -60z"/>
    <glyph glyph-name="uni277C" unicode="❼" horiz-adv-x="631" d="M316 -17c-168 0 -286 119 -286 312v121c0 194 117 311 287 311c169 0 284 -117 284 -311v-121c0 -194 -116 -312 -285 -312zM247 173h95c0 152 33 244 88 302v62h-229v-76h140c-68 -78 -94 -169 -94 -288z"/>
    <glyph glyph-name="uni277D" unicode="❽" horiz-adv-x="631" d="M316 -17c-168 0 -286 119 -286 312v121c0 194 117 311 287 311c169 0 284 -117 284 -311v-121c0 -194 -116 -312 -285 -312zM316 166c78 0 127 42 127 112c0 46 -18 74 -60 94c37 16 51 40 51 76c0 59 -46 97 -119 97c-74 0 -120 -38 -120 -98c0 -46 17 -77 58 -96 c-43 -12 -65 -41 -65 -84c0 -65 47 -101 128 -101zM326 394l-7 2c-25 9 -35 20 -35 49c0 26 9 37 31 37c21 0 29 -11 29 -37c0 -29 -4 -43 -18 -51zM316 234c-24 0 -36 12 -36 45c0 28 6 42 24 51l8 -3c30 -11 38 -19 38 -48c0 -34 -10 -45 -34 -45z"/>
    <glyph glyph-name="uni277E" unicode="❾" horiz-adv-x="631" d="M316 -17c-168 0 -286 119 -286 312v121c0 194 117 311 287 311c169 0 284 -117 284 -311v-121c0 -194 -116 -312 -285 -312zM316 165c84 0 126 40 126 187c0 153 -36 193 -123 193c-82 0 -123 -44 -123 -123c0 -86 32 -120 97 -120c25 0 44 5 58 16 c-2 -73 -10 -86 -33 -86c-20 0 -29 17 -29 44l-91 -15c0 -58 41 -96 118 -96zM319 372c-22 0 -32 14 -32 50c0 44 10 56 31 56s31 -11 33 -90c-7 -12 -17 -16 -32 -16z"/>
    <glyph glyph-name="zero.case" horiz-adv-x="467" d="M233 -15c-124 0 -200 76 -200 226v290c0 150 76 226 200 226c125 0 202 -76 202 -226v-290c0 -150 -77 -226 -202 -226zM233 90c41 0 65 33 65 103v325c0 71 -24 104 -65 104c-40 0 -64 -33 -64 -103v-325c0 -71 24 -104 64 -104z"/>
    <glyph glyph-name="one.case" horiz-adv-x="320" d="M122 0v513c-21 -19 -58 -27 -94 -27h-15v129h11c59 0 106 33 124 95h108v-710h-134z"/>
    <glyph glyph-name="two.case" horiz-adv-x="425" d="M19 0v100c88 103 141 169 183 234c41 66 59 122 59 189v28c0 49 -18 70 -53 70c-34 0 -53 -25 -53 -76v-70l-136 17v51c0 116 73 184 194 184c125 0 189 -50 189 -173v-34c0 -69 -25 -137 -72 -213c-37 -59 -80 -110 -157 -198h231v-109h-385z"/>
    <glyph glyph-name="three.case" horiz-adv-x="423" d="M212 -15c-129 0 -195 56 -195 195v32l135 16v-42c0 -71 19 -96 58 -96c37 0 55 27 55 88v41c0 68 -21 97 -71 97h-24v105h24c46 0 67 32 67 96v32c0 54 -19 74 -53 74c-37 0 -54 -24 -54 -88v-50l-136 18v35c0 129 71 189 192 189c118 0 187 -53 187 -171v-33 c0 -74 -33 -134 -102 -151c74 -10 107 -69 107 -147v-48c0 -126 -68 -192 -190 -192z"/>
    <glyph glyph-name="four.case" horiz-adv-x="430" d="M424 162h-71v-162h-131v162h-218v100l190 448h159v-443h71v-105zM223 479c0 28 1 60 3 86h-2c-6 -28 -15 -52 -27 -84l-61 -158c-10 -25 -17 -41 -27 -56h114v212z"/>
    <glyph glyph-name="five.case" horiz-adv-x="424" d="M212 -15c-119 0 -191 64 -191 174v29l136 15v-30c0 -59 20 -85 56 -85c39 0 57 29 57 99v90c0 71 -17 99 -55 99c-33 0 -54 -24 -61 -68l-123 11l20 391h328v-111h-222l-10 -180c21 39 61 62 114 62c96 0 145 -66 145 -190v-102c0 -135 -67 -204 -194 -204z"/>
    <glyph glyph-name="six.case" horiz-adv-x="435" d="M263 480c100 0 152 -63 152 -186v-104c0 -127 -64 -205 -190 -205c-139 0 -198 82 -198 252v254c0 163 71 236 199 236c121 0 184 -52 184 -157v-24l-134 -18v26c0 46 -15 74 -52 74c-45 0 -63 -34 -63 -124v-72c22 31 55 48 102 48zM280 187v101c0 58 -20 89 -58 89 c-29 0 -49 -17 -61 -50v-122c0 -87 21 -118 62 -118c36 0 57 28 57 100z"/>
    <glyph glyph-name="seven.case" horiz-adv-x="379" d="M87 0v37c1 207 58 406 152 560h-231v113h362v-92c-99 -146 -143 -343 -144 -534v-84h-139z"/>
    <glyph glyph-name="eight.case" horiz-adv-x="435" d="M323 383c63 -31 92 -76 92 -158v-56c0 -113 -76 -184 -197 -184c-125 0 -198 67 -198 183v59c0 62 33 108 94 133c-56 29 -85 75 -85 151v46c0 104 74 170 187 170c115 0 186 -62 186 -167v-50c0 -59 -24 -98 -79 -127zM160 563v-62c0 -41 21 -61 63 -77l11 -4 c27 16 38 39 38 77v65c0 49 -19 72 -56 72s-56 -22 -56 -71zM279 161v75c0 47 -17 64 -66 83l-12 5c-33 -17 -45 -41 -45 -84v-78c0 -51 22 -76 63 -76c40 0 60 25 60 75z"/>
    <glyph glyph-name="nine.case" horiz-adv-x="433" d="M212 727c137 0 195 -71 195 -240v-267c0 -167 -65 -235 -196 -235c-119 0 -186 64 -186 167v26l133 21v-31c0 -52 21 -84 56 -84c44 0 59 33 59 123v92c-23 -26 -56 -39 -99 -39c-100 0 -153 60 -153 182v85c0 127 65 200 191 200zM213 363c28 0 47 14 60 46v115 c0 73 -21 104 -61 104c-38 0 -58 -27 -58 -95v-84c0 -57 21 -86 59 -86z"/>
    <glyph glyph-name="one.case.ss02" horiz-adv-x="388" d="M273 107h106v-107h-355v107h116v417c-16 -20 -47 -30 -83 -30h-28v129h24c56 0 97 31 113 87h107v-603z"/>
    <glyph glyph-name="zero.case.zero" horiz-adv-x="467" d="M233 727c125 0 202 -76 202 -226v-290c0 -150 -77 -226 -202 -226c-124 0 -200 76 -200 226v290c0 150 76 226 200 226zM233 622c-40 0 -64 -33 -64 -103v-250l125 292c-8 42 -30 61 -61 61zM233 90c41 0 65 33 65 103v252l-125 -294c8 -41 29 -61 60 -61z"/>
    <glyph glyph-name="uni24EA" unicode="⓪" horiz-adv-x="631" d="M316 -17c-168 0 -286 119 -286 312v121c0 194 117 311 287 311c169 0 284 -117 284 -311v-121c0 -193 -116 -312 -285 -312zM316 38c131 0 222 96 222 256v122c0 160 -91 256 -221 256c-132 0 -224 -95 -224 -256v-122c0 -160 92 -256 223 -256zM316 165 c-82 0 -130 46 -130 190s48 190 130 190c81 0 129 -46 129 -190s-48 -190 -129 -190zM316 236c24 0 37 15 37 119s-13 118 -37 118s-38 -14 -38 -118s14 -119 38 -119z"/>
    <glyph glyph-name="uni2460" unicode="①" horiz-adv-x="631" d="M316 -17c-168 0 -286 119 -286 312v121c0 194 117 311 287 311c169 0 284 -117 284 -311v-121c0 -193 -116 -312 -285 -312zM316 38c131 0 222 96 222 256v122c0 160 -91 256 -221 256c-132 0 -224 -95 -224 -256v-122c0 -160 92 -256 223 -256zM280 173v245 c-14 -9 -36 -15 -55 -15h-11v86h7c36 0 67 15 77 48h73v-364h-91z"/>
    <glyph glyph-name="uni2461" unicode="②" horiz-adv-x="631" d="M316 -17c-168 0 -286 119 -286 312v121c0 194 117 311 287 311c169 0 284 -117 284 -311v-121c0 -193 -116 -312 -285 -312zM316 38c131 0 222 96 222 256v122c0 160 -91 256 -221 256c-132 0 -224 -95 -224 -256v-122c0 -160 92 -256 223 -256zM195 169v68 c79 64 147 129 147 196c0 25 -8 36 -27 36s-29 -12 -29 -37c0 -9 0 -18 1 -26l-92 11c-1 8 -1 15 -1 22c0 64 45 102 127 102c78 0 117 -35 117 -104c0 -79 -62 -140 -138 -194h139v-74h-244z"/>
    <glyph glyph-name="uni2462" unicode="③" horiz-adv-x="631" d="M316 -17c-168 0 -286 119 -286 312v121c0 194 117 311 287 311c169 0 284 -117 284 -311v-121c0 -193 -116 -312 -285 -312zM316 38c131 0 222 96 222 256v122c0 160 -91 256 -221 256c-132 0 -224 -95 -224 -256v-122c0 -160 92 -256 223 -256zM314 165 c-82 0 -121 34 -121 113l91 10c0 -40 9 -51 31 -51c20 0 30 11 30 43c0 35 -13 46 -46 46h-9v67h9c31 0 44 12 44 47c0 25 -9 35 -27 35c-20 0 -31 -13 -31 -50l-91 12c0 74 43 108 123 108c76 0 118 -33 118 -98c0 -46 -23 -76 -66 -84c44 -3 69 -34 69 -85 c0 -76 -43 -113 -124 -113z"/>
    <glyph glyph-name="uni2463" unicode="④" horiz-adv-x="631" d="M316 -17c-168 0 -286 119 -286 312v121c0 194 117 311 287 311c169 0 284 -117 284 -311v-121c0 -193 -116 -312 -285 -312zM316 38c131 0 222 96 222 256v122c0 160 -91 256 -221 256c-132 0 -224 -95 -224 -256v-122c0 -160 92 -256 223 -256zM448 248h-44v-75h-87v75 h-134v67l114 222h107v-219h44v-70zM317 456l-68 -138h68v138z"/>
    <glyph glyph-name="uni2464" unicode="⑤" horiz-adv-x="631" d="M316 -17c-168 0 -286 119 -286 312v121c0 194 117 311 287 311c169 0 284 -117 284 -311v-121c0 -193 -116 -312 -285 -312zM316 38c131 0 222 96 222 256v122c0 160 -91 256 -221 256c-132 0 -224 -95 -224 -256v-122c0 -160 92 -256 223 -256zM317 169 c-79 0 -123 36 -123 106l91 10c0 -35 10 -46 31 -46s30 14 30 60c0 42 -9 56 -31 56c-16 0 -27 -8 -31 -25l-84 8l13 203h207v-76h-135l-6 -68c14 19 37 29 68 29c61 0 91 -39 91 -124c0 -93 -39 -133 -121 -133z"/>
    <glyph glyph-name="uni2465" unicode="⑥" horiz-adv-x="631" d="M317 727c169 0 284 -117 284 -311v-121c0 -193 -116 -312 -285 -312c-168 0 -286 119 -286 312v121c0 194 117 311 287 311zM538 294v122c0 160 -91 256 -221 256c-132 0 -224 -95 -224 -256v-122c0 -160 92 -256 223 -256s222 96 222 256zM343 421c64 0 96 -35 96 -126 c0 -88 -42 -130 -123 -130c-84 0 -123 45 -123 192c0 146 42 188 128 188c73 0 115 -28 115 -87l-92 -14c0 25 -9 33 -27 33c-21 0 -30 -10 -32 -79c12 16 30 23 58 23zM317 235c21 0 30 12 30 60c0 45 -10 57 -32 57c-13 0 -24 -5 -31 -18c2 -87 12 -99 33 -99z"/>
    <glyph glyph-name="uni2466" unicode="⑦" horiz-adv-x="631" d="M316 -17c-168 0 -286 119 -286 312v121c0 194 117 311 287 311c169 0 284 -117 284 -311v-121c0 -193 -116 -312 -285 -312zM316 38c131 0 222 96 222 256v122c0 160 -91 256 -221 256c-132 0 -224 -95 -224 -256v-122c0 -160 92 -256 223 -256zM201 460v77h229v-62 c-55 -57 -88 -149 -88 -240v-62h-94v26c0 96 32 191 93 261h-140z"/>
    <glyph glyph-name="uni2467" unicode="⑧" horiz-adv-x="631" d="M317 727c169 0 284 -117 284 -311v-121c0 -193 -116 -312 -285 -312c-168 0 -286 119 -286 312v121c0 194 117 311 287 311zM538 294v122c0 160 -91 256 -221 256c-132 0 -224 -95 -224 -256v-122c0 -160 92 -256 223 -256s222 96 222 256zM383 371c42 -20 60 -48 60 -93 c0 -70 -49 -112 -127 -112c-81 0 -128 36 -128 101c0 43 21 72 66 83c-41 20 -59 49 -59 96c0 61 45 99 120 99c73 0 118 -38 118 -97c0 -35 -13 -61 -50 -77zM315 482c-22 0 -31 -11 -31 -38c0 -28 10 -39 36 -48l7 -3c13 9 17 24 17 51c0 26 -7 38 -29 38zM316 234 c25 0 34 11 34 45c0 28 -8 37 -38 48l-8 3c-19 -9 -24 -24 -24 -51c0 -33 12 -45 36 -45z"/>
    <glyph glyph-name="uni2468" unicode="⑨" horiz-adv-x="631" d="M317 727c169 0 284 -117 284 -311v-121c0 -193 -116 -312 -285 -312c-168 0 -286 119 -286 312v121c0 194 117 311 287 311zM538 294v122c0 160 -91 256 -221 256c-132 0 -224 -95 -224 -256v-122c0 -160 92 -256 223 -256s222 96 222 256zM315 545 c88 0 123 -41 123 -192c0 -148 -41 -188 -126 -188c-76 0 -117 38 -117 96l91 15c0 -27 9 -44 29 -44c23 0 30 13 32 85c-14 -11 -34 -15 -58 -15c-64 0 -96 35 -96 120c0 79 41 123 122 123zM315 372c15 0 25 3 32 14c-2 81 -12 92 -32 92c-22 0 -32 -13 -32 -56 c0 -35 10 -50 32 -50z"/>
    <glyph glyph-name="zero.osf" horiz-adv-x="460" d="M230 -15c-119 0 -195 70 -195 206v153c0 136 76 206 195 206c118 0 195 -70 195 -206v-153c0 -136 -77 -206 -195 -206zM230 91c36 0 60 26 60 85v183c0 59 -24 85 -60 85s-60 -26 -60 -85v-183c0 -59 24 -85 60 -85z"/>
    <glyph glyph-name="one.osf" horiz-adv-x="411" d="M284 111h107v-111h-351v111h111v253c-19 -22 -60 -32 -95 -32h-15v127h13c53 0 105 27 122 76h108v-424z"/>
    <glyph glyph-name="two.osf" horiz-adv-x="427" d="M25 97c68 51 134 108 175 151c45 46 59 80 59 122v14c0 45 -17 62 -46 62c-28 0 -49 -20 -49 -68v-58l-136 18v41c0 113 75 171 186 171c114 0 183 -52 183 -158v-19c0 -49 -19 -92 -49 -129c-36 -45 -90 -90 -157 -137h214v-107h-380v97z"/>
    <glyph glyph-name="three.osf" horiz-adv-x="423" d="M211 -165c-126 0 -194 54 -194 181v37l135 15v-38c0 -68 20 -90 58 -90c36 0 55 31 55 92v25c0 68 -22 97 -71 97h-24v106h23c46 0 66 29 66 87v24c0 54 -18 75 -51 75c-36 0 -54 -23 -54 -87v-42l-135 18v36c0 120 71 179 190 179c118 0 187 -59 187 -178v-21 c0 -72 -34 -124 -101 -139c75 -11 107 -73 107 -147v-35c0 -126 -69 -195 -191 -195z"/>
    <glyph glyph-name="four.osf" horiz-adv-x="444" d="M230 -150v159h-220v100l193 426h158v-422h70v-104h-70v-159h-131zM116 113h114v188c0 28 0 52 1 89h-1c-11 -40 -20 -64 -30 -90l-53 -119c-9 -24 -19 -47 -31 -68z"/>
    <glyph glyph-name="five.osf" horiz-adv-x="425" d="M212 -165c-125 0 -191 66 -191 179v28l137 16v-36c0 -56 19 -82 56 -82c40 0 56 36 56 102v59c0 64 -14 108 -55 108c-34 0 -53 -24 -59 -69l-125 11l20 384h327v-112h-219l-10 -176c18 36 52 63 111 63c92 0 147 -62 147 -200v-63c0 -145 -75 -212 -195 -212z"/>
    <glyph glyph-name="six.osf" horiz-adv-x="435" d="M263 470c100 0 152 -63 152 -186v-94c0 -127 -64 -205 -190 -205c-139 0 -198 82 -198 252v237c0 163 71 236 199 236c121 0 184 -52 184 -157v-24l-134 -18v26c0 46 -15 74 -52 74c-45 0 -63 -34 -63 -124v-65c22 31 55 48 102 48zM280 187v91c0 58 -20 89 -58 89 c-29 0 -49 -17 -61 -50v-112c0 -87 21 -118 62 -118c36 0 57 28 57 100z"/>
    <glyph glyph-name="seven.osf" horiz-adv-x="377" d="M85 -150v46c1 195 57 377 153 526h-230v113h360v-93c-98 -139 -144 -319 -144 -504v-88h-139z"/>
    <glyph glyph-name="eight.osf" horiz-adv-x="435" d="M323 373c63 -31 92 -76 92 -158v-46c0 -113 -76 -184 -197 -184c-125 0 -198 67 -198 183v49c0 62 33 109 94 133c-56 30 -85 75 -85 151v39c0 104 74 170 187 170c115 0 186 -62 186 -167v-43c0 -59 -24 -98 -79 -127zM160 546v-55c0 -41 21 -61 63 -77l11 -4 c27 16 38 39 38 77v58c0 49 -19 72 -56 72s-56 -22 -56 -71zM279 161v65c0 47 -17 64 -66 83l-12 5c-33 -17 -45 -41 -45 -84v-68c0 -51 22 -76 63 -76c40 0 60 25 60 75z"/>
    <glyph glyph-name="nine.osf" horiz-adv-x="433" d="M212 550c135 0 194 -75 194 -248v-224c0 -166 -63 -243 -197 -243c-120 0 -184 59 -184 169v22l133 23v-31c0 -52 20 -81 54 -81c44 0 60 31 60 120v87c-22 -26 -55 -38 -100 -38c-100 0 -151 61 -151 180v64c0 129 67 200 191 200zM213 208c28 0 46 14 59 43v97 c0 70 -19 103 -60 103c-39 0 -58 -30 -58 -95v-62c0 -56 20 -86 59 -86z"/>
    <glyph glyph-name="zero.osf.zero" horiz-adv-x="460" d="M230 550c118 0 195 -70 195 -206v-153c0 -136 -77 -206 -195 -206c-119 0 -195 70 -195 206v153c0 136 76 206 195 206zM230 444c-36 0 -60 -26 -60 -85v-174l108 231c-10 19 -27 28 -48 28zM230 91c36 0 60 26 60 85v175l-109 -230c10 -21 27 -30 49 -30z"/>
    <glyph glyph-name="one.ss02" horiz-adv-x="391" d="M274 107h107v-107h-356v107h116v402c-16 -20 -46 -30 -83 -30h-28v129h24c57 0 97 31 114 87h106v-588z"/>
    <glyph glyph-name="zero.tf.case" d="M232 -15c-120 0 -193 69 -193 222v297c0 154 73 223 193 223c119 0 193 -69 193 -223v-297c0 -153 -74 -222 -193 -222zM232 88c36 0 58 27 58 101v334c0 74 -22 101 -58 101c-37 0 -58 -27 -58 -101v-334c0 -74 21 -101 58 -101z"/>
    <glyph glyph-name="one.tf.case" d="M304 107h107v-107h-356v107h116v417c-16 -20 -46 -30 -83 -30h-28v129h24c56 0 97 31 113 87h107v-603z"/>
    <glyph glyph-name="two.tf.case" d="M45 0v103c73 90 136 171 179 241c42 72 56 118 56 185v26c0 52 -20 66 -48 66c-33 0 -52 -22 -52 -74v-70l-135 16v45c0 120 73 189 188 189c113 0 183 -47 183 -170v-32c0 -67 -18 -121 -62 -198c-38 -63 -93 -139 -157 -218h225v-109h-377z"/>
    <glyph glyph-name="three.tf.case" d="M233 -15c-125 0 -192 61 -192 193v33l135 15v-46c0 -66 19 -90 55 -90s54 28 54 87v42c0 69 -23 98 -69 98h-24v104h23c44 0 64 31 64 93v33c0 55 -17 76 -50 76c-35 0 -52 -23 -52 -85v-52l-134 18v33c0 126 70 190 188 190c115 0 184 -46 184 -166v-40 c0 -75 -32 -132 -101 -148c75 -11 106 -69 106 -148v-47c0 -127 -68 -193 -187 -193z"/>
    <glyph glyph-name="four.tf.case" d="M241 0v162h-217v100l188 448h158v-443h70v-105h-70v-162h-129zM129 267h112v200c0 32 0 63 3 106h-2c-8 -42 -16 -68 -29 -104l-58 -147c-10 -23 -17 -41 -26 -55z"/>
    <glyph glyph-name="five.tf.case" d="M234 -15c-126 0 -189 65 -189 179v27l135 15v-28c0 -58 17 -87 54 -87c39 0 54 34 54 99v81c0 66 -13 109 -53 109c-33 0 -51 -24 -56 -71l-124 12l19 389h322v-111h-217l-9 -181c19 37 51 64 112 64c88 0 140 -60 140 -202v-86c0 -145 -72 -209 -188 -209z"/>
    <glyph glyph-name="six.tf.case" d="M276 480c97 0 148 -64 148 -188v-101c0 -126 -63 -206 -188 -206c-136 0 -193 82 -193 252v261c0 164 70 229 195 229c119 0 181 -51 181 -155v-26l-134 -18v23c0 46 -13 77 -50 77c-41 0 -58 -32 -58 -120v-76c21 31 54 48 99 48zM289 187v101c0 58 -19 89 -54 89 c-28 0 -46 -17 -58 -49v-123c0 -87 20 -118 58 -118c35 0 54 28 54 100z"/>
    <glyph glyph-name="seven.tf.case" d="M131 0v37c0 199 52 399 154 560h-233v113h358v-92c-91 -136 -140 -326 -140 -534v-84h-139z"/>
    <glyph glyph-name="eight.tf.case" d="M326 389c67 -31 99 -77 99 -164v-56c0 -113 -74 -184 -192 -184c-123 0 -195 67 -195 183v45c0 66 30 117 96 144c-57 29 -86 75 -86 154v46c0 104 72 170 183 170c113 0 182 -62 182 -167v-36c0 -66 -23 -108 -87 -135zM178 563v-62c0 -41 19 -62 59 -77l10 -4 c25 16 35 39 35 77v65c0 49 -17 72 -51 72c-35 0 -53 -22 -53 -71zM290 161v75c0 47 -16 65 -62 83l-12 5c-30 -17 -42 -41 -42 -84v-78c0 -51 21 -76 59 -76s57 25 57 75z"/>
    <glyph glyph-name="nine.tf.case" d="M227 727c136 0 193 -78 193 -252v-245c0 -170 -61 -245 -194 -245c-117 0 -185 63 -185 160v33l134 21v-31c0 -54 19 -84 54 -84c43 0 57 33 57 126v89c-21 -25 -53 -39 -97 -39c-99 0 -152 60 -152 182v85c0 127 64 200 190 200zM228 363c27 0 46 15 58 46v115 c0 73 -20 104 -59 104c-36 0 -56 -27 -56 -95v-84c0 -57 19 -86 57 -86z"/>
    <glyph glyph-name="zero.tf.case.zero" d="M232 727c119 0 193 -69 193 -223v-297c0 -153 -74 -222 -193 -222c-120 0 -193 69 -193 222v297c0 154 73 223 193 223zM232 624c-37 0 -58 -27 -58 -101v-251l115 281c-6 51 -26 71 -57 71zM232 88c36 0 58 27 58 101v242l-114 -279c6 -46 26 -64 56 -64z"/>
    <glyph glyph-name="zero.tosf" d="M232 -15c-116 0 -192 70 -192 206v153c0 136 76 206 192 206c117 0 192 -70 192 -206v-153c0 -136 -75 -206 -192 -206zM232 91c34 0 57 26 57 85v183c0 59 -23 85 -57 85s-57 -26 -57 -85v-183c0 -59 23 -85 57 -85z"/>
    <glyph glyph-name="one.tosf" d="M306 111h99v-111h-334v111h103v256c-17 -24 -50 -35 -82 -35h-17v127h16c48 0 93 28 108 76h107v-424z"/>
    <glyph glyph-name="two.tosf" d="M41 97c75 56 139 111 176 149c43 44 58 75 58 117v19c0 42 -15 64 -47 64c-31 0 -48 -23 -48 -65v-60l-136 18v39c0 112 71 172 186 172c117 0 182 -51 182 -158v-19c0 -47 -16 -86 -48 -129c-31 -41 -78 -82 -157 -135h214v-109h-380v97z"/>
    <glyph glyph-name="three.tosf" d="M233 -165c-125 0 -192 60 -192 195v22l135 15v-37c0 -67 20 -90 56 -90c35 0 52 27 52 86v26c0 68 -21 101 -68 101h-24v105h23c43 0 64 31 64 90v24c0 55 -17 74 -49 74c-36 0 -53 -22 -53 -86v-42l-135 18v22c0 129 71 192 189 192c116 0 183 -59 183 -178v-22 c0 -71 -32 -124 -101 -139c76 -10 107 -77 107 -151v-34c0 -125 -67 -191 -187 -191z"/>
    <glyph glyph-name="four.tosf" d="M241 -150v159h-217v100l187 426h160v-422h69v-104h-69v-159h-130zM132 113h109v180c0 34 1 66 2 93h-2c-9 -30 -19 -58 -30 -86l-49 -117c-10 -25 -20 -48 -30 -70z"/>
    <glyph glyph-name="five.tosf" d="M231 -165c-125 0 -186 65 -186 178v25l134 18v-29c0 -60 18 -86 54 -86c40 0 55 35 55 100v60c0 66 -12 108 -53 108c-32 0 -51 -24 -56 -70l-124 12l19 384h322v-112h-215l-10 -174c17 35 51 62 109 62c90 0 142 -61 142 -200v-66c0 -145 -72 -210 -191 -210z"/>
    <glyph glyph-name="six.tosf" d="M276 470c97 0 148 -64 148 -188v-91c0 -126 -63 -206 -188 -206c-136 0 -193 82 -193 252v244c0 164 70 229 195 229c119 0 181 -51 181 -155v-26l-134 -18v23c0 46 -13 77 -50 77c-41 0 -58 -32 -58 -120v-69c21 31 54 48 99 48zM289 187v91c0 58 -19 89 -54 89 c-28 0 -46 -17 -58 -49v-113c0 -87 20 -118 58 -118c35 0 54 28 54 100z"/>
    <glyph glyph-name="seven.tosf" d="M131 -150v31c0 199 53 382 154 541h-233v113h358v-92c-91 -135 -140 -310 -140 -514v-79h-139z"/>
    <glyph glyph-name="eight.tosf" d="M326 379c67 -32 99 -77 99 -164v-46c0 -113 -74 -184 -192 -184c-123 0 -195 67 -195 183v35c0 66 30 117 96 144c-56 29 -86 75 -86 154v39c0 104 72 170 183 170c113 0 182 -62 182 -167v-29c0 -66 -23 -108 -87 -135zM178 546v-55c0 -41 20 -61 59 -77l10 -4 c25 16 35 39 35 77v58c0 49 -17 72 -51 72c-35 0 -53 -22 -53 -71zM290 161v65c0 47 -16 64 -62 83l-12 5c-30 -17 -42 -41 -42 -84v-68c0 -51 21 -76 59 -76s57 25 57 75z"/>
    <glyph glyph-name="nine.tosf" d="M227 550c136 0 193 -78 193 -247v-230c0 -163 -65 -238 -196 -238c-117 0 -183 63 -183 160v29l134 21v-27c0 -54 18 -84 53 -84c42 0 58 33 58 126v86c-21 -26 -53 -40 -97 -40c-99 0 -152 61 -152 183v61c0 127 64 200 190 200zM228 209c27 0 46 15 58 47v91 c0 73 -20 104 -59 104c-36 0 -56 -27 -56 -95v-60c0 -57 19 -87 57 -87z"/>
    <glyph glyph-name="zero.tosf.zero" d="M232 550c117 0 192 -70 192 -206v-153c0 -136 -75 -206 -192 -206c-116 0 -192 70 -192 206v153c0 136 76 206 192 206zM232 444c-34 0 -57 -26 -57 -85v-168l105 221c-10 22 -27 32 -48 32zM232 91c34 0 57 26 57 85v167l-104 -221c9 -21 26 -31 47 -31z"/>
    <glyph glyph-name="zero.subs" horiz-adv-x="388" d="M194 -151c-99 0 -161 57 -161 265s62 265 161 265s161 -57 161 -265s-62 -265 -161 -265zM194 -63c25 0 42 18 42 177s-17 177 -42 177c-24 0 -42 -18 -42 -177s18 -177 42 -177z"/>
    <glyph glyph-name="one.subs" horiz-adv-x="275" d="M103 -140v344c-15 -11 -42 -18 -73 -18h-10v113h8c49 0 83 26 98 68h93v-507h-116z"/>
    <glyph glyph-name="two.subs" horiz-adv-x="364" d="M25 -140v83c120 129 187 195 187 300c0 32 -11 45 -34 45c-22 0 -36 -18 -36 -48c0 -17 0 -32 3 -49l-120 13c-1 12 -2 22 -2 34c0 86 59 140 158 140c104 0 156 -36 156 -135c0 -113 -63 -173 -174 -291h175v-92h-313z"/>
    <glyph glyph-name="three.subs" horiz-adv-x="358" d="M180 -151c-104 0 -157 41 -157 159l117 12c0 -68 12 -83 39 -83c24 0 37 16 37 68c0 57 -16 72 -51 72h-19v85h19c33 0 47 20 47 74c0 43 -12 55 -35 55c-25 0 -36 -16 -36 -76l-118 14c0 106 58 149 155 149c98 0 152 -40 152 -134c0 -65 -25 -110 -82 -121 c59 -8 86 -45 86 -121c0 -101 -55 -153 -154 -153z"/>
    <glyph glyph-name="four.subs" horiz-adv-x="361" d="M348 -32h-53v-108h-111v108h-171v85l146 314h136v-310h53v-89zM184 246l-81 -189h81v189z"/>
    <glyph glyph-name="five.subs" horiz-adv-x="357" d="M178 -151c-96 0 -155 48 -155 141l117 13c0 -52 14 -68 38 -68c27 0 38 17 38 88c0 79 -11 95 -37 95c-23 0 -36 -15 -41 -44l-107 9l16 284h265v-93h-174l-7 -112c16 29 46 44 85 44c78 0 118 -41 118 -175c0 -138 -54 -182 -156 -182z"/>
    <glyph glyph-name="six.subs" horiz-adv-x="364" d="M222 205c77 0 119 -44 119 -169c0 -128 -52 -187 -154 -187c-112 0 -160 63 -160 261c0 210 59 268 164 268c99 0 147 -41 147 -131l-116 -10c0 41 -10 58 -34 58c-26 0 -40 -16 -44 -115c18 16 42 25 78 25zM184 -66c25 0 40 17 40 94c0 71 -13 91 -40 91 c-18 0 -31 -6 -41 -20c1 -147 14 -165 41 -165z"/>
    <glyph glyph-name="seven.subs" horiz-adv-x="319" d="M75 -140v22c0 149 43 284 116 391h-176v94h287v-78c-75 -105 -108 -236 -108 -375v-54h-119z"/>
    <glyph glyph-name="eight.subs" horiz-adv-x="364" d="M272 135c50 -25 70 -63 70 -141c0 -91 -64 -145 -160 -145c-99 0 -159 52 -159 145c0 61 24 98 72 118c-43 23 -65 59 -65 119c0 94 58 147 151 147c95 0 150 -49 150 -135c0 -56 -17 -86 -59 -108zM181 300c-26 0 -38 -14 -38 -60s12 -61 45 -72l7 -3c17 13 24 35 24 75 c0 45 -13 60 -38 60zM183 -65c28 0 40 17 40 72c0 48 -11 58 -48 72l-6 2c-21 -12 -29 -33 -29 -74c0 -55 13 -72 43 -72z"/>
    <glyph glyph-name="nine.subs" horiz-adv-x="363" d="M178 378c112 0 158 -54 158 -268c0 -211 -54 -261 -160 -261c-98 0 -149 50 -149 134l114 15c0 -44 13 -66 38 -66c26 0 38 17 40 133c-16 -18 -42 -26 -76 -26c-76 0 -119 44 -119 166c0 117 51 173 154 173zM179 126c18 0 31 8 41 29c-3 125 -17 142 -42 142 c-24 0 -40 -17 -40 -89c0 -63 15 -82 41 -82z"/>
    <glyph glyph-name="zero.dnom" horiz-adv-x="316" d="M158 -8c-82 0 -129 45 -129 190c0 144 47 189 129 189s129 -45 129 -189c0 -145 -47 -190 -129 -190zM158 63c24 0 37 14 37 119c0 103 -13 118 -37 118s-37 -15 -37 -118c0 -105 13 -119 37 -119z"/>
    <glyph glyph-name="one.dnom" horiz-adv-x="220" d="M82 0v245c-14 -9 -36 -15 -55 -15h-11v86h8c35 0 66 14 76 47h73v-363h-91z"/>
    <glyph glyph-name="two.dnom" horiz-adv-x="284" d="M19 0v68c79 64 147 129 147 196c0 25 -9 36 -27 36c-19 0 -29 -12 -29 -37c0 -9 0 -18 1 -27l-92 12c-1 7 -1 14 -1 22c0 64 45 101 127 101c78 0 116 -34 116 -103c0 -80 -61 -140 -137 -194h138v-74h-243z"/>
    <glyph glyph-name="three.dnom" horiz-adv-x="281" d="M137 -8c-81 0 -120 33 -120 113l91 10c0 -41 9 -52 30 -52s31 12 31 44c0 35 -14 46 -47 46h-9v67h9c31 0 45 12 45 46c0 26 -10 35 -28 35c-20 0 -30 -13 -30 -50l-91 13c0 74 42 107 122 107c76 0 118 -32 118 -98c0 -45 -23 -75 -66 -83c45 -3 69 -34 69 -85 c0 -76 -42 -113 -124 -113z"/>
    <glyph glyph-name="four.dnom" horiz-adv-x="289" d="M276 75h-43v-75h-88v75h-133v67l114 221h107v-218h43v-70zM145 283l-68 -138h68v138z"/>
    <glyph glyph-name="five.dnom" horiz-adv-x="282" d="M143 -8c-79 0 -123 36 -123 105l92 11c0 -35 9 -46 31 -46c21 0 29 14 29 60c0 42 -9 56 -30 56c-17 0 -27 -8 -32 -25l-84 7l13 203h207v-75h-134l-6 -68c14 18 37 28 68 28c60 0 90 -38 90 -123c0 -93 -38 -133 -121 -133z"/>
    <glyph glyph-name="six.dnom" horiz-adv-x="291" d="M176 248c63 0 95 -35 95 -126c0 -88 -42 -130 -122 -130c-84 0 -124 45 -124 192c0 146 43 187 129 187c73 0 114 -28 114 -86l-91 -14c-1 25 -9 33 -27 33c-20 0 -30 -10 -32 -78c12 15 30 22 58 22zM149 61c21 0 31 13 31 61c0 45 -11 56 -32 56c-13 0 -24 -5 -31 -16 c2 -88 12 -101 32 -101z"/>
    <glyph glyph-name="seven.dnom" horiz-adv-x="258" d="M14 287v76h229v-61c-55 -57 -88 -149 -88 -241v-61h-94v26c0 96 32 191 93 261h-140z"/>
    <glyph glyph-name="eight.dnom" horiz-adv-x="293" d="M214 198c42 -20 60 -48 60 -93c0 -71 -49 -113 -127 -113c-81 0 -128 37 -128 102c0 42 21 71 65 83c-40 19 -58 49 -58 96c0 60 45 98 120 98c73 0 118 -37 118 -97c0 -34 -13 -60 -50 -76zM146 309c-22 0 -31 -11 -31 -38c0 -28 10 -39 36 -48l7 -3c13 9 17 23 17 51 c0 26 -7 38 -29 38zM147 60c25 0 34 12 34 45c0 29 -8 38 -38 49l-8 3c-19 -9 -24 -24 -24 -52c0 -33 12 -45 36 -45z"/>
    <glyph glyph-name="nine.dnom" horiz-adv-x="290" d="M142 371c88 0 123 -40 123 -192c0 -147 -41 -187 -126 -187c-76 0 -117 38 -117 95l91 15c0 -26 9 -43 29 -43c23 0 30 13 32 84c-14 -10 -34 -14 -58 -14c-64 0 -96 34 -96 120c0 79 41 122 122 122zM142 199c15 0 25 3 32 14c-2 81 -12 91 -32 91 c-22 0 -32 -12 -32 -55c0 -36 10 -50 32 -50z"/>
    <glyph glyph-name="zero.numr" horiz-adv-x="316" d="M158 339c-82 0 -129 45 -129 190c0 144 47 189 129 189s129 -45 129 -189c0 -145 -47 -190 -129 -190zM158 410c24 0 37 14 37 119c0 103 -13 118 -37 118s-37 -15 -37 -118c0 -105 13 -119 37 -119z"/>
    <glyph glyph-name="one.numr" horiz-adv-x="220" d="M82 347v245c-14 -9 -36 -15 -55 -15h-11v86h8c35 0 66 14 76 47h73v-363h-91z"/>
    <glyph glyph-name="two.numr" horiz-adv-x="284" d="M19 347v68c79 64 147 129 147 196c0 25 -9 36 -27 36c-19 0 -29 -12 -29 -37c0 -9 0 -18 1 -27l-92 12c-1 7 -1 14 -1 22c0 64 45 101 127 101c78 0 116 -34 116 -103c0 -80 -61 -140 -137 -194h138v-74h-243z"/>
    <glyph glyph-name="three.numr" horiz-adv-x="281" d="M137 339c-81 0 -120 33 -120 113l91 10c0 -41 9 -52 30 -52s31 12 31 44c0 35 -14 46 -47 46h-9v67h9c31 0 45 12 45 46c0 26 -10 35 -28 35c-20 0 -30 -13 -30 -50l-91 13c0 74 42 107 122 107c76 0 118 -32 118 -98c0 -45 -23 -75 -66 -83c45 -3 69 -34 69 -85 c0 -76 -42 -113 -124 -113z"/>
    <glyph glyph-name="four.numr" horiz-adv-x="289" d="M276 422h-43v-75h-88v75h-133v67l114 221h107v-218h43v-70zM145 630l-68 -138h68v138z"/>
    <glyph glyph-name="five.numr" horiz-adv-x="282" d="M143 339c-79 0 -123 36 -123 105l92 11c0 -35 9 -46 31 -46c21 0 29 14 29 60c0 42 -9 56 -30 56c-17 0 -27 -8 -32 -25l-84 7l13 203h207v-75h-134l-6 -68c14 18 37 28 68 28c60 0 90 -38 90 -123c0 -93 -38 -133 -121 -133z"/>
    <glyph glyph-name="six.numr" horiz-adv-x="291" d="M176 595c63 0 95 -35 95 -126c0 -88 -42 -130 -122 -130c-84 0 -124 45 -124 192c0 146 43 187 129 187c73 0 114 -28 114 -86l-91 -14c-1 25 -9 33 -27 33c-20 0 -30 -10 -32 -78c12 15 30 22 58 22zM149 408c21 0 31 13 31 61c0 45 -11 56 -32 56c-13 0 -24 -5 -31 -16 c2 -88 12 -101 32 -101z"/>
    <glyph glyph-name="seven.numr" horiz-adv-x="258" d="M14 634v76h229v-61c-55 -57 -88 -149 -88 -241v-61h-94v26c0 96 32 191 93 261h-140z"/>
    <glyph glyph-name="eight.numr" horiz-adv-x="293" d="M214 545c42 -20 60 -48 60 -93c0 -71 -49 -113 -127 -113c-81 0 -128 37 -128 102c0 42 21 71 65 83c-40 19 -58 49 -58 96c0 60 45 98 120 98c73 0 118 -37 118 -97c0 -34 -13 -60 -50 -76zM146 656c-22 0 -31 -11 -31 -38c0 -28 10 -39 36 -48l7 -3c13 9 17 23 17 51 c0 26 -7 38 -29 38zM147 407c25 0 34 12 34 45c0 29 -8 38 -38 49l-8 3c-19 -9 -24 -24 -24 -52c0 -33 12 -45 36 -45z"/>
    <glyph glyph-name="nine.numr" horiz-adv-x="290" d="M142 718c88 0 123 -40 123 -192c0 -147 -41 -187 -126 -187c-76 0 -117 38 -117 95l91 15c0 -26 9 -43 29 -43c23 0 30 13 32 84c-14 -10 -34 -14 -58 -14c-64 0 -96 34 -96 120c0 79 41 122 122 122zM142 546c15 0 25 3 32 14c-2 81 -12 91 -32 91 c-22 0 -32 -12 -32 -55c0 -36 10 -50 32 -50z"/>
    <glyph glyph-name="zero.sups" horiz-adv-x="388" d="M194 299c-99 0 -161 57 -161 265s62 265 161 265s161 -57 161 -265s-62 -265 -161 -265zM194 387c25 0 42 18 42 177s-17 177 -42 177c-24 0 -42 -18 -42 -177s18 -177 42 -177z"/>
    <glyph glyph-name="one.sups" horiz-adv-x="275" d="M103 310v344c-15 -11 -42 -18 -73 -18h-10v113h8c49 0 83 26 98 68h93v-507h-116z"/>
    <glyph glyph-name="two.sups" horiz-adv-x="364" d="M25 310v83c120 129 187 195 187 300c0 32 -11 45 -34 45c-22 0 -36 -18 -36 -48c0 -17 0 -32 3 -49l-120 13c-1 12 -2 22 -2 34c0 86 59 140 158 140c104 0 156 -36 156 -135c0 -113 -63 -173 -174 -291h175v-92h-313z"/>
    <glyph glyph-name="three.sups" horiz-adv-x="358" d="M180 299c-104 0 -157 41 -157 159l117 12c0 -68 12 -83 39 -83c24 0 37 16 37 68c0 57 -16 72 -51 72h-19v85h19c33 0 47 20 47 74c0 43 -12 55 -35 55c-25 0 -36 -16 -36 -76l-118 14c0 106 58 149 155 149c98 0 152 -40 152 -134c0 -65 -25 -110 -82 -121 c59 -8 86 -45 86 -121c0 -101 -55 -153 -154 -153z"/>
    <glyph glyph-name="four.sups" horiz-adv-x="361" d="M348 418h-53v-108h-111v108h-171v85l146 314h136v-310h53v-89zM184 696l-81 -189h81v189z"/>
    <glyph glyph-name="five.sups" horiz-adv-x="357" d="M178 299c-96 0 -155 48 -155 141l117 13c0 -52 14 -68 38 -68c27 0 38 17 38 88c0 79 -11 95 -37 95c-23 0 -36 -15 -41 -44l-107 9l16 284h265v-93h-174l-7 -112c16 29 46 44 85 44c78 0 118 -41 118 -175c0 -138 -54 -182 -156 -182z"/>
    <glyph glyph-name="six.sups" horiz-adv-x="364" d="M222 655c77 0 119 -44 119 -169c0 -128 -52 -187 -154 -187c-112 0 -160 63 -160 261c0 210 59 268 164 268c99 0 147 -41 147 -131l-116 -10c0 41 -10 58 -34 58c-26 0 -40 -16 -44 -115c18 16 42 25 78 25zM184 384c25 0 40 17 40 94c0 71 -13 91 -40 91 c-18 0 -31 -6 -41 -20c1 -147 14 -165 41 -165z"/>
    <glyph glyph-name="seven.sups" horiz-adv-x="319" d="M75 310v22c0 149 43 284 116 391h-176v94h287v-78c-75 -105 -108 -236 -108 -375v-54h-119z"/>
    <glyph glyph-name="eight.sups" horiz-adv-x="364" d="M272 585c50 -25 70 -63 70 -141c0 -91 -64 -145 -160 -145c-99 0 -159 52 -159 145c0 61 24 98 72 118c-43 23 -65 59 -65 119c0 94 58 147 151 147c95 0 150 -49 150 -135c0 -56 -17 -86 -59 -108zM181 750c-26 0 -38 -14 -38 -60s12 -61 45 -72l7 -3c17 13 24 35 24 75 c0 45 -13 60 -38 60zM183 385c28 0 40 17 40 72c0 48 -11 58 -48 72l-6 2c-21 -12 -29 -33 -29 -74c0 -55 13 -72 43 -72z"/>
    <glyph glyph-name="nine.sups" horiz-adv-x="363" d="M178 828c112 0 158 -54 158 -268c0 -211 -54 -261 -160 -261c-98 0 -149 50 -149 134l114 15c0 -44 13 -66 38 -66c26 0 38 17 40 133c-16 -18 -42 -26 -76 -26c-76 0 -119 44 -119 166c0 117 51 173 154 173zM179 576c18 0 31 8 41 29c-3 125 -17 142 -42 142 c-24 0 -40 -17 -40 -89c0 -63 15 -82 41 -82z"/>
    <glyph glyph-name="colon.case" horiz-adv-x="211" d="M174 551v-162h-137v162h137zM174 162v-162h-137v162h137z"/>
    <glyph glyph-name="semicolon.case" horiz-adv-x="226" d="M182 551v-162h-137v162h137zM79 -156l-34 68c44 19 53 41 53 84v4h-61v162h150v-151c0 -86 -31 -140 -108 -167z"/>
    <glyph glyph-name="exclamdown.case" horiz-adv-x="257" d="M202 563h-147v149h147v-149zM70 488h117l19 -497h-154z"/>
    <glyph glyph-name="questiondown.case" horiz-adv-x="393" d="M274 720v-149h-135v149h135zM271 510v-41c0 -59 -23 -96 -52 -134l-37 -48c-19 -25 -31 -54 -31 -95v-35c0 -38 14 -62 47 -62c37 0 51 23 51 67v78l137 -11v-69c0 -109 -65 -167 -186 -167c-120 0 -187 51 -187 162v33c0 58 26 102 53 136l41 53c22 28 36 58 36 100v33 h128z"/>
    <glyph glyph-name="periodcentered.case" horiz-adv-x="211" d="M174 462v-162h-137v162h137z"/>
    <glyph glyph-name="bullet.case" horiz-adv-x="295" d="M146 262c-63 0 -109 44 -109 110c0 67 46 113 109 113c65 0 112 -45 112 -113c0 -66 -47 -110 -112 -110z"/>
    <glyph glyph-name="slash.case" horiz-adv-x="393" d="M164 -85h-119l184 877h119z"/>
    <glyph glyph-name="backslash.case" horiz-adv-x="393" d="M229 -85l-184 877h119l184 -877h-119z"/>
    <glyph glyph-name="asterisk.ss04" horiz-adv-x="263" d="M132 710l-31 -93h-97l79 -57l-30 -93l79 57l79 -57l-31 93l79 57h-97z"/>
    <glyph glyph-name="period.tf" horiz-adv-x="232" d="M184 162v-162h-137v162h137z"/>
    <glyph glyph-name="comma.tf" horiz-adv-x="232" d="M82 -156l-34 68c45 19 53 41 53 84v4h-61v162h151v-151c0 -86 -31 -140 -109 -167z"/>
    <glyph glyph-name="colon.tf" horiz-adv-x="232" d="M184 501v-162h-137v162h137zM184 162v-162h-137v162h137z"/>
    <glyph glyph-name="semicolon.tf" horiz-adv-x="232" d="M191 535v-162h-137v162h137zM82 -156l-34 68c45 19 53 41 53 84v4h-61v162h151v-151c0 -86 -31 -140 -109 -167z"/>
    <glyph glyph-name="slash.tf" d="M199 -117h-119l184 877h119z"/>
    <glyph glyph-name="parenleft.case" horiz-adv-x="271" d="M177 -106c-89 128 -139 307 -139 468c0 160 49 334 140 453l103 -40c-79 -120 -118 -260 -118 -415c0 -156 37 -292 121 -423z"/>
    <glyph glyph-name="parenright.case" horiz-adv-x="271" d="M94 -106l-107 43c85 131 121 267 121 423c0 155 -39 295 -118 415l104 40c90 -119 139 -293 139 -453c0 -161 -50 -340 -139 -468z"/>
    <glyph glyph-name="braceleft.case" horiz-adv-x="284" d="M237 -87c-108 0 -152 36 -152 138v163c0 57 -5 99 -71 101v88c67 2 70 38 70 98v168c0 92 50 131 152 131h40v-94h-19c-37 0 -54 -11 -54 -64v-148c0 -66 -13 -114 -82 -135c69 -23 81 -74 81 -140v-145c0 -57 18 -66 55 -66h22v-95h-42z"/>
    <glyph glyph-name="braceright.case" horiz-adv-x="284" d="M47 -87h-42v95h22c37 0 55 9 55 66v145c0 66 12 117 81 140c-69 21 -82 69 -82 135v148c0 53 -17 64 -54 64h-19v94h40c102 0 152 -39 152 -131v-168c0 -60 3 -96 70 -98v-88c-66 -2 -70 -44 -70 -101v-163c0 -102 -45 -138 -153 -138z"/>
    <glyph glyph-name="bracketleft.case" horiz-adv-x="262" d="M51 -81v871h205v-94h-86v-683h86v-94h-205z"/>
    <glyph glyph-name="bracketright.case" horiz-adv-x="262" d="M211 -81h-206v94h86v683h-86v94h206v-871z"/>
    <glyph glyph-name="parenleft.tf" d="M248 -139c-89 127 -139 306 -139 467s49 335 139 453l104 -39c-79 -120 -118 -261 -118 -416c0 -156 36 -291 121 -423z"/>
    <glyph glyph-name="parenright.tf" d="M216 -139l-107 42c84 132 121 267 121 423c0 155 -39 296 -118 416l103 39c91 -118 140 -292 140 -453s-50 -340 -139 -467z"/>
    <glyph glyph-name="hyphen.case" horiz-adv-x="302" d="M32 409h239v-122h-239v122z"/>
    <glyph glyph-name="endash.case" horiz-adv-x="432" d="M32 401h369v-106h-369v106z"/>
    <glyph glyph-name="emdash.case" horiz-adv-x="660" d="M32 401h596v-106h-596v106z"/>
    <glyph glyph-name="underscore.case" horiz-adv-x="357" d="M0 -17h357v-78h-357v78z"/>
    <glyph glyph-name="hyphen.tf" d="M62 339h339v-122h-339v122z"/>
    <glyph glyph-name="underscore.tf" d="M0 -92h464v-78h-464v78z"/>
    <glyph glyph-name="guillemotleft.case" horiz-adv-x="465" d="M126 137l-115 209l118 206h117l-114 -206l113 -209h-119zM320 137l-116 209l119 206h117l-115 -206l114 -209h-119z"/>
    <glyph glyph-name="guillemotright.case" horiz-adv-x="465" d="M145 137h-119l114 209l-115 206h117l119 -206zM339 137h-119l113 209l-114 206h117l119 -206z"/>
    <glyph glyph-name="guilsinglleft.case" horiz-adv-x="271" d="M126 137l-115 209l118 206h117l-114 -206l113 -209h-119z"/>
    <glyph glyph-name="guilsinglright.case" horiz-adv-x="271" d="M145 137h-119l114 209l-115 206h117l119 -206z"/>
    <glyph glyph-name="parenleft.subs" horiz-adv-x="241" d="M152 -242c-68 93 -107 224 -107 341s37 244 107 331l94 -30c-61 -87 -91 -190 -91 -302c0 -113 28 -212 94 -306z"/>
    <glyph glyph-name="parenright.subs" horiz-adv-x="241" d="M89 -242l-97 34c66 94 94 193 94 306c0 112 -30 215 -91 302l94 30c70 -87 107 -214 107 -331s-39 -248 -107 -341z"/>
    <glyph glyph-name="parenleft.sups" horiz-adv-x="241" d="M152 208c-68 93 -107 224 -107 341s37 244 107 331l94 -30c-61 -87 -91 -190 -91 -302c0 -113 28 -212 94 -306z"/>
    <glyph glyph-name="parenright.sups" horiz-adv-x="241" d="M89 208l-97 34c66 94 94 193 94 306c0 112 -30 215 -91 302l94 30c70 -87 107 -214 107 -331s-39 -248 -107 -341z"/>
    <glyph glyph-name="uni0E3F" unicode="฿" horiz-adv-x="474" d="M350 366c66 -20 101 -72 101 -154v-21c0 -121 -67 -187 -189 -191v-107h-49v107h-162v695h162v91h49v-91c116 -4 180 -58 180 -158v-36c0 -69 -34 -119 -92 -135zM161 603v-207h52v207h-52zM322 523c0 50 -18 74 -60 79v-205c41 6 60 37 60 98v28zM161 92h52v222h-52 v-222zM330 191v29c0 62 -21 90 -68 94v-222c46 3 68 34 68 99z"/>
    <glyph glyph-name="uni20BA" unicode="₺" horiz-adv-x="447" d="M323 216l121 -22c-17 -99 -68 -194 -213 -194h-169v256l-60 -18v71l60 18v80l-60 -18v72l60 18v216h138v-176l134 39v-72l-134 -39v-80l134 40v-72l-134 -39v-188h23c65 0 89 46 100 108z"/>
    <glyph glyph-name="uni20BD" unicode="₽" horiz-adv-x="445" d="M231 695c134 0 205 -65 205 -189v-36c0 -132 -72 -206 -201 -206h-45v-80h90v-63h-90v-121h-137v121h-62v63h62v80h-62v93h62v338h178zM294 470v30c0 71 -21 100 -70 100h-34v-243h32c49 0 72 34 72 113z"/>
    <glyph glyph-name="uni20B9" unicode="₹" horiz-adv-x="403" d="M400 607h-129c22 -25 35 -56 38 -94h91v-63h-91c-5 -85 -49 -142 -125 -162l143 -288h-144l-142 298v59h42c55 0 81 27 85 93h-127v63h128c-4 67 -28 94 -85 94h-43v88h359v-88z"/>
    <glyph glyph-name="uni20A9" unicode="₩" horiz-adv-x="662" d="M644 404h-50l-9 -76h59v-53h-65l-31 -275h-157l-29 275h-63l-28 -275h-157l-31 275h-65v53h59l-9 76h-50v53h44l-27 238h115l18 -238h69l27 238h134l27 -238h69l17 238h116l-27 -238h44v-53zM327 597c-2 -44 -4 -84 -10 -140h27c-5 56 -8 96 -9 140h-8zM172 404l5 -76h45 l9 76h-59zM304 328h53l-8 76h-37zM484 328l6 76h-59l8 -76h45zM212 241l4 34h-35l2 -23c4 -64 8 -107 10 -160h5c4 50 8 87 14 149zM479 252l2 23h-36l4 -34c7 -62 11 -99 15 -149h5c2 53 5 96 10 160z"/>
    <glyph glyph-name="uni0E3F.case" horiz-adv-x="474" d="M350 376c66 -20 101 -72 101 -154v-31c0 -121 -67 -187 -189 -191v-87h-49v87h-162v710h162v76h49v-76c116 -4 180 -57 180 -158v-41c0 -69 -34 -119 -92 -135zM161 615v-212h52v212h-52zM322 535c0 50 -18 74 -60 79v-210c41 6 60 37 60 98v33zM161 92h52v232h-52v-232z M330 191v39c0 62 -21 90 -68 94v-232c46 3 68 34 68 99z"/>
    <glyph glyph-name="currency.case" horiz-adv-x="458" d="M405 293c0 -33 -7 -61 -20 -84l44 -52l-58 -55l-45 49c-26 -14 -58 -22 -92 -22c-38 0 -72 9 -99 25l-46 -53l-61 55l51 59c-11 23 -17 50 -17 81v106c0 35 6 65 18 90l-52 59l61 55l46 -52c27 15 60 23 99 23c35 0 65 -7 91 -20l46 50l58 -55l-46 -53 c15 -26 22 -58 22 -95v-111zM289 300v108c0 53 -23 75 -55 75c-34 0 -57 -22 -57 -77v-106c0 -53 23 -76 57 -76c32 0 55 23 55 76z"/>
    <glyph glyph-name="dollar.case" horiz-adv-x="450" d="M302 392c92 -54 133 -98 133 -184v-43c0 -101 -70 -171 -185 -180v-72h-46v72c-112 6 -188 70 -188 187v41l114 26v-52c0 -66 30 -98 74 -106v236l-59 33c-72 41 -118 93 -118 179v31c0 105 75 159 177 166v67h46v-67c96 -7 176 -58 176 -176v-31l-109 -28v39 c0 64 -24 95 -67 103v-211zM143 536c0 -38 20 -59 61 -86v184c-40 -7 -61 -32 -61 -72v-26zM316 165v28c0 40 -18 64 -66 96v-208c40 7 66 34 66 84z"/>
    <glyph glyph-name="Euro.case" horiz-adv-x="475" d="M320 208l135 -23v-27c0 -115 -84 -173 -201 -173c-131 0 -209 78 -209 224v50h-46v61h46v87h-46v60h46v41c0 144 79 219 211 219c120 0 198 -63 198 -162v-28l-136 -20v29c0 54 -28 74 -64 74c-44 0 -69 -31 -69 -98v-55h143v-60h-143v-87h143v-61h-143v-63 c0 -69 27 -104 71 -104c35 0 64 26 64 80v36z"/>
    <glyph glyph-name="uni20BA.case" horiz-adv-x="447" d="M323 216l121 -22c-17 -99 -68 -194 -213 -194h-169v256l-60 -18v71l60 18v80l-60 -18v72l60 18v231h138v-191l134 39v-72l-134 -39v-80l134 40v-72l-134 -39v-188h23c65 0 89 46 100 108z"/>
    <glyph glyph-name="uni20BD.case" horiz-adv-x="445" d="M231 710c134 0 205 -65 205 -189v-51c0 -132 -72 -206 -201 -206h-45v-80h90v-63h-90v-121h-137v121h-62v63h62v80h-62v93h62v353h178zM294 470v45c0 71 -21 100 -70 100h-34v-258h32c49 0 72 34 72 113z"/>
    <glyph glyph-name="uni20B9.case" horiz-adv-x="403" d="M400 622h-129c24 -27 38 -63 39 -107h90v-63h-90c-5 -87 -49 -144 -126 -164l143 -288h-144l-142 298v59h42c55 0 81 28 85 95h-127v63h128c-1 77 -25 107 -85 107h-43v88h359v-88z"/>
    <glyph glyph-name="sterling.case" horiz-adv-x="488" d="M346 194l131 -24c-4 -115 -63 -185 -161 -185c-66 0 -104 22 -171 23c-31 0 -65 -6 -102 -16l-41 103c71 31 104 85 104 168c0 19 -2 37 -4 55h-77v74h63c-10 42 -19 86 -19 142c0 125 67 193 191 193c123 0 188 -61 188 -183v-30l-136 -24v52c0 57 -17 85 -53 85 s-51 -27 -51 -79c0 -58 11 -105 20 -156h103v-74h-93c0 -12 1 -25 1 -38c0 -79 -35 -139 -94 -168c15 3 32 5 49 5c35 0 59 -10 89 -10c38 0 59 29 63 87z"/>
    <glyph glyph-name="uni0E3F.tf.case" d="M337 373c62 -19 100 -67 100 -155v-26c0 -122 -66 -186 -182 -192v-88h-50v88h-156v709h156v80h50v-81c112 -6 174 -64 174 -172v-24c0 -73 -35 -122 -92 -139zM205 619h-49v-215h49v215zM313 535c0 57 -21 78 -58 83v-213c39 6 58 36 58 102v28zM156 91h49v230h-49v-230 zM320 192v34c0 65 -22 90 -65 94v-229c44 4 65 34 65 101z"/>
    <glyph glyph-name="currency.tf.case" d="M407 293c0 -32 -7 -60 -20 -84l45 -52l-59 -55l-44 49c-27 -14 -58 -22 -93 -22c-38 0 -71 9 -98 25l-47 -53l-60 55l51 58c-12 23 -18 51 -18 82v106c0 35 6 65 18 90l-51 59l60 55l47 -52c26 15 59 23 98 23c35 0 66 -7 91 -20l46 50l59 -55l-46 -53 c14 -26 21 -58 21 -95v-111zM292 300v108c0 53 -23 75 -56 75s-56 -22 -56 -77v-106c0 -53 23 -76 56 -76s56 23 56 76z"/>
    <glyph glyph-name="dollar.tf.case" d="M309 384c88 -56 125 -106 125 -190v-31c0 -106 -69 -170 -182 -177v-73h-42v73c-108 6 -180 69 -180 182v44l114 27v-57c0 -58 25 -91 66 -100v225l-59 38c-69 45 -113 98 -113 183v33c0 103 68 159 172 165v67h42v-67c107 -7 174 -67 174 -178v-37l-114 -25v45 c0 65 -20 95 -60 103v-213zM151 542c0 -42 19 -66 59 -94v187c-37 -6 -59 -28 -59 -69v-24zM314 161v24c0 39 -23 65 -62 94v-198c40 6 62 33 62 80z"/>
    <glyph glyph-name="Euro.tf.case" d="M308 208l132 -29v-16c0 -114 -76 -178 -190 -178c-126 0 -195 80 -195 222v54h-46v61h46v83h-46v60h46v45c0 139 71 217 198 217c112 0 185 -61 185 -175v-12l-131 -28v31c0 52 -23 79 -56 79c-40 0 -60 -33 -60 -96v-61h102v-60h-102v-83h102v-61h-102v-70 c0 -66 20 -100 61 -100c32 0 55 29 56 84v33z"/>
    <glyph glyph-name="uni20BA.tf.case" d="M329 219l121 -22c-17 -101 -67 -197 -211 -197h-161v261l-66 -20v73l66 20v80l-66 -20v73l66 20v223h137v-182l120 36v-73l-120 -36v-80l120 36v-73l-120 -36v-194h16c64 0 87 48 98 111z"/>
    <glyph glyph-name="uni20BD.tf.case" d="M242 710c141 0 199 -75 199 -192v-40c0 -129 -64 -210 -192 -210h-43v-71h91v-64h-91v-133h-131v133h-62v64h62v71h-62v93h62v349h167zM307 478v35c0 72 -19 101 -70 101h-31v-253h28c53 0 73 37 73 117z"/>
    <glyph glyph-name="uni20B9.tf.case" d="M420 622h-129c22 -25 35 -57 38 -96h91v-64h-90c-5 -92 -48 -151 -123 -170h-2l145 -292h-147l-139 301v61h40c56 0 81 29 84 100h-124v64h124c-3 69 -28 96 -85 96h-39v88h356v-88z"/>
    <glyph glyph-name="sterling.tf.case" d="M316 194l129 -24c-4 -117 -62 -185 -153 -185c-54 0 -88 23 -144 23c-28 0 -54 -6 -84 -16l-48 104c59 32 89 84 89 166c0 19 -1 37 -4 54h-72v74h57c-12 45 -24 89 -24 144c0 127 66 192 186 192c115 0 177 -57 177 -179v-36l-133 -24v62c0 52 -16 75 -47 75 c-33 0 -47 -22 -47 -74c0 -58 14 -108 24 -160h96v-74h-85c1 -10 1 -20 1 -30c0 -91 -32 -142 -91 -175c14 4 27 5 40 5c36 0 51 -12 77 -12c34 0 53 30 56 90z"/>
    <glyph glyph-name="uni20A9.tf.case" d="M448 401h-29l-4 -78h33v-54h-35l-14 -269h-133l-15 269h-41l-15 -269h-133l-14 269h-34v54h32l-4 78h-28v55h25l-13 254h89l6 -254h39l16 254h109l16 -254h39l6 254h89l-13 -254h26v-55zM225 602l-5 -146h21c-2 62 -4 112 -4 146h-12zM122 401l2 -78h27l5 78h-34z M213 323h35l-5 78h-25zM337 323l2 78h-34l5 -78h27zM145 232l2 37h-22v-10c2 -81 2 -115 2 -158h11zM336 259v10h-22l2 -37c4 -58 5 -89 7 -131h11c0 43 0 77 2 158z"/>
    <glyph glyph-name="yen.tf.case" d="M443 710l-130 -373h98v-67h-111v-77h111v-66h-111v-127h-136v127h-111v66h111v77h-111v67h98l-130 373h143l52 -221c6 -27 11 -52 14 -87h4c3 35 7 60 13 87l53 221h143z"/>
    <glyph glyph-name="uni20A9.case" horiz-adv-x="662" d="M644 404h-51l-9 -76h60v-53h-65l-31 -275h-157l-29 275h-63l-28 -275h-157l-31 275h-65v53h60l-9 76h-51v53h45l-28 253h115l18 -253h68l28 253h134l28 -253h67l18 253h116l-28 -253h45v-53zM327 612c-2 -44 -4 -96 -10 -155h27c-5 59 -8 111 -9 155h-8zM172 404l6 -76 h44l8 76h-58zM304 328h53l-8 76h-37zM484 328l6 76h-59l9 -76h44zM212 241l4 34h-35l2 -23c5 -64 8 -107 10 -160h5c4 50 7 87 14 149zM479 252l2 23h-36l4 -34c8 -62 11 -99 15 -149h5c2 53 5 96 10 160z"/>
    <glyph glyph-name="yen.case" horiz-adv-x="434" d="M433 710l-142 -398h109v-66h-114v-60h114v-65h-114v-121h-138v121h-114v65h114v60h-114v66h109l-142 398h144l51 -207c8 -35 15 -63 20 -96h2c5 33 12 61 20 96l51 207h144z"/>
    <glyph glyph-name="uni0E3F.tf" d="M337 365c62 -19 100 -67 100 -153v-22c0 -121 -66 -184 -182 -190v-107h-50v107h-156v695h156v91h50v-92c112 -6 174 -64 174 -170v-23c0 -70 -35 -120 -92 -136zM205 605h-49v-210h49v210zM313 523c0 55 -21 76 -58 81v-208c39 6 58 36 58 100v27zM156 91h49v222h-49 v-222zM320 190v30c0 64 -22 89 -65 92v-221c44 4 65 33 65 99z"/>
    <glyph glyph-name="currency.tf" d="M407 243c0 -32 -7 -60 -20 -84l45 -52l-59 -55l-44 49c-27 -14 -58 -22 -93 -22c-38 0 -71 9 -98 25l-47 -53l-60 55l51 58c-12 23 -18 51 -18 82v106c0 35 6 65 18 90l-51 59l60 55l47 -52c26 15 59 23 98 23c35 0 66 -7 91 -20l46 50l59 -55l-46 -53 c14 -26 21 -58 21 -95v-111zM292 250v108c0 53 -23 75 -56 75s-56 -22 -56 -77v-106c0 -53 23 -76 56 -76s56 23 56 76z"/>
    <glyph glyph-name="uni20BA.tf" d="M329 216l121 -22c-17 -99 -67 -194 -211 -194h-161v257l-66 -19v72l66 20v78l-66 -19v72l66 20v214h137v-174l120 36v-73l-120 -35v-79l120 36v-73l-120 -35v-190h16c64 0 87 46 98 108z"/>
    <glyph glyph-name="uni20BD.tf" d="M242 695c141 0 199 -74 199 -189v-34c0 -128 -64 -208 -192 -208h-43v-70h91v-63h-91v-131h-131v131h-62v63h62v70h-62v93h62v338h167zM307 471v30c0 70 -19 99 -70 99h-31v-243h28c53 0 73 36 73 114z"/>
    <glyph glyph-name="uni20B9.tf" d="M420 607h-128c22 -25 34 -56 37 -94h91v-63h-91c-5 -87 -49 -143 -122 -162h-2l145 -288h-147l-139 297v60h40c55 0 79 27 83 93h-123v63h124c-4 68 -28 94 -85 94h-39v88h356v-88z"/>
    <glyph glyph-name="uni20A9.tf" d="M448 401h-28l-4 -78h32v-54h-35l-14 -269h-133l-15 269h-41l-15 -269h-133l-14 269h-34v54h31l-4 78h-27v55h24l-12 239h89l5 -239h40l16 239h109l16 -239h40l5 239h89l-12 -239h25v-55zM225 587l-5 -131h21c-2 60 -4 97 -4 131h-12zM122 401l2 -78h27l5 78h-34zM213 323 h35l-5 78h-25zM337 323l2 78h-34l5 -78h27zM145 232l2 37h-22v-10c1 -81 2 -115 2 -158h11zM336 259v10h-22l2 -37l7 -131h11c0 43 1 77 2 158z"/>
    <glyph glyph-name="plus.case" horiz-adv-x="428" d="M397 429v-100h-131v-145h-105v145h-129v100h129v134h105v-134h131z"/>
    <glyph glyph-name="minus.case" horiz-adv-x="428" d="M32 329v100h365v-100h-365z"/>
    <glyph glyph-name="multiply.case" d="M418 251l-71 -72l-116 127l-116 -126l-70 70l118 129l-116 127l71 71l113 -123l113 123l72 -71l-117 -126z"/>
    <glyph glyph-name="divide.case" horiz-adv-x="428" d="M213 471c-37 0 -63 24 -63 62s26 65 63 65s63 -26 63 -65c0 -37 -26 -62 -63 -62zM32 329v100h365v-100h-365zM213 161c-37 0 -63 25 -63 62c0 38 26 64 63 64s63 -25 63 -64c0 -37 -26 -62 -63 -62z"/>
    <glyph glyph-name="equal.case" horiz-adv-x="428" d="M32 413v100h365v-100h-365zM32 245v100h365v-100h-365z"/>
    <glyph glyph-name="notequal.case" d="M414 413h-128l-26 -68h154v-100h-193l-42 -109h-75l42 109h-96v100h135l27 68h-162v100h200l38 97h74l-37 -97h89v-100z"/>
    <glyph glyph-name="greater.case" d="M90 147v122l219 108l-219 108v120l323 -173v-112z"/>
    <glyph glyph-name="less.case" d="M374 147l-323 173v112l323 173v-120l-219 -108l219 -108v-122z"/>
    <glyph glyph-name="greaterequal.case" d="M71 174v122l219 108l-219 109v120l323 -174v-112zM394 150v-100h-323v100h323z"/>
    <glyph glyph-name="lessequal.case" d="M393 174l-323 173v112l323 174v-120l-219 -109l219 -108v-122zM70 150h323v-100h-323v100z"/>
    <glyph glyph-name="plusminus.case" d="M284 419h132v-100h-132v-132h-106v132h-130v100h130v129h106v-129zM48 50v98h368v-98h-368z"/>
    <glyph glyph-name="approxequal.case" d="M321 395c-63 0 -115 44 -171 44c-32 0 -69 -16 -92 -37v106c20 21 57 37 86 37c73 0 114 -44 170 -44c33 0 70 15 91 37v-106c-19 -22 -54 -37 -84 -37zM321 223c-63 0 -115 44 -171 44c-32 0 -68 -15 -92 -37v106c20 21 57 37 86 37c73 0 114 -44 170 -44 c33 0 70 16 91 37v-106c-19 -21 -54 -37 -84 -37z"/>
    <glyph glyph-name="asciitilde.case" d="M304 277c-68 0 -90 55 -138 55c-25 0 -43 -16 -48 -51l-75 26c12 92 64 129 116 129c68 0 95 -55 139 -55c27 0 43 28 50 60l73 -29c-16 -95 -63 -135 -117 -135z"/>
    <glyph glyph-name="logicalnot.case" d="M57 435h350v-259h-104v156h-246v103z"/>
    <glyph glyph-name="infinity.case" horiz-adv-x="508" d="M359 520c71 0 123 -49 123 -135v-12c0 -86 -50 -136 -120 -136c-47 0 -80 26 -106 64c-27 -41 -58 -64 -106 -64c-71 0 -123 49 -123 135v13c0 85 50 135 119 135c48 0 80 -25 107 -63c26 40 58 63 106 63zM153 325c28 0 45 22 60 53c-14 31 -31 55 -59 55 c-22 0 -37 -16 -37 -51v-6c0 -35 14 -51 36 -51zM392 376v6c0 35 -14 51 -37 51c-28 0 -44 -22 -59 -53c13 -31 30 -55 59 -55c22 0 37 16 37 51z"/>
    <glyph glyph-name="emptyset.case" horiz-adv-x="438" d="M409 562l-43 -57c16 -26 25 -59 25 -98v-110c0 -107 -68 -169 -173 -169c-45 0 -84 12 -113 34l-38 -50l-39 30l44 58c-16 26 -25 59 -25 98v110c0 107 68 168 172 168c45 0 84 -12 113 -34l38 51zM156 406v-95l112 148c-11 16 -28 23 -49 23c-37 0 -63 -23 -63 -76z M282 299v96l-113 -149c11 -16 28 -23 49 -23c38 0 64 22 64 76z"/>
    <glyph glyph-name="plus.tf.case" d="M414 429v-100h-130v-145h-105v145h-129v100h129v134h105v-134h130z"/>
    <glyph glyph-name="minus.tf.case" d="M50 329v100h364v-100h-364z"/>
    <glyph glyph-name="divide.tf.case" d="M231 471c-37 0 -63 26 -63 64c0 37 26 63 63 63c36 0 63 -25 63 -63s-27 -64 -63 -64zM50 329v100h364v-100h-364zM231 161c-37 0 -63 25 -63 63s26 63 63 63c36 0 63 -24 63 -63c0 -37 -27 -63 -63 -63z"/>
    <glyph glyph-name="equal.tf.case" d="M48 413v100h365v-100h-365zM48 245v100h365v-100h-365z"/>
    <glyph glyph-name="emptyset.tf.case" d="M422 562l-43 -57c16 -26 25 -59 25 -98v-110c0 -107 -68 -169 -173 -169c-45 0 -84 12 -113 34l-38 -50l-39 30l44 58c-16 26 -25 59 -25 98v110c0 107 68 168 172 168c45 0 84 -12 113 -34l38 51zM169 406v-95l112 148c-11 16 -28 23 -49 23c-37 0 -63 -23 -63 -76z M295 299v96l-113 -149c11 -16 28 -23 49 -23c38 0 64 22 64 76z"/>
    <glyph glyph-name="plus.tf" d="M414 379v-100h-130v-145h-105v145h-129v100h129v134h105v-134h130z"/>
    <glyph glyph-name="minus.tf" d="M50 279v100h364v-100h-364z"/>
    <glyph glyph-name="divide.tf" d="M231 421c-37 0 -63 26 -63 64c0 37 26 63 63 63c36 0 63 -25 63 -63s-27 -64 -63 -64zM50 279v100h364v-100h-364zM231 111c-37 0 -63 25 -63 63s26 63 63 63c36 0 63 -24 63 -63c0 -37 -27 -63 -63 -63z"/>
    <glyph glyph-name="equal.tf" d="M48 363v100h365v-100h-365zM48 195v100h365v-100h-365z"/>
    <glyph glyph-name="emptyset.tf" d="M422 512l-43 -57c16 -26 25 -59 25 -98v-110c0 -107 -68 -169 -173 -169c-45 0 -84 12 -113 34l-38 -50l-39 30l44 58c-16 26 -25 59 -25 98v110c0 107 68 168 172 168c45 0 84 -12 113 -34l38 51zM169 356v-95l112 148c-11 16 -28 23 -49 23c-37 0 -63 -23 -63 -76z M295 249v96l-113 -149c11 -16 28 -23 49 -23c38 0 64 22 64 76z"/>
    <glyph glyph-name="arrowup" unicode="↑" horiz-adv-x="403" d="M148 -35v586h-97l151 199l150 -199h-97v-586h-107z"/>
    <glyph glyph-name="uni2197" unicode="↗" horiz-adv-x="839" d="M696 543l-570 -570l-75 79l570 569l-87 90h253v-266z"/>
    <glyph glyph-name="arrowright" unicode="→" horiz-adv-x="720" d="M51 380h418v100l199 -150l-199 -150v100h-418v100z"/>
    <glyph glyph-name="uni2198" unicode="↘" horiz-adv-x="839" d="M696 179l91 98v-266h-253l87 90l-570 569l75 79z"/>
    <glyph glyph-name="arrowdown" unicode="↓" horiz-adv-x="403" d="M255 745v-586h97l-151 -199l-150 199h97v586h107z"/>
    <glyph glyph-name="uni2199" unicode="↙" horiz-adv-x="839" d="M142 179l571 570l74 -79l-570 -569l88 -90h-254v266z"/>
    <glyph glyph-name="arrowleft" unicode="←" horiz-adv-x="720" d="M668 280h-417v-100l-200 150l200 150v-100h417v-100z"/>
    <glyph glyph-name="uni2196" unicode="↖" horiz-adv-x="839" d="M142 542l-91 -98v266h254l-88 -90l570 -569l-74 -79z"/>
    <glyph glyph-name="arrowboth" unicode="↔" horiz-adv-x="790" d="M539 280h-288v-100l-200 150l200 150v-100h288v100l200 -150l-200 -150v100z"/>
    <glyph glyph-name="arrowupdn" unicode="↕" horiz-adv-x="403" d="M51 162h97v389h-97l151 199l150 -199h-97v-389h97l-150 -199z"/>
    <glyph glyph-name="uni21A9" unicode="↩" horiz-adv-x="769" d="M251 180l-200 150l200 150v-100h234c73 0 115 34 115 99v28c0 66 -41 99 -113 99h-137v100h153c134 0 214 -67 214 -194v-36c0 -126 -80 -196 -214 -196h-252v-100z"/>
    <glyph glyph-name="uni21AA" unicode="↪" horiz-adv-x="769" d="M518 180v100h-252c-134 0 -215 70 -215 196v36c0 127 81 194 215 194h153v-100h-137c-73 0 -113 -33 -113 -99v-28c0 -65 41 -99 115 -99h234v100l199 -150z"/>
    <glyph glyph-name="uni21B0" unicode="↰" horiz-adv-x="716" d="M557 -18v568h-306v-100l-200 150l200 150v-100h413v-668h-107z"/>
    <glyph glyph-name="uni21B1" unicode="↱" horiz-adv-x="716" d="M159 -18h-108v668h413v100l200 -150l-200 -150v100h-305v-568z"/>
    <glyph glyph-name="uni21B2" unicode="↲" horiz-adv-x="716" d="M557 728h107v-668h-413v-100l-200 150l200 150v-100h306v568z"/>
    <glyph glyph-name="uni21B3" unicode="↳" horiz-adv-x="716" d="M159 728v-568h305v100l200 -150l-200 -150v100h-413v668h108z"/>
    <glyph glyph-name="uni21B4" unicode="↴" horiz-adv-x="694" d="M547 691v-521h95l-149 -200l-150 200h96v422h-388v99h496z"/>
    <glyph glyph-name="uni21BB" unicode="↻" horiz-adv-x="753" d="M401 389h96v29c0 151 -72 201 -167 201c-93 0 -168 -49 -168 -200v-127c0 -150 74 -201 168 -201c71 0 116 40 142 80l79 -71c-34 -54 -110 -114 -221 -114c-151 0 -279 84 -279 304v127c0 220 128 303 279 303c152 0 277 -83 277 -304v-27h95l-151 -199z"/>
    <glyph glyph-name="uni21C4" unicode="⇄" horiz-adv-x="794" d="M656 406h-405v-101l-200 150l200 150v-101h405v-98zM543 254v100l199 -149l-199 -150v100h-405v99h405z"/>
    <glyph glyph-name="uni21C5" unicode="⇅" horiz-adv-x="660" d="M405 40v511h-96l150 199l149 -199h-96v-511h-107zM202 -40l-151 199h97v512h108v-512h96z"/>
    <glyph glyph-name="uni21BB.alt" horiz-adv-x="800" d="M402 616c-74 0 -116 -40 -144 -79l-80 70c36 55 111 113 226 113c149 0 272 -81 272 -301v-30h95l-151 -199l-149 199h96v28c0 151 -72 199 -165 199zM398 91c73 0 116 40 144 79l80 -70c-36 -55 -111 -114 -225 -114c-150 0 -273 82 -273 302v29h-94l150 199l150 -199 h-96v-27c0 -151 70 -199 164 -199z"/>
    <glyph glyph-name="arrowup.ss03" horiz-adv-x="723" d="M304 547l-178 -190l-75 83l311 310l309 -310l-72 -83l-180 190v-582h-115v582z"/>
    <glyph glyph-name="uni2197.ss03" horiz-adv-x="840" d="M683 526l-552 -559l-80 89l558 556l-263 -7v105h442v-443h-109z"/>
    <glyph glyph-name="arrowright.ss03" horiz-adv-x="721" d="M467 274h-416v112h416l-190 179l82 74l311 -309l-311 -310l-83 74z"/>
    <glyph glyph-name="uni2198.ss03" horiz-adv-x="840" d="M683 172l-4 259h109v-443h-442v105l263 -7l-558 556l80 89z"/>
    <glyph glyph-name="arrowdown.ss03" horiz-adv-x="723" d="M304 163v582h115v-582l180 190l72 -83l-309 -310l-311 310l75 83z"/>
    <glyph glyph-name="uni2199.ss03" horiz-adv-x="840" d="M156 172l553 559l79 -89l-557 -556l262 7v-105h-442v443h109z"/>
    <glyph glyph-name="arrowleft.ss03" horiz-adv-x="721" d="M254 274l191 -180l-83 -74l-311 310l311 309l82 -74l-190 -179h416v-112h-416z"/>
    <glyph glyph-name="uni2196.ss03" horiz-adv-x="840" d="M156 526l4 -259h-109v443h442v-105l-262 7l557 -556l-79 -89z"/>
    <glyph glyph-name="uni25CF" unicode="●" horiz-adv-x="631" d="M316 -17c-168 0 -286 119 -286 312v121c0 194 117 311 287 311c169 0 284 -117 284 -311v-121c0 -194 -116 -312 -285 -312z"/>
    <glyph glyph-name="circle" unicode="○" horiz-adv-x="631" d="M316 -17c-168 0 -286 119 -286 312v121c0 194 117 311 287 311c169 0 284 -117 284 -311v-121c0 -193 -116 -312 -285 -312zM316 38c131 0 222 96 222 256v122c0 160 -91 256 -221 256c-132 0 -224 -95 -224 -256v-122c0 -160 92 -256 223 -256z"/>
    <glyph glyph-name="uni2105" unicode="℅" horiz-adv-x="679" d="M188 -14h-89l392 745h87zM24 486v85c0 95 50 145 141 145c83 0 134 -43 136 -132v-11l-101 -13v21c-2 39 -14 56 -36 56c-26 0 -39 -21 -39 -65v-85c0 -45 13 -67 39 -67c23 0 35 18 36 57v24l101 -12v-16c-4 -85 -54 -131 -138 -131c-87 0 -139 52 -139 144zM515 4 c-85 0 -140 50 -140 145v86c0 94 53 145 140 145s139 -51 139 -145v-88c0 -93 -55 -143 -139 -143zM552 148v88c0 45 -13 65 -37 65c-25 0 -38 -20 -38 -66v-87c0 -46 13 -67 38 -67s37 21 37 67z"/>
    <glyph glyph-name="at.case" horiz-adv-x="618" d="M317 -25c-180 0 -287 111 -287 298v146c0 194 114 312 287 312c169 0 271 -104 271 -289v-134c0 -114 -46 -169 -130 -169c-55 0 -94 27 -105 73c-14 -46 -46 -72 -90 -72c-61 0 -98 43 -98 115c0 75 33 112 113 130l64 14v57c0 30 -10 43 -30 43c-22 0 -33 -14 -33 -42 v-35h-105v26c1 79 53 126 138 126c92 0 135 -40 135 -128v-185c0 -38 9 -54 31 -54c25 0 37 27 37 89v138c0 152 -69 233 -201 233c-133 0 -208 -88 -208 -246v-149c0 -142 83 -230 218 -230c47 0 91 10 126 30l21 -58c-39 -25 -94 -39 -154 -39zM305 218c23 0 39 23 39 55 v70l-28 -7c-31 -10 -43 -27 -43 -62v-7c0 -31 11 -49 32 -49z"/>
    <glyph glyph-name="section.case" horiz-adv-x="376" d="M301 244c41 -32 58 -68 58 -117c0 -96 -65 -144 -176 -144c-101 0 -164 46 -164 131v31l109 28v-38c0 -44 24 -65 54 -65c33 0 50 17 50 49c0 36 -15 56 -68 84l-60 34c-60 30 -88 71 -88 126c0 48 22 83 63 104c-42 31 -59 68 -59 118c0 94 63 142 176 142 c101 0 158 -46 158 -127v-28l-108 -29v36c0 41 -22 61 -51 61c-32 0 -50 -16 -50 -49c0 -35 17 -56 68 -83l60 -34c60 -30 87 -71 87 -127c0 -47 -21 -82 -59 -103zM129 386c0 -32 15 -56 55 -76l49 -26c10 10 14 22 14 40c0 32 -12 54 -53 76l-49 27 c-11 -10 -16 -23 -16 -41z"/>
    <glyph glyph-name="bar.case" horiz-adv-x="211" d="M50 -85v877h111v-877h-111z"/>
    <glyph glyph-name="brokenbar.case" horiz-adv-x="211" d="M161 800v-386h-111v386h111zM161 313v-390h-111v390h111z"/>
    <glyph glyph-name="dagger.case" horiz-adv-x="419" d="M269 438v-486h-119v486h-120v102h120v215h119v-215h120v-102h-120z"/>
    <glyph glyph-name="daggerdbl.case" horiz-adv-x="419" d="M389 438h-120v-176h120v-102h-120v-208h-119v208h-120v102h120v176h-120v102h120v215h119v-215h120v-102z"/>
    <glyph glyph-name="bar.tf" horiz-adv-x="232" d="M60 -117v877h112v-877h-112z"/>
    <glyph glyph-name="plus.subs" horiz-adv-x="358" d="M323 142v-84h-101v-103h-87v103h-100v84h100v96h87v-96h101z"/>
    <glyph glyph-name="minus.subs" horiz-adv-x="358" d="M35 58v84h288v-84h-288z"/>
    <glyph glyph-name="multiply.subs" horiz-adv-x="377" d="M337 7l-61 -60l-88 92l-88 -91l-60 58l90 94l-88 92l60 59l86 -90l86 90l61 -59l-88 -91z"/>
    <glyph glyph-name="divide.subs" horiz-adv-x="358" d="M179 168c-31 0 -52 20 -52 51s21 51 52 51c30 0 52 -20 52 -51c0 -30 -22 -51 -52 -51zM35 58v84h288v-84h-288zM179 -71c-31 0 -52 21 -52 51c0 32 21 51 52 51c30 0 52 -19 52 -51c0 -29 -22 -51 -52 -51z"/>
    <glyph glyph-name="plus.sups" horiz-adv-x="358" d="M323 592v-84h-101v-104h-87v104h-100v84h100v96h87v-96h101z"/>
    <glyph glyph-name="minus.sups" horiz-adv-x="358" d="M35 508v84h288v-84h-288z"/>
    <glyph glyph-name="multiply.sups" horiz-adv-x="377" d="M337 457l-61 -60l-88 92l-88 -91l-60 58l90 94l-88 92l60 59l86 -90l86 90l61 -59l-88 -91z"/>
    <glyph glyph-name="divide.sups" horiz-adv-x="358" d="M179 618c-31 0 -52 20 -52 51s21 51 52 51c30 0 52 -20 52 -51c0 -30 -22 -51 -52 -51zM35 508v84h288v-84h-288zM179 379c-31 0 -52 21 -52 52s21 50 52 50c30 0 52 -19 52 -50c0 -30 -22 -52 -52 -52z"/>
    <glyph glyph-name="caronaccentcomb" horiz-adv-x="219" d="M94 532l-26 43c29 8 42 20 42 42h-58v93h115v-77c0 -54 -21 -87 -73 -101z"/>
    <glyph glyph-name="uniE000" unicode="" horiz-adv-x="694" d="M147 691h495v-99h-388v-422h97l-150 -200l-150 200h96v521z"/>
    </font>
</defs>
</svg>
