<?xml version="1.0" standalone="no"?>
<!DOCTYPE svg PUBLIC "-//W3C//DTD SVG 1.1//EN" "http://www.w3.org/Graphics/SVG/1.1/DTD/svg11.dtd" >
<svg xmlns="http://www.w3.org/2000/svg" xmlns:xlink="http://www.w3.org/1999/xlink" version="1.1">
<metadata>
Created by FontForge 20170731 at Fri Jan 15 15:03:25 2021
 By Aleksey,,,
(c) 1996, 2001 Adobe Systems Incorporated. All rights reserved.
</metadata>
<defs>
<font id="CronosPro-SemiboldSubhIt" horiz-adv-x="630" >
  <font-face 
    font-family="Cronos Pro Light Subhead"
    font-weight="600"
    font-style="italic"
    font-stretch="normal"
    units-per-em="2048"
    panose-1="2 12 6 2 3 6 3 9 3 4"
    ascent="1536"
    descent="-512"
    x-height="922"
    cap-height="1286"
    bbox="-389 -575 2271.97 1810"
    underline-thickness="102"
    underline-position="-307"
    slope="-10"
    unicode-range="U+0020-E006"
  />
<missing-glyph horiz-adv-x="1024" 
d="M0 0v1434h1024v-1434h-1024zM512 809l348 522h-696zM573 717l349 -522v1044zM164 102h696l-348 523zM102 1239v-1044l349 522z" />
    <glyph glyph-name="fi" unicode="fi" horiz-adv-x="993" 
d="M684 737h-301q-85 -642 -94 -702q-17 -113 -50 -199.5t-72 -137t-88 -82.5t-92.5 -43t-90.5 -11q-38 0 -74 11.5t-49 25.5q-26 26 -29 78t14 69q48 -20 107 -20q90 0 138 74.5t75 246.5q64 446 90 690h-145q2 44 23 93.5t46 52.5h94q12 98 34.5 177t50 132.5t63.5 93
t70.5 61.5t77 35t76.5 17t75 4q73 0 132.5 -26t84.5 -58q4 -38 -23 -81t-65 -21q-64 32 -117 32q-38 0 -66 -6.5t-59 -29t-52.5 -61.5t-40 -107t-28.5 -162h320q39 2 102.5 15t77.5 13q10 0 14.5 -10.5t4 -37t-5 -63t-13.5 -98.5q-67 -503 -82 -620q-7 -44 -31 -64
q-16 -13 -80 -26.5t-126 -14.5q7 51 25 172.5t29 196.5t25.5 186t24.5 205z" />
    <glyph glyph-name="fl" unicode="fl" horiz-adv-x="1005" 
d="M168 737h-145q2 43 24 93t45 53h94q12 99 36.5 179.5t53.5 133.5t67.5 92.5t74 61t78 34t74 16t67.5 3.5q108 0 172 -49q30 9 68 23t58.5 20t35.5 6q19 0 22 -21.5t-6 -68.5q-119 -820 -174 -1211q-9 -66 -27 -84q-14 -13 -78 -26.5t-130 -14.5q4 31 25 175.5t43.5 300
t39.5 284.5h-303q-16 -118 -46 -350t-48 -352q-17 -113 -50.5 -199.5t-73.5 -137t-89.5 -82.5t-93.5 -43t-91 -11q-39 0 -72 11t-46 26q-26 25 -29 77.5t14 69.5q48 -20 107 -20q90 0 138 74.5t73 246.5q63 414 92 690zM705 883q37 214 51 338q-41 34 -115 34
q-102 0 -159.5 -89t-80.5 -283h304z" />
    <glyph glyph-name="f_f" unicode="ff" horiz-adv-x="1054" 
d="M168 737h-145q2 42 21.5 88.5t47.5 57.5h90q13 92 37 166t53 123t67 85.5t73 56t77.5 31t73.5 14.5t68 3q56 0 120 -18.5t105 -59.5q91 119 242 119q102 0 151 -49q0 -37 -18.5 -76t-50.5 -31q-50 13 -72 13q-35 0 -60 -14t-49.5 -52.5t-42 -115.5t-28.5 -195
q203 0 231 6q-3 -57 -25 -99.5t-53 -48.5q-39 -4 -170 -4q-19 -182 -77 -616q-18 -145 -63 -249t-109 -161.5t-136.5 -83.5t-158.5 -26q-130 0 -222 73q-43 -54 -107.5 -83t-133.5 -29q-84 0 -129 39q-29 30 -29 79.5t18 65.5q38 -20 101 -20q27 0 49 6t39.5 15t32.5 28.5
t26 37.5t21.5 50.5t17.5 59t15.5 72.5t13.5 81t14 94q40 274 74 567zM401 883h310q22 180 75 288q-24 19 -67.5 34.5t-79.5 15.5q-45 0 -81.5 -15.5t-69.5 -52t-55 -104.5t-32 -166zM698 737h-317q-51 -441 -84 -669q-28 -176 -72 -269q53 -47 146 -47q49 0 87 18.5t65.5 52
t48 88.5t34 120t25.5 155q60 485 67 551z" />
    <glyph glyph-name="f_f_i" unicode="ffi" horiz-adv-x="1538" 
d="M168 737h-145q2 42 21.5 88.5t47.5 57.5h90q14 92 40 166.5t56 123.5t69.5 85.5t75 55.5t79 30.5t74.5 14.5t67 3q56 0 121 -19.5t106 -60.5q46 56 129 88.5t168 32.5q67 0 131.5 -23.5t90.5 -50.5q1 -19 -7 -47t-27 -49t-42 -14q-85 34 -133 34q-35 0 -60.5 -5.5
t-57 -27t-54 -60t-43.5 -109t-33 -168.5h325q39 2 103 15t78 13q10 0 14.5 -10t4 -38t-4.5 -62t-12 -99q-65 -484 -84 -620q-7 -47 -31 -64q-14 -13 -79.5 -26.5t-127.5 -14.5q85 558 107 760h-310q-37 -330 -79 -618q-66 -518 -461 -518q-139 0 -228 71q-44 -51 -110 -80.5
t-133 -29.5q-84 0 -129 39q-29 30 -29 79.5t18 65.5q38 -20 101 -20q30 0 54 6t43.5 21.5t34 32.5t27 49t21 60.5t17.5 77.5t15 88.5t15 104.5q47 323 76 571zM401 883h314q24 169 82 284q-22 23 -65 36.5t-83 13.5q-211 0 -248 -334zM702 737h-321q-50 -431 -84 -669
q-30 -184 -70 -269q58 -43 148 -43q61 0 104.5 26.5t73 84.5t47.5 133.5t33 189.5q10 77 25.5 196.5t26.5 204t17 146.5z" />
    <glyph glyph-name="f_f_l" unicode="ffl" horiz-adv-x="1550" 
d="M170 737h-145q2 43 20.5 89t46.5 57h92q12 92 36.5 166t54 123t69 85.5t75 56t79 31t75 14.5t68.5 3q62 0 124 -20.5t105 -63.5q48 60 131.5 92.5t165.5 32.5q56 0 109 -15t82 -36q30 9 67 23t58 21t35 7q13 0 18.5 -10t5 -28t-5.5 -52q-133 -913 -172 -1211
q-9 -63 -37 -84q-14 -13 -79.5 -26.5t-127.5 -14.5q14 100 57 371t60 389h-322q-11 -108 -24 -212t-32 -240.5t-23 -167.5q-66 -516 -459 -516q-138 0 -230 73q-44 -51 -110.5 -81.5t-132.5 -30.5q-82 0 -129 37q-29 30 -29 80.5t18 66.5q38 -20 101 -20q35 0 62 10
t46.5 24.5t36 46.5t27 60t21 83t17 97t17.5 119q57 387 78 571zM938 883h319q3 21 23 147.5t27 186.5q-45 40 -131 40q-101 0 -156.5 -84t-81.5 -290zM401 883h316q28 192 80 286q-24 24 -65.5 38t-80.5 14q-46 0 -84 -15.5t-72.5 -51.5t-59 -104.5t-34.5 -166.5zM702 737
h-319q-61 -494 -88 -669q-23 -167 -72 -273q23 -17 66 -29t80 -12q119 0 177 104.5t87 331.5q10 77 25.5 196.5t26.5 204t17 146.5z" />
    <glyph glyph-name="f_j" unicode="fj" horiz-adv-x="1011" 
d="M168 737h-145q2 42 24 94t47 52h90q12 97 35.5 175.5t53 132t68 93t75.5 62t81 36t79 17.5t75 4q72 0 135.5 -26.5t87.5 -57.5q4 -38 -22.5 -83.5t-63.5 -23.5q-18 10 -58.5 21.5t-74.5 11.5q-40 0 -70.5 -7.5t-62 -30.5t-54 -62t-40.5 -105t-27 -157h316q16 4 50 13
t55 14t46 9.5t41 4.5q28 0 13 -115q-11 -81 -53 -376t-50 -357q-29 -215 -136.5 -339t-293.5 -124q-69 0 -130.5 21.5t-94.5 58.5q-102 -131 -283 -131q-25 0 -56 9t-42 19q-28 20 -35.5 55t-2 60.5t14.5 40.5q48 -20 109 -20q37 0 66.5 12.5t51 41t37 61t28.5 87t21 103
t19 123.5q58 397 76 583zM694 737h-313q-24 -223 -90 -690q-14 -113 -60 -229q29 -22 71.5 -33.5t74.5 -11.5q85 0 141.5 60.5t79.5 211.5q62 382 96 692z" />
    <glyph glyph-name="f_f_j" unicode="ffj" horiz-adv-x="1542" 
d="M168 737h-145q2 42 21.5 88.5t47.5 57.5h90q13 92 38 166t55.5 123t70.5 85.5t77 56t81 31t76 14.5t69 3q53 0 115 -20t104 -62q48 61 130.5 92t164.5 31q79 0 139 -24.5t87 -53.5q4 -34 -18.5 -79t-55.5 -34q-3 1 -31.5 13t-54.5 20t-45 8q-26 0 -44 -2t-42.5 -10
t-42 -22.5t-37.5 -42t-34.5 -66t-28.5 -96t-23 -131.5h319q16 4 50.5 13t55 14t45.5 9.5t40 4.5q10 0 15 -10t5 -35.5t-6 -69.5q-24 -156 -94 -684q-31 -216 -137 -341.5t-291 -125.5q-69 0 -136 21.5t-102 60.5q-63 -79 -140.5 -109t-174.5 -30q-134 0 -231 77
q-97 -119 -246 -116q-90 0 -133 37q-29 31 -28 81t19 66q38 -20 101 -20q34 0 61 9.5t47 25t36.5 46t27.5 60.5t22 82.5t18 97.5t17 119q47 323 76 571zM401 883h314q23 158 80 286q-22 24 -62.5 38t-79.5 14q-218 0 -252 -338zM702 737h-321q-51 -441 -84 -669
q-26 -164 -74 -265q25 -19 67 -33t81 -14q119 0 175 101.5t87 332.5q10 77 25.5 196.5t26.5 204t17 146.5zM1229 737h-314q-21 -188 -75 -602q-19 -176 -70 -272q68 -49 148 -49q89 0 144.5 68t80.5 224q56 359 86 631z" />
    <glyph glyph-name="T_h" unicode="Th" horiz-adv-x="1968" 
d="M516 1135h-379q-28 0 -34.5 8.5t-0.5 34.5q24 74 72 112q49 -10 311 -10h668q4 28 6 55t2 29q116 29 203 29q31 0 16 -90q-5 -36 -18.5 -142.5t-32.5 -242.5t-43 -291q85 148 190.5 223.5t219.5 75.5q55 0 92.5 -26t54 -71t20 -105t-9.5 -128q-4 -24 -21 -134t-32 -196
q-24 -178 -24 -256q-37 -18 -104 -26.5t-107 -8.5q-8 0 -10.5 29.5t2 88t16.5 134.5q16 101 67 400q16 118 -51 118q-35 0 -75.5 -23t-85 -75t-84.5 -126.5t-76 -187.5t-58 -247q-10 -51 -30 -66q-51 -33 -207 -36q39 211 86 538.5t80 612.5h-394l-118 -883
q-21 -149 -31 -250q-52 -14 -195 -14q-22 0 -30.5 7.5t-5.5 27.5z" />
    <glyph glyph-name=".notdef" horiz-adv-x="1024" 
d="M0 0v1434h1024v-1434h-1024zM512 809l348 522h-696zM573 717l349 -522v1044zM164 102h696l-348 523zM102 1239v-1044l349 522z" />
    <glyph glyph-name=".null" horiz-adv-x="0" 
 />
    <glyph glyph-name="nonmarkingreturn" horiz-adv-x="682" 
 />
    <glyph glyph-name="space" unicode=" " horiz-adv-x="475" 
 />
    <glyph glyph-name="space" unicode="&#xa0;" horiz-adv-x="475" 
 />
    <glyph glyph-name="exclam" unicode="!" horiz-adv-x="397" 
d="M371 1243q26 0 35 -13t6 -50q-11 -82 -68.5 -355t-75.5 -338q-12 -42 -45 -53q-56 -20 -96 -20q17 306 33 780q21 19 88 34t123 15zM166 254q55 0 85 -36t30 -91q0 -67 -38 -108.5t-100 -41.5q-56 0 -88 32.5t-32 90.5q0 71 38 112.5t105 41.5z" />
    <glyph glyph-name="quotedbl" unicode="&#x22;" horiz-adv-x="665" 
d="M319 1341q41 0 50.5 -34.5t-2.5 -85.5q-15 -76 -45 -166t-56 -140q-16 -14 -54 -27t-75 -14q2 21 7 79.5t7.5 89.5t7 92t4 87t-0.5 74q28 16 76 30.5t81 14.5zM631 1341q42 0 52 -34.5t-3 -85.5q-15 -74 -44.5 -164.5t-55.5 -141.5q-18 -14 -56.5 -27t-74.5 -14
q30 302 26 422q26 16 74 30.5t82 14.5z" />
    <glyph glyph-name="numbersign" unicode="#" horiz-adv-x="946" 
d="M178 965h152l65 235q72 23 121 23q20 0 12 -31l-61 -227h174l64 235q61 23 116 23q20 0 13 -33l-60 -225h103q39 0 28 -43q-16 -66 -43 -115h-129l-63 -240h121q19 0 25.5 -9t2.5 -30q-18 -77 -41 -118h-155l-72 -289q-10 -8 -47 -17.5t-64 -9.5q-26 0 -18 33l74 283
h-177l-75 -287q-8 -29 -33 -29q-22 0 -102 39l77 277h-116q-23 0 -29 8.5t0 30.5q12 62 39 118h145l66 240h-125q-24 0 -31.5 7.5t-1.5 31.5q16 70 45 119zM598 807h-172l-66 -240h172z" />
    <glyph glyph-name="dollar" unicode="$" horiz-adv-x="946" 
d="M678 1346l-35 -170q49 -5 115.5 -35t91.5 -64q-4 -55 -34.5 -85t-65.5 -19q-116 65 -201 65q-84 0 -131 -40t-47 -111q0 -57 45 -101.5t157 -115.5q121 -75 179.5 -146.5t58.5 -171.5q0 -80 -28.5 -144.5t-77.5 -105t-106.5 -64t-121.5 -30.5l-31 -151q-4 -20 -17 -28
t-38 -11q-57 -11 -129 -8l37 190q-73 6 -149.5 41.5t-118.5 85.5q5 62 34 94t70 8q140 -86 256 -86q96 0 143.5 45t47.5 119q0 56 -44 104t-159 119q-115 74 -170 147.5t-55 166.5q0 63 21 117t54 91t75 64.5t83 41t80 16.5l22 114q8 37 54 45q57 13 135 13z" />
    <glyph glyph-name="percent" unicode="%" horiz-adv-x="1503" 
d="M1264 1303q36 -45 36 -84q-868 -1168 -952 -1278q-26 -35 -55 -13q-41 33 -41 78q100 130 370 494t427 579q-85 -32 -198 -37t-175 15q16 -54 16 -115q0 -103 -36.5 -189.5t-114 -142t-183.5 -55.5q-107 0 -176 74.5t-69 204.5q0 75 22 145.5t63.5 127.5t108.5 91.5
t150 34.5q74 0 157 -45q90 -42 233.5 -39.5t219.5 33.5q70 28 115 78l32 40q29 29 50 3zM434 1122q-48 0 -84 -53.5t-51.5 -123t-15.5 -136.5q0 -63 22.5 -102t63.5 -39q50 0 86 54.5t51 124t14 136.5q0 62 -21 100.5t-65 38.5zM1174 653q105 0 170 -74t65 -198
q0 -59 -11.5 -115.5t-37 -109.5t-62.5 -93t-92.5 -64t-122.5 -24q-115 0 -182 73.5t-67 203.5q0 73 22.5 143t63.5 128.5t107.5 94t146.5 35.5zM1157 541q-49 0 -84.5 -52.5t-51 -124.5t-15.5 -149q0 -55 21 -91t63 -36q48 0 83.5 54.5t50.5 124t15 136.5q0 35 -5.5 63
t-25 51.5t-51.5 23.5z" />
    <glyph glyph-name="ampersand" unicode="&#x26;" horiz-adv-x="1294" 
d="M1171 14v-6q-83 -33 -210 -33q-52 0 -80 39q-18 20 -62 68t-57 63q-89 -95 -177 -132.5t-190 -37.5q-150 0 -244 90t-94 226q0 40 8.5 75.5t18.5 62.5t34.5 56.5t41 47t53.5 45.5t56 41t65 43q-92 128 -92 256q0 160 99.5 249.5t250.5 89.5q126 0 207.5 -75t81.5 -191
q0 -42 -8.5 -77.5t-30 -67.5t-39 -53.5t-56 -50t-58 -42t-66.5 -42.5q-7 -5 -11 -7q104 -117 203 -231q121 200 227 354q47 68 93 68q82 0 131 -49v-5q-85 -80 -353 -479q60 -65 110.5 -122t75 -85.5t47.5 -56.5t25 -31zM440 958q0 -99 90 -206q75 48 116.5 102.5
t41.5 128.5q0 58 -31 98.5t-79 40.5q-66 0 -102 -45.5t-36 -118.5zM477 141q45 0 101.5 25.5t99.5 77.5q-21 26 -129 150t-137 165q-57 -37 -96.5 -92.5t-39.5 -120.5q0 -88 52.5 -146.5t148.5 -58.5z" />
    <glyph glyph-name="quotesingle" unicode="'" horiz-adv-x="358" 
d="M319 1341q77 0 52 -120q-13 -73 -43.5 -164t-57.5 -142q-16 -14 -56 -27t-77 -14q2 20 7 79.5t7.5 90t7 92.5t4 87.5t-0.5 74.5q30 16 77 29.5t80 13.5z" />
    <glyph glyph-name="parenleft" unicode="(" horiz-adv-x="688" 
d="M98 410q0 323 131.5 591t362.5 433q43 -9 75 -40.5t29 -54.5q-407 -360 -407 -893q0 -211 49.5 -410.5t159.5 -330.5q-4 -28 -43.5 -55t-71.5 -27q-71 54 -128 151.5t-90 208.5t-50 221t-17 206z" />
    <glyph glyph-name="parenright" unicode=")" horiz-adv-x="688" 
d="M578 641q-1 -326 -134.5 -593.5t-367.5 -424.5q-40 7 -69.5 41t-26.5 57q407 363 407 889q0 212 -49.5 412t-161.5 330q4 28 45 55t72 27q71 -56 128 -155t90 -211t50 -222t17 -205z" />
    <glyph glyph-name="asterisk" unicode="*" horiz-adv-x="753" 
d="M399 1100l13 254q44 11 106 -6q58 -19 43 -54l-88 -202l211 114q41 -44 47 -112q7 -53 -37 -56l-192 -18l182 -117q44 -26 21 -69q-14 -25 -42.5 -47.5t-50.5 -28.5l-163 207l-7 -250q-43 -7 -125 18q-43 14 -18 72l78 176l-215 -123q-19 14 -35 49.5t-21 67.5
q-3 18 4.5 30.5t20.5 14.5l215 29l-174 110q-48 28 -22 68q38 54 96 80z" />
    <glyph glyph-name="plus" unicode="+" horiz-adv-x="1169" 
d="M504 434h-371q2 88 16 125t50 37h305v188q0 112 -6 168l129 11q33 3 42 -11.5t9 -60.5v-295h371q0 -90 -14 -126t-54 -36h-303v-352q0 -26 -20 -40.5t-78 -18.5l-76 -5v416z" />
    <glyph glyph-name="comma" unicode="," horiz-adv-x="395" 
d="M201 305q34 0 51.5 -33t17.5 -77q0 -99 -56 -198t-128 -159q-63 -51 -197 -47q80 99 124.5 223t25.5 240q84 51 162 51z" />
    <glyph glyph-name="hyphen" unicode="-" horiz-adv-x="595" 
d="M526 602l4 -8q-7 -53 -36.5 -108.5t-69.5 -67.5q-54 -16 -189 -31t-184 -12l-6 8q7 61 35 111.5t49 52.5q269 26 397 55z" />
    <glyph glyph-name="period" unicode="." horiz-adv-x="395" 
d="M160 254q53 0 82.5 -37t29.5 -92q0 -66 -38.5 -107t-100.5 -41q-54 0 -86.5 33.5t-32.5 89.5q0 71 39.5 112.5t106.5 41.5z" />
    <glyph glyph-name="slash" unicode="/" horiz-adv-x="759" 
d="M739 1313l-518 -1432q-18 -44 -36.5 -58.5t-61.5 -15.5h-111l533 1446q9 23 15 32.5t24 18t51 9.5h104z" />
    <glyph glyph-name="zero" unicode="0" horiz-adv-x="946" 
d="M555 1233q80 0 142 -29.5t99.5 -76t62 -112t33.5 -130.5t9 -137q0 -86 -10.5 -171.5t-33 -174t-61.5 -164t-91 -135.5t-127.5 -94t-165.5 -34q-98 0 -169 42t-109 113.5t-55.5 152.5t-17.5 174q0 83 12 169.5t36 174.5t65 165t93.5 137t127 95t160.5 35zM545 1092
q-67 0 -120 -68t-83 -173.5t-45.5 -219t-15.5 -219.5q0 -36 2 -68.5t10.5 -76t23 -75t41.5 -53.5t64 -22q57 0 103.5 49t75 124t48 171t27.5 185t8 171q0 275 -139 275z" />
    <glyph glyph-name="one" unicode="1" horiz-adv-x="946" 
d="M717 1233l8 -6q-87 -741 -137 -1180q-5 -26 -12 -35t-27 -12q-141 -12 -207 -12q51 295 139 1001q-44 -13 -137 -33t-139 -24l-4 4l45 127q138 36 279 87.5t192 82.5z" />
    <glyph glyph-name="two" unicode="2" horiz-adv-x="946" 
d="M25 8l-7 10q5 13 62 109q139 135 231 233t160 190t98.5 168t30.5 148q0 81 -43 135t-123 54q-77 0 -139 -33.5t-131 -97.5h-4q-35 26 -44.5 74t9.5 67q155 168 375 168q157 0 248.5 -94t91.5 -252q0 -174 -152 -363q-112 -139 -366 -358q122 -11 505 0q1 -44 -29.5 -95
t-56.5 -59q-68 -22 -229 -22q-384 0 -487 18z" />
    <glyph glyph-name="three" unicode="3" horiz-adv-x="946" 
d="M246 547v6q0 25 20.5 68.5t30.5 46.5q149 26 222 83.5t73 163.5q0 65 -44.5 110.5t-117.5 45.5q-129 0 -252 -106l-4 4q-19 46 -14.5 82t26.5 59q46 49 131 86t187 37q79 0 140.5 -24t97.5 -64.5t54.5 -88t18.5 -98.5q0 -112 -65 -187t-170 -116q249 -77 249 -305
q0 -191 -138.5 -301t-350.5 -110q-89 0 -159 19t-105 50q-33 27 -43 82.5t2 83.5l4 2q129 -88 278 -88q120 0 195.5 61.5t75.5 174.5q0 114 -68.5 171.5t-189.5 57.5q-46 0 -84 -6z" />
    <glyph glyph-name="four" unicode="4" horiz-adv-x="946" 
d="M889 1274l4 -10q-441 -426 -668 -799q146 -22 320 -19l47 293q24 17 98 36.5t117 25.5l4 -2l-47 -355q51 0 147 11l2 -2q-6 -37 -28.5 -74t-48.5 -60q-19 -8 -88 -16q-7 -62 -33 -256q-3 -24 -13.5 -34t-31.5 -13q-135 -12 -197 -12q25 104 53 313q-126 1 -267 10.5
t-200 20.5q-14 9 -36 48t-21 62q85 143 298.5 409.5t307.5 340.5q54 30 136.5 52.5t144.5 29.5z" />
    <glyph glyph-name="five" unicode="5" horiz-adv-x="946" 
d="M125 602l-10 21q23 109 78 308t79 269q77 9 280 21t282 12l6 -6q-5 -72 -39 -127q-22 -45 -74 -51q-46 -4 -173.5 -10.5t-158.5 -8.5q-16 -38 -43 -133t-35 -139q188 -50 258 -78q133 -53 194 -129t60 -203q0 -95 -38.5 -173t-105 -129t-155 -79t-188.5 -28
q-93 0 -161.5 21.5t-96.5 47.5q-20 22 -31 64.5t-6 79.5l4 2q45 -22 122 -44t149 -22q80 0 137.5 19.5t87.5 54t43.5 73t13.5 84.5q0 88 -64 141.5t-206 94.5q-41 12 -77 20.5t-83 17.5t-49 9z" />
    <glyph glyph-name="six" unicode="6" horiz-adv-x="946" 
d="M928 1176l-4 -5q-269 -45 -418 -174q-116 -100 -176 -252t-60 -313q0 -54 8 -104.5t26.5 -101.5t57 -82t91.5 -31q90 0 142 79.5t52 188.5q0 84 -41 137t-121 53q-27 0 -71 -11t-74 -25l-6 4q-2 32 18 79t47 66q31 22 82.5 36.5t98.5 14.5q137 0 213.5 -94.5t76.5 -237.5
q0 -190 -120 -309t-310 -119q-194 0 -297.5 126t-103.5 331q0 168 60.5 322t174.5 270q75 75 157 128.5t153 77t121 33t90 9.5q42 0 78 -26.5t55 -69.5z" />
    <glyph glyph-name="seven" unicode="7" horiz-adv-x="946" 
d="M86 -18v6q176 184 370 509.5t255 532.5h-473q-104 0 -107 43q-1 23 23.5 69t54.5 83q38 -17 176 -17h561q0 -36 -12 -101t-31 -112q-66 -177 -149 -346.5t-157 -289t-131.5 -200t-94.5 -118.5q-44 -43 -78.5 -57.5t-91.5 -14.5q-56 0 -115 13z" />
    <glyph glyph-name="eight" unicode="8" horiz-adv-x="946" 
d="M512 1233q152 0 248 -83t96 -212q0 -48 -14.5 -90t-35 -70.5t-56.5 -58t-64 -46.5t-72 -42q128 -83 179 -155.5t51 -164.5q0 -57 -24 -113.5t-72 -107.5t-133.5 -83t-194.5 -32q-105 0 -184.5 28t-123.5 74t-65.5 98.5t-21.5 109.5q0 42 10 78.5t32.5 67t44 53.5t58 48
t60.5 39t65 37q-85 68 -122.5 136t-37.5 155q0 134 103.5 234t273.5 100zM502 1102q-69 0 -114.5 -46t-45.5 -122q0 -70 39 -118t127 -111q80 56 112.5 110t32.5 123q0 68 -44 116t-107 48zM438 111q88 0 138.5 48.5t50.5 123.5q0 61 -53 113t-173 132q-83 -50 -123 -102
t-40 -123q0 -86 57.5 -139t142.5 -53z" />
    <glyph glyph-name="nine" unicode="9" horiz-adv-x="946" 
d="M604 655l4 -4q2 -30 -9 -70t-26 -57q-19 -21 -69.5 -36t-106.5 -15q-138 0 -222.5 93t-84.5 243q0 181 116.5 302.5t293.5 121.5q83 0 149.5 -26t112 -71t76 -107.5t44 -132.5t13.5 -148q0 -202 -81.5 -374t-244.5 -290q-104 -80 -207.5 -112.5t-171.5 -32.5
q-39 0 -75 30t-49 80q222 41 368 160q232 186 232 549q0 56 -9.5 110.5t-29.5 107.5t-59 85.5t-91 32.5q-86 0 -130 -71t-44 -173q0 -97 48.5 -159t131.5 -62q67 0 121 26z" />
    <glyph glyph-name="colon" unicode=":" horiz-adv-x="395" 
d="M236 858q55 0 85.5 -37t30.5 -92q0 -66 -38 -106.5t-101 -40.5q-55 0 -88 29.5t-33 86.5q0 72 38.5 116t105.5 44zM158 254q55 0 84.5 -37t29.5 -92q0 -66 -37 -107t-98 -41q-56 0 -89.5 30t-33.5 87q0 72 38.5 116t105.5 44z" />
    <glyph glyph-name="semicolon" unicode=";" horiz-adv-x="395" 
d="M233 858q56 0 86.5 -38t30.5 -95q0 -63 -38.5 -103t-98.5 -40q-59 0 -91 32t-32 91q0 68 39 110.5t104 42.5zM201 305q36 0 52.5 -36.5t16.5 -82.5q0 -91 -56.5 -190t-127.5 -158q-63 -51 -197 -47q80 99 124.5 223t25.5 240q84 51 162 51z" />
    <glyph glyph-name="less" unicode="&#x3c;" horiz-adv-x="1169" 
d="M967 782l-623 -317v-6l623 -318q0 -19 -9 -63.5t-18 -67.5q-13 -29 -51 -10l-709 375q-15 9 -21.5 18t-6.5 29q0 71 22 113l715 389q39 20 57 -21q8 -20 14.5 -59t6.5 -62z" />
    <glyph glyph-name="equal" unicode="=" horiz-adv-x="1169" 
d="M981 616h-848q2 88 15.5 125t48.5 37h852q-2 -83 -15.5 -122.5t-52.5 -39.5zM981 217h-848q2 88 15.5 125t48.5 37h852q-2 -83 -15.5 -122.5t-52.5 -39.5z" />
    <glyph glyph-name="greater" unicode="&#x3e;" horiz-adv-x="1169" 
d="M201 139l624 318v6l-624 315q0 20 9.5 65t18.5 68q14 31 52 11l706 -375q31 -17 31 -47q0 -74 -25 -113l-712 -389q-42 -22 -58 18q-16 38 -22 123z" />
    <glyph glyph-name="question" unicode="?" horiz-adv-x="643" 
d="M381 1243q119 0 194.5 -62t75.5 -175q0 -88 -50 -147.5t-150 -119.5q-76 -48 -106 -79.5t-30 -69.5q2 -38 37.5 -64t96.5 -26q37 0 49 4q3 -62 -33.5 -96.5t-97.5 -34.5q-116 0 -189 61.5t-76 165.5q-3 77 47 139.5t148 126.5q76 50 106.5 81.5t30.5 66.5q0 32 -26 51.5
t-68 19.5q-53 0 -133 -34q-27 -12 -50.5 1.5t-27.5 61.5q-3 29 2 45q46 40 114.5 62t135.5 22zM266 254q57 0 88 -36.5t31 -94.5q0 -65 -39 -105.5t-100 -40.5q-58 0 -91.5 33t-33.5 90q0 68 40 111t105 43z" />
    <glyph glyph-name="at" unicode="@" horiz-adv-x="1579" 
d="M1155 -51h6q13 -18 10 -63.5t-24 -63.5q-66 -58 -171.5 -90.5t-236.5 -32.5q-189 0 -336 79.5t-230 230t-83 349.5q0 236 98 420.5t280 288.5t419 104q272 0 445 -163t173 -433q0 -219 -128 -367.5t-312 -148.5q-90 0 -133 49t-27 164q-119 -213 -317 -213q-46 0 -80 22
t-52 58.5t-26 76t-8 81.5q0 102 31.5 197t90 172.5t154 124.5t213.5 47q107 0 254 -39q-17 -69 -49 -242.5t-37 -249.5q-4 -62 11 -88t53 -26q78 0 145.5 103.5t67.5 268.5q0 213 -132.5 347.5t-342.5 134.5q-143 0 -261.5 -53.5t-196 -144t-119.5 -208t-42 -248.5
q0 -247 141 -402t385 -155q205 0 367 113zM893 717q-69 0 -123.5 -40t-85 -103t-46 -129.5t-15.5 -129.5q0 -46 15.5 -77t41.5 -31q56 0 123.5 74.5t114.5 216.5q9 22 18 55.5t14 57t11 57t6 34.5q-30 15 -74 15z" />
    <glyph glyph-name="A" unicode="A" horiz-adv-x="1245" 
d="M813 373h-446q-120 -242 -185 -355q-18 -30 -55 -30q-76 0 -158 24l-2 4q530 972 649 1209l-10 35q160 26 185 26q9 0 14.5 -4.5t7.5 -9.5t6 -17q23 -88 101 -396t106 -410q13 -49 119 -435v-4q-30 -8 -94 -15t-101 -7q-21 0 -31 12.5t-20 52.5q-11 41 -38 143.5
t-48 176.5zM438 520h348q-37 157 -73.5 305t-40.5 166q-22 -46 -101 -202t-133 -269z" />
    <glyph glyph-name="B" unicode="B" horiz-adv-x="1062" 
d="M121 1112l-2 4q2 34 19 74t40 51q171 49 352 49q124 0 217 -31.5t150 -101.5t57 -172q0 -213 -237 -301q250 -67 250 -297q0 -133 -78 -227t-201 -137t-276 -43q-152 0 -338 47q38 245 131 878q8 64 19 139.5t12 85.5q-52 -3 -115 -18zM733 954q0 94 -60.5 143.5
t-146.5 49.5q-44 0 -69 -4q-10 -73 -31 -219.5t-27 -194.5q78 0 119 4q96 11 155.5 67.5t59.5 153.5zM727 371q0 108 -72.5 167.5t-183.5 59.5q-34 0 -88 -8q-20 -134 -61 -455q46 -16 131 -16q116 0 194.5 69t79.5 183z" />
    <glyph glyph-name="B" unicode="&#xe000;" horiz-adv-x="1062" 
d="M121 1112l-2 4q2 34 19 74t40 51q171 49 352 49q124 0 217 -31.5t150 -101.5t57 -172q0 -213 -237 -301q250 -67 250 -297q0 -133 -78 -227t-201 -137t-276 -43q-152 0 -338 47q38 245 131 878q8 64 19 139.5t12 85.5q-52 -3 -115 -18zM733 954q0 94 -60.5 143.5
t-146.5 49.5q-44 0 -69 -4q-10 -73 -31 -219.5t-27 -194.5q78 0 119 4q96 11 155.5 67.5t59.5 153.5zM727 371q0 108 -72.5 167.5t-183.5 59.5q-34 0 -88 -8q-20 -134 -61 -455q46 -16 131 -16q116 0 194.5 69t79.5 183z" />
    <glyph glyph-name="C" unicode="C" horiz-adv-x="1099" 
d="M1006 182l4 -4q-4 -106 -47 -147q-109 -62 -299 -62q-280 0 -433 158.5t-153 439.5q0 98 26 198.5t85 199.5t144.5 175t215 123.5t285.5 47.5q99 0 179.5 -23t104.5 -47q-2 -54 -29.5 -94t-78.5 -23q-86 31 -176 31q-102 0 -194.5 -40.5t-162.5 -114t-111.5 -185.5
t-41.5 -246q0 -124 43 -222t134.5 -159t219.5 -61q156 0 285 55z" />
    <glyph glyph-name="D" unicode="D" horiz-adv-x="1300" 
d="M125 1102l-4 2q-4 29 11.5 71.5t37.5 59.5q69 22 188 38.5t205 16.5q670 0 670 -606q0 -165 -58 -299.5t-160 -222.5t-238.5 -135t-295.5 -47q-220 0 -405 53q26 174 66 462.5t55 385.5q18 140 34 235q-22 -2 -60 -7.5t-46 -6.5zM987 676q0 220 -107.5 341.5
t-330.5 121.5q-58 0 -90 -4q-36 -239 -133 -994q63 -18 159 -18q80 0 153 21t137 65t111 108t74 156t27 203z" />
    <glyph glyph-name="E" unicode="E" horiz-adv-x="897" 
d="M406 731h401q-12 -50 -26.5 -80t-36 -44t-41 -17.5t-52.5 -3.5h-266l-59 -441q44 -12 241 -12q200 0 260 8l2 -4q-17 -80 -104 -137q-47 -12 -258 -12q-260 0 -358 20l-27 41l133 944q18 125 33 258q146 28 203 29h444q-3 -36 -16 -64.5t-22.5 -39.5t-29.5 -29
q-31 -12 -172 -12h-194z" />
    <glyph glyph-name="F" unicode="F" horiz-adv-x="886" 
d="M393 688h416q-15 -51 -30.5 -81t-37.5 -43.5t-41 -17t-55 -3.5h-276q-11 -91 -34 -274t-32 -269q-44 -12 -192 -12q-26 0 -35 7.5t-6 29.5l143 1007q18 120 27 219q57 22 217 29h477q-14 -95 -72 -135q-31 -10 -164 -10h-247z" />
    <glyph glyph-name="G" unicode="G" horiz-adv-x="1228" 
d="M836 1311q107 0 200.5 -27t134.5 -65q-7 -54 -36 -88t-82 -17q-132 41 -207 41q-155 0 -275.5 -79t-184.5 -214t-64 -303q0 -86 22 -164t65 -142t115 -102t164 -38q86 0 131 20q61 371 58 459q110 18 198 18q25 0 32.5 -10.5t4.5 -38.5q-3 -25 -14.5 -103.5t-29 -199.5
t-30.5 -217q-202 -72 -395 -72q-272 0 -420.5 157.5t-146.5 434.5q0 63 10.5 130t36.5 141.5t65 142t100.5 129.5t137.5 107.5t181.5 72.5t228.5 27z" />
    <glyph glyph-name="H" unicode="H" horiz-adv-x="1302" 
d="M401 731h547l66 490q4 33 17 44.5t42 14.5q26 1 92 3t88 3q-22 -158 -139 -1032q-21 -166 -29 -254q-40 -12 -192 -12q-24 0 -33 7.5t-6 29.5l76 567q-64 -6 -232 -6h-317l-72 -537q-4 -32 -17 -41t-48 -14q-84 -11 -176 -6q26 151 48 307t53 405t38 304q29 217 31 266
q28 6 93.5 11t100.5 5q26 0 30 -23t-5 -98z" />
    <glyph glyph-name="I" unicode="I" horiz-adv-x="528" 
d="M78 25l129 979q4 38 15 127.5t16 138.5q28 5 97 10.5t99 5.5q23 0 27.5 -22t-4.5 -99l-121 -911q-21 -166 -29 -254q-53 -12 -198 -12q-20 0 -27 8.5t-4 28.5z" />
    <glyph glyph-name="J" unicode="J" horiz-adv-x="524" 
d="M-190 -182l4 2q52 5 81.5 11t61.5 23t50.5 44.5t38 77.5t33.5 119t30 171q49 337 92 695q20 157 28 309q109 16 205 16q38 0 29 -69q-31 -269 -135 -1014q-13 -96 -35 -174t-47.5 -130.5t-59 -91.5t-65 -60.5t-69.5 -34.5t-68.5 -17t-65.5 -4q-51 0 -77.5 40t-30.5 87z
" />
    <glyph glyph-name="K" unicode="K" horiz-adv-x="1157" 
d="M72 25l139 972q28 189 33 273q29 5 96.5 10.5t97.5 5.5q28 0 33 -27t-6 -85l-78 -521q144 141 343 349t276 294q84 0 135 -16q63 -19 6 -82q-282 -287 -529 -524q311 -485 459 -668v-4q-43 -18 -182 -18q-42 0 -72 19.5t-69 74.5q-138 200 -369 555q-9 -71 -26 -198
t-31 -234t-25 -201q-44 -12 -192 -12q-24 0 -33 7.5t-6 29.5z" />
    <glyph glyph-name="L" unicode="L" horiz-adv-x="884" 
d="M82 47l127 957q30 250 31 266q99 16 192 16q23 0 28 -22t-3 -99l-131 -1020q42 -12 239 -12q199 0 254 8l2 -4q-14 -76 -102 -137q-49 -12 -256 -12q-259 0 -357 20z" />
    <glyph glyph-name="M" unicode="M" horiz-adv-x="1617" 
d="M1221 1233l4 27q19 11 88 18.5t110 7.5q16 0 22.5 -12.5t6.5 -46.5q1 -188 -1 -453t-1.5 -444.5t6.5 -323.5q-19 -7 -89.5 -12.5t-104.5 -5.5q-41 0 -41 45q21 483 32 964q-40 -90 -208.5 -439t-249.5 -535q-79 -31 -150 -31q-10 64 -42.5 233.5t-78.5 408.5t-69 359
q-101 -464 -236 -973q-4 -20 -14.5 -26t-34.5 -6q-127 0 -160 16q114 402 344 1204l-4 43q112 35 203 35q20 0 29 -17t20 -73q27 -129 90.5 -419t89.5 -410q39 76 210 415.5t229 450.5z" />
    <glyph glyph-name="N" unicode="N" horiz-adv-x="1271" 
d="M961 653l73 570q4 31 15 41.5t36 13.5q65 8 148 8q-125 -810 -176 -1278q-74 -33 -131 -33q-31 0 -49 33q-170 314 -312 598q-136 270 -184 395q-12 -155 -41 -395l-74 -559q-4 -31 -14.5 -41.5t-34.5 -13.5q-65 -7 -156 -4q44 270 170 1145q6 44 -4 69l-28 62v6
q31 4 112.5 10t104.5 6q28 0 53 -35q21 -34 69.5 -126t124 -237.5t117.5 -225.5q106 -198 150 -316q3 67 31 307z" />
    <glyph glyph-name="O" unicode="O" horiz-adv-x="1325" 
d="M743 1311q129 0 231 -45.5t166 -125.5t97 -185t33 -228q0 -110 -23.5 -215.5t-76 -204.5t-128.5 -173.5t-189.5 -119.5t-250.5 -45q-250 0 -387 155t-137 417q-1 148 43.5 285.5t126.5 246t210.5 173.5t284.5 65zM727 1167q-108 0 -200 -81t-147.5 -225.5t-55.5 -319.5
q0 -81 15.5 -154t48.5 -136t92 -100.5t138 -37.5q77 0 143.5 37.5t113.5 100t81 144.5t50 172t16 181q0 77 -14 146t-45.5 133t-92 102t-143.5 38z" />
    <glyph glyph-name="P" unicode="P" horiz-adv-x="1021" 
d="M121 1112l-4 6q2 28 16.5 66.5t32.5 54.5q55 18 166 34.5t192 16.5q473 0 473 -401q0 -99 -37.5 -180.5t-98.5 -132t-135 -78t-151 -27.5q-72 0 -108 16q-20 10 -36.5 53t-18.5 76l4 5q44 -11 84 -11q121 0 189.5 73t68.5 204q0 119 -61 188.5t-181 69.5q-45 0 -59 -2
q-7 -50 -66.5 -482t-87.5 -657q-22 -7 -85.5 -11.5t-104.5 -4.5q-25 0 -34.5 7.5t-6.5 31.5q26 178 80 562t77 539q-64 -6 -108 -16z" />
    <glyph glyph-name="Q" unicode="Q" horiz-adv-x="1320" 
d="M1352 -233l2 -7q-22 -45 -74.5 -69.5t-110.5 -24.5q-147 0 -368 174q-96 74 -147.5 98t-147.5 39q-204 28 -316 175t-112 380q0 152 44.5 290.5t127 248t212.5 175t290 65.5q129 0 230 -47t163 -128.5t93.5 -186.5t31.5 -226q0 -109 -23.5 -212.5t-70.5 -199t-129 -172
t-189 -119.5q54 -16 164 -90q195 -138 330 -163zM729 1167q-107 0 -199.5 -80.5t-149 -225t-56.5 -318.5q0 -84 16 -158t49.5 -136.5t91.5 -99t135 -36.5q97 0 176.5 57.5t128.5 150.5t75 204t26 225q0 60 -8 115.5t-29.5 111.5t-53.5 97t-84 67t-118 26z" />
    <glyph glyph-name="R" unicode="R" horiz-adv-x="1085" 
d="M121 1102l-4 6q0 36 17.5 75.5t33.5 53.5q79 25 189 39t188 14q200 0 312 -89.5t112 -264.5q0 -124 -77 -220t-218 -147q23 -24 152.5 -258.5t187.5 -304.5v-4q-37 -18 -140 -18q-60 0 -97.5 23.5t-78.5 92.5q-72 126 -176 324q-30 55 -53 74.5t-59 19.5h-39l-68 -469
q-4 -30 -18.5 -42t-46.5 -15q-110 -8 -179 -4q85 468 177 1132q-35 -2 -115 -18zM459 1139l-68 -488q128 0 205 39q64 29 101.5 90.5t37.5 149.5q0 97 -57 154t-156 57q-45 0 -63 -2z" />
    <glyph glyph-name="S" unicode="S" horiz-adv-x="876" 
d="M516 1311q90 0 165 -28.5t120 -74.5q-6 -52 -34 -83.5t-58 -22.5q-35 21 -88 38t-101 17q-97 0 -142.5 -49.5t-45.5 -126.5q0 -63 42.5 -115.5t153.5 -140.5q61 -47 100.5 -83t78 -83t57 -99t18.5 -110q0 -120 -58 -208t-153.5 -130.5t-216.5 -42.5q-194 0 -305 103
q-37 37 -37 63q-3 34 12 67t39 48q48 -46 133.5 -84.5t168.5 -38.5q97 0 148.5 45t51.5 125q0 35 -13.5 66.5t-44.5 65.5t-57.5 58t-76.5 64q-65 52 -106.5 92t-78 88.5t-53 101t-16.5 113.5q0 161 107.5 263t289.5 102z" />
    <glyph glyph-name="T" unicode="T" horiz-adv-x="1089" 
d="M348 23l152 1112h-361q-28 0 -35.5 9t0.5 32q20 70 70 114q49 -10 303 -10h682q-6 -73 -33.5 -109t-70.5 -36h-326l-119 -883q-18 -127 -30 -250q-52 -14 -195 -14q-22 0 -31 7.5t-6 27.5z" />
    <glyph glyph-name="U" unicode="U" horiz-adv-x="1296" 
d="M444 1165l-75 -551q-11 -97 -10.5 -170.5t17.5 -127t40.5 -89t58 -56.5t70 -29.5t76.5 -8.5q70 0 124.5 26.5t101.5 87t81.5 168t56.5 261.5l76 545q4 33 14 44t31 13q71 8 162 8q-28 -170 -58 -381l-36 -270q-22 -163 -66.5 -284.5t-99 -193t-127.5 -114.5t-141.5 -57.5
t-151.5 -14.5q-537 0 -445 666l50 364q10 75 21.5 162t14.5 107q20 4 91.5 10t101.5 6q13 0 19.5 -4.5t9 -19t1 -36t-7.5 -61.5z" />
    <glyph glyph-name="V" unicode="V" horiz-adv-x="1216" 
d="M313 1286q30 0 41.5 -18t24.5 -76q28 -119 94 -431.5t105 -479.5q52 101 165.5 319.5t197 381.5t153.5 304q116 -4 159 -20q35 -18 -4 -92q-110 -205 -314 -576.5t-290 -531.5q-31 -58 -59 -72q-43 -19 -150 -19q-203 877 -305 1272q37 17 90.5 28t91.5 11z" />
    <glyph glyph-name="W" unicode="W" horiz-adv-x="1732" 
d="M317 1286q26 0 40.5 -31t27.5 -118q4 -27 115 -828q30 80 161.5 411.5t192.5 489.5q0 27 -2 41q103 35 162 35q18 0 26 -12t13 -43q3 -19 19.5 -129t32 -215t38 -270t41.5 -316q75 176 184 432t157.5 371.5t73.5 181.5q66 6 142 -12q30 -8 39 -18t0 -31
q-89 -219 -297 -648.5t-242 -504.5q-16 -33 -28 -50.5t-29 -27.5q-20 -7 -68 -13t-84 -6q-65 459 -131 957q-9 -22 -89 -225.5t-150.5 -380t-104.5 -256.5q-23 -64 -61 -76q-43 -19 -142 -19q-15 83 -66 384.5t-86.5 499t-72.5 382.5q27 18 89 31.5t99 13.5z" />
    <glyph glyph-name="X" unicode="X" horiz-adv-x="1103" 
d="M143 1257v5q120 24 195 24q19 0 31 -10t30 -45q67 -140 201 -406q50 69 180.5 240.5t145.5 191.5q23 29 51 29q27 0 76 -7t82 -19v-5q-35 -49 -195.5 -251.5t-255.5 -327.5q279 -557 334 -664v-4q-14 -8 -75 -14t-130 -6q-37 0 -49 28q-34 66 -107.5 219.5t-121.5 249.5
q-62 -85 -190 -255.5t-161 -215.5q-19 -26 -61 -26q-116 0 -164 18v4q5 7 196.5 249.5t297.5 387.5q-52 107 -310 610z" />
    <glyph glyph-name="Y" unicode="Y" horiz-adv-x="1118" 
d="M127 1255v5q126 26 205 26q22 0 36 -13t31 -50q30 -73 100 -222.5t109 -242.5q63 84 214.5 297t164.5 231q99 -3 158 -24q41 -14 -4 -68q-56 -70 -436 -573q-26 -39 -31 -74l-37 -293q-23 -199 -25 -254q-59 -12 -196 -12q-24 0 -32 6t-5 31l63 493q7 71 -2 94
q-19 60 -65 156q-139 286 -248 487z" />
    <glyph glyph-name="Z" unicode="Z" horiz-adv-x="1087" 
d="M1014 137l2 -6q-18 -45 -56.5 -87.5t-62.5 -47.5q-36 -8 -299 -8q-498 4 -569 14q-25 22 -25 51q186 240 410 573.5t327 508.5h-489q-53 0 -80 7t-31 20t4 32q12 28 35 58.5t43 45.5q40 -18 168 -18h656q-14 -74 -52 -158q-43 -83 -252.5 -409t-382.5 -570
q78 -11 324 -12t330 6z" />
    <glyph glyph-name="bracketleft" unicode="[" horiz-adv-x="688" 
d="M186 432q6 46 22.5 167t30 221t29.5 214t29.5 195t21.5 114q12 8 150 21.5t207 13.5q16 -32 6 -92q0 -13 -8 -18t-33 -8q-106 -17 -139 -23q-24 -5 -33 -47q-24 -114 -109 -774q-67 -534 -67 -611q0 -37 39 -43q55 -9 131 -18q22 -3 20 -31q-10 -53 -32 -84q-76 0 -161 7
t-138 16t-58 14q-1 22 4.5 80.5t18 161.5t21.5 170.5t27 198.5t21 155z" />
    <glyph glyph-name="backslash" unicode="\" horiz-adv-x="690" 
d="M319 1313l263 -1436q7 -39 -5 -51t-57 -14l-92 -5l-258 1446q-5 30 5.5 42.5t49.5 13.5z" />
    <glyph glyph-name="bracketright" unicode="]" horiz-adv-x="688" 
d="M473 565q-22 -188 -66 -498.5t-67 -414.5q-13 -8 -151 -22t-209 -13q-16 37 -7 94q1 12 9.5 16t35.5 9q73 9 136 22q28 6 34 47q23 112 109 775q68 540 68 610q0 35 -37 41q-41 7 -131 18q-26 3 -21 33q7 36 31 84q72 0 156.5 -7t139 -16t60.5 -14q-2 -53 -15 -166.5
t-38 -306t-37 -291.5z" />
    <glyph glyph-name="asciicircum" unicode="^" horiz-adv-x="1169" 
d="M145 446l334 746q8 19 17 25.5t32 7.5q91 11 138 8l348 -787q-13 -9 -59 -21.5t-83 -12.5q-30 0 -53 47l-241 583l-250 -596q-14 -34 -37 -34q-21 0 -75.5 12t-70.5 22z" />
    <glyph glyph-name="underscore" unicode="_" horiz-adv-x="1024" 
d="M958 -154v-102h-1024v102h1024z" />
    <glyph glyph-name="grave" unicode="`" horiz-adv-x="819" 
d="M410 1411q27 -4 74 -113t67 -194q5 -19 2 -29.5t-18 -17.5q-31 -20 -70 -23q-95 164 -211 295q-18 18 8 39q27 21 68 34t80 9z" />
    <glyph glyph-name="a" unicode="a" horiz-adv-x="1013" 
d="M37 264q0 69 15 147t62 178t119 173q159 164 416 164q96 0 291 -45q-14 -67 -43.5 -267.5t-46.5 -349.5q-20 -171 -14 -254q-38 -18 -98.5 -27.5t-94.5 -9.5q-12 0 -15 59.5t5 139.5q1 7 4.5 43t3.5 45q-69 -128 -183.5 -206.5t-234.5 -78.5q-87 0 -136.5 73t-49.5 216z
M332 154q47 0 103 40t108.5 109.5t96 174.5t62.5 224q8 40 13 60q-46 16 -94 16q-151 0 -246 -127q-58 -79 -86.5 -174t-28.5 -184q0 -64 18.5 -101.5t53.5 -37.5z" />
    <glyph glyph-name="b" unicode="b" horiz-adv-x="1032" 
d="M391 -25q-89 0 -180.5 30t-149.5 99q16 95 68.5 450t71.5 511q32 265 32 299q133 29 203 29q33 0 21 -64q-2 -14 -14.5 -106t-24.5 -175.5t-29 -196t-31 -192.5q71 111 177.5 189t222.5 78q70 0 119 -46t69.5 -110.5t20.5 -138.5q0 -102 -22.5 -197.5t-70 -179
t-115 -145.5t-162 -98t-206.5 -36zM657 741q-105 0 -211 -143t-139 -342q-2 -12 -6.5 -40.5l-7.5 -47.5q44 -41 117 -41q81 0 146 47t103 120t58 153t20 155q0 60 -21 99.5t-59 39.5z" />
    <glyph glyph-name="c" unicode="c" horiz-adv-x="792" 
d="M582 926q59 0 106.5 -14.5t69.5 -39.5q1 -38 -23.5 -81t-46.5 -41q-60 22 -115 22q-135 0 -219 -121.5t-84 -302.5q0 -198 142 -198q72 0 141.5 36.5t122.5 87.5q11 -8 20.5 -28.5t10.5 -42.5q0 -60 -45 -105q-119 -123 -324 -123q-135 0 -217 84t-82 254q0 94 23.5 184
t70 167.5t111 136t152 92t186.5 33.5z" />
    <glyph glyph-name="d" unicode="d" horiz-adv-x="1036" 
d="M240 -25q-97 0 -152 80.5t-55 227.5q0 125 38 240t107 205t174.5 144t231.5 54q93 0 155 -41q58 357 64 479q136 29 198 29q30 0 19 -68q-37 -231 -87.5 -578.5t-64.5 -467.5q-16 -154 -10 -273q-37 -16 -99 -23.5t-102 -7.5q-11 0 -14.5 65.5t2.5 145.5q4 57 8 76
q-171 -287 -413 -287zM346 158q94 0 208.5 150t150.5 362q7 38 12 65q-49 43 -125 43q-80 0 -145 -43t-104 -112.5t-60 -150t-21 -161.5q0 -69 23 -111t61 -42z" />
    <glyph glyph-name="e" unicode="e" horiz-adv-x="825" 
d="M539 926q112 0 169.5 -57t57.5 -138q0 -69 -34 -127.5t-86.5 -97.5t-122 -67.5t-135 -43t-130.5 -20.5q-2 -12 -2 -45q0 -185 150 -185q142 0 280 134q12 -6 20.5 -26.5t8.5 -43.5q0 -57 -33 -98q-55 -61 -143 -98.5t-203 -37.5q-152 0 -225.5 92t-73.5 252
q0 112 34.5 219.5t97 194.5t159 140t211.5 53zM498 797q-75 0 -140.5 -78t-89.5 -203q134 12 219.5 68.5t85.5 130.5q0 33 -18.5 57.5t-56.5 24.5z" />
    <glyph glyph-name="f" unicode="f" horiz-adv-x="528" 
d="M168 737h-145q2 44 23 93.5t46 52.5h92q17 128 47.5 222.5t66.5 151t84.5 90t94 45t101.5 11.5q44 0 85.5 -13.5t59.5 -31.5q2 -34 -13.5 -73t-45.5 -44q-42 14 -76 14q-48 0 -80 -28.5t-59.5 -111.5t-47.5 -232q175 0 222 6q-21 -98 -68 -133q-16 -12 -53.5 -15.5
t-118.5 -3.5q-53 -426 -90 -682q-75 -493 -395 -493q-41 0 -89 13t-63 28q-21 21 -23 53.5t8 59t25 40.5q58 -28 119 -28q87 0 132 77.5t73 264.5q66 459 88 667z" />
    <glyph glyph-name="g" unicode="g" horiz-adv-x="860" 
d="M467 926q88 0 172 -39q40 -21 68 -21q15 0 91.5 9.5t102.5 15.5q-11 -50 -22 -166q-10 0 -134 8q19 -49 19 -121q0 -168 -109 -269t-270 -101q-41 0 -86 10q-25 -21 -25 -37q0 -20 18.5 -34t67.5 -27q209 -55 263 -74q78 -29 120.5 -85t42.5 -130q0 -133 -122 -229.5
t-306 -96.5q-112 0 -199 28t-135 72.5t-72 93.5t-24 97q0 49 62.5 104.5t140.5 96.5q-28 21 -46.5 55t-18.5 68q0 25 40 64.5t87 68.5q-119 73 -119 235q0 176 110.5 290t282.5 114zM563 655q0 146 -102 146q-73 0 -124.5 -83.5t-51.5 -197.5q0 -72 27 -110.5t77 -38.5
q75 0 124.5 80.5t49.5 203.5zM391 -307q92 0 142.5 35.5t50.5 81.5q0 36 -21.5 61t-83.5 45q-62 25 -231 61q-44 -25 -81.5 -61t-37.5 -63q0 -63 74.5 -111.5t187.5 -48.5z" />
    <glyph glyph-name="h" unicode="h" horiz-adv-x="1036" 
d="M762 926q72 0 114.5 -45.5t49.5 -119t-6 -165.5q-44 -268 -54 -330q-24 -178 -24 -256q-37 -18 -104 -26.5t-107 -8.5q-8 0 -10.5 29.5t2 88t16.5 134.5q4 26 68 400q8 55 -5 86.5t-47 31.5q-35 0 -75.5 -23t-85 -74.5t-84.5 -126t-76 -187.5t-58 -248q-10 -51 -30 -66
q-23 -15 -86 -25.5t-121 -10.5q26 131 80.5 509t79.5 568q26 235 30 303q119 29 205 29q30 0 15 -90q-8 -55 -21.5 -148.5t-35 -245t-40.5 -282.5q85 148 190.5 223.5t219.5 75.5z" />
    <glyph glyph-name="i" unicode="i" horiz-adv-x="468" 
d="M319 1350q106 0 113 -115q3 -68 -37.5 -108t-87.5 -40q-43 0 -75 25.5t-35 89.5q-3 52 20 87.5t50 48t52 12.5zM365 926q19 0 22.5 -15t-2.5 -65q-22 -162 -59.5 -434.5t-44.5 -325.5q-8 -52 -31 -68q-14 -11 -78.5 -22t-130.5 -12q8 57 38 246.5t44 291.5q42 315 39 361
q20 9 102 26t101 17z" />
    <glyph glyph-name="j" unicode="j" horiz-adv-x="483" 
d="M328 1350q107 0 112 -117q1 -68 -39 -107t-92 -39q-39 0 -70 27t-34 88q-1 40 11.5 70.5t33.5 46.5t41 23.5t37 7.5zM379 926q16 0 19.5 -17t-3.5 -75q-26 -213 -112 -793q-15 -105 -44.5 -188.5t-66.5 -137t-82.5 -89t-91.5 -50t-96 -14.5q-69 0 -97 22
q-28 23 -34.5 77.5t10.5 74.5q42 -10 80 -10q80 0 128.5 69.5t73.5 222.5q48 280 87 588q28 210 28 277q28 12 100 27.5t101 15.5z" />
    <glyph glyph-name="k" unicode="k" horiz-adv-x="927" 
d="M915 827q-41 -30 -183.5 -157.5t-192.5 -175.5q56 -96 165 -258.5t154 -198.5q-6 -25 -63 -43.5t-113 -18.5q-29 0 -51 14t-56 54q-40 49 -119 170.5t-130 208.5q-4 -33 -47 -316q-7 -44 -14.5 -61.5t-22.5 -28.5t-79.5 -21t-127.5 -11q27 131 81.5 505t80.5 572
q34 270 32 303q136 29 203 29q8 0 13 -2t8 -7t4 -11t0.5 -17.5t-1.5 -21.5t-3 -29q-50 -323 -113 -791q56 62 346 336q82 76 123 76q35 0 70.5 -34t35.5 -65z" />
    <glyph glyph-name="l" unicode="l" horiz-adv-x="471" 
d="M457 1323q-38 -316 -172 -1235q-11 -56 -39 -70q-85 -34 -203 -34q25 158 82.5 553.5t73.5 525.5q34 266 34 303q29 8 98 17.5t103 9.5q18 0 23.5 -15t-0.5 -55z" />
    <glyph glyph-name="m" unicode="m" horiz-adv-x="1595" 
d="M356 633h6q81 134 185.5 213.5t220.5 79.5q83 0 125.5 -68.5t28.5 -198.5q-2 -14 -4 -26h6q172 293 403 293q98 0 138.5 -87t19.5 -231q-1 -3 -22 -131.5t-33 -210.5q-23 -154 -27 -256q-25 -16 -96 -25.5t-111 -9.5q-8 0 -10 31.5t2 86t14 118.5q4 25 30.5 175.5
t37.5 217.5q10 65 -3 101t-46 36t-70.5 -20.5t-81.5 -69.5t-84 -120.5t-77 -184t-62 -250.5q-8 -35 -15 -51.5t-20 -26.5q-17 -12 -74 -22.5t-133 -11.5q29 138 62 331.5t43 294.5q14 131 -54 131q-30 0 -68 -21.5t-83 -71.5t-86 -121.5t-79.5 -184t-62.5 -246.5
q-6 -35 -12.5 -50.5t-19.5 -25.5q-42 -33 -205 -36q12 69 44 277.5t46 295.5q34 239 27 326q24 9 106 26t98 17q10 0 15 -21t2.5 -77t-15.5 -140q-6 -48 -6 -55z" />
    <glyph glyph-name="n" unicode="n" horiz-adv-x="1032" 
d="M356 633h6q173 293 400 293q100 0 140.5 -82.5t19.5 -235.5q-5 -36 -25 -152.5t-31 -189.5q-27 -179 -24 -256q-27 -15 -99.5 -25t-109.5 -10q-6 0 -9 29t0.5 86t14.5 123q6 35 32 179.5t36 209.5q19 139 -56 139q-30 0 -67 -19.5t-81.5 -67.5t-85.5 -119t-79 -185
t-62 -254q-12 -61 -45 -82q-53 -27 -192 -30q13 68 45 280.5t45 292.5q36 253 27 326q22 9 105 26t99 17q36 0 5 -232q-1 -11 -4.5 -33t-4.5 -28z" />
    <glyph glyph-name="o" unicode="o" horiz-adv-x="964" 
d="M551 926q89 0 155.5 -28t106 -78t59 -113.5t19.5 -141.5q0 -255 -144.5 -422.5t-371.5 -167.5q-336 0 -336 353q0 118 34.5 225t98 190.5t162 133t217.5 49.5zM530 788q-71 0 -129.5 -69t-90 -180t-31.5 -236q0 -88 31 -138t91 -50q69 0 126.5 65t91.5 178.5t34 249.5
q0 46 -10 84t-39 67t-74 29z" />
    <glyph glyph-name="p" unicode="p" horiz-adv-x="1046" 
d="M362 664h5q78 117 178 189.5t211 72.5q61 0 106.5 -27t70.5 -73t36.5 -96.5t11.5 -106.5q0 -123 -35 -238t-98.5 -207t-162.5 -147.5t-218 -55.5q-126 0 -199 66q-33 -208 -55 -360q-6 -43 -17.5 -64.5t-33.5 -28.5q-74 -22 -185 -26q84 504 158 1020q37 255 39 311
q27 21 110 43t119 16q-2 -21 -9.5 -75t-18 -121t-13.5 -92zM666 741q-65 0 -138.5 -61.5t-135.5 -176t-85 -251.5q-5 -40 -8 -51q54 -60 137 -60q77 0 139 40t99.5 106t57.5 146t20 165q0 65 -22 104t-64 39z" />
    <glyph glyph-name="q" unicode="q" horiz-adv-x="1019" 
d="M31 270q0 82 19 167t65 174t113 158t173.5 113t237.5 44q147 0 319 -52q-48 -242 -184 -1208q-5 -34 -14 -49.5t-31 -24.5q-57 -25 -194 -30q11 48 29 161.5t42 275.5t37 243q-72 -117 -179.5 -192t-227.5 -75q-95 0 -150 76.5t-55 218.5zM258 305q0 -74 21.5 -112.5
t58.5 -38.5q31 0 70.5 19.5t85.5 63.5t87.5 105.5t77 154t52.5 199.5q8 56 8 66q-49 18 -113 18q-72 0 -132 -33t-99 -84.5t-66 -116t-39 -126t-12 -115.5z" />
    <glyph glyph-name="r" unicode="r" horiz-adv-x="714" 
d="M342 614h6q40 88 85.5 152t88 97t79 48t69.5 15q49 0 78 -33q3 -43 -23.5 -112.5t-56.5 -104.5q-50 20 -80 20q-23 0 -50 -15.5t-63 -58.5t-69 -108.5t-67.5 -177.5t-59.5 -254q-10 -49 -37 -66q-17 -11 -85.5 -20.5t-117.5 -11.5q56 295 104 694q16 129 2 203
q29 13 97.5 29t95.5 16q11 0 18 -28.5t4.5 -103t-18.5 -180.5z" />
    <glyph glyph-name="s" unicode="s" horiz-adv-x="698" 
d="M434 926q64 0 117 -19.5t78 -46.5q-2 -45 -33.5 -84.5t-69.5 -23.5q-68 22 -108 22q-51 0 -86 -25.5t-35 -72.5q0 -35 31.5 -66.5t142.5 -113.5q72 -51 101.5 -101t29.5 -119q0 -54 -25 -107t-69.5 -96.5t-114.5 -70.5t-153 -27q-72 0 -134 25t-83 57q-19 27 -14.5 78.5
t28.5 71.5q43 -29 107.5 -50.5t115.5 -21.5q59 0 94 26.5t35 67.5q0 32 -31 65.5t-127 102.5q-75 54 -107 107.5t-32 118.5q0 127 97 215t245 88z" />
    <glyph glyph-name="t" unicode="t" horiz-adv-x="632" 
d="M551 252q12 -34 1 -87t-36 -79q-102 -111 -266 -111q-198 0 -150 316q11 67 36.5 225t35.5 221h-133q0 41 23 93.5t55 52.5h78q35 196 100 231q23 13 75.5 26t88.5 13q-7 -36 -24 -127.5t-27 -142.5q182 0 237 6q-13 -99 -67 -133q-11 -7 -27 -11.5t-48.5 -6t-50 -1.5
h-69.5q-21 -121 -70 -467q-18 -125 45 -125q73 0 193 107z" />
    <glyph glyph-name="u" unicode="u" horiz-adv-x="1034" 
d="M645 236h-4q-155 -261 -385 -261q-53 0 -89.5 20t-55.5 51.5t-27 76.5t-6 89t10 95q8 55 26 156t25 145q28 176 39 275q17 9 100.5 26t106.5 17q27 0 16 -74q-8 -43 -92 -553q-13 -79 3 -110t55 -31q29 0 65.5 21t79.5 71.5t82.5 123t75.5 186.5t57 251q4 41 13 58t30 26
q35 13 100.5 23.5t94.5 7.5q-45 -167 -107 -666q-17 -142 -14 -250q-39 -18 -101 -26.5t-100 -8.5q-6 0 -9 26t-0.5 86.5t11.5 148.5z" />
    <glyph glyph-name="v" unicode="v" horiz-adv-x="884" 
d="M840 831q0 -84 -39.5 -190.5t-95.5 -196.5q-78 -124 -168.5 -228.5t-165.5 -166.5q-25 -22 -68 -41q-19 -9 -62.5 -21t-58.5 -12q-38 30 -57 256q-12 130 -22.5 346.5t-10.5 319.5q22 7 101 18t104 11q12 0 16 -10t4 -37q-2 -214 13 -525q7 -78 18 -102
q111 101 212.5 283t101.5 321q0 23 -3 47q29 7 82 15t72 8q14 0 20.5 -29t6.5 -66z" />
    <glyph glyph-name="w" unicode="w" horiz-adv-x="1370" 
d="M817 879q25 0 25 -48q0 -154 9 -347t26 -242q105 122 186.5 293t81.5 317q0 31 -4 43q25 8 79 19.5t70 11.5q15 0 25 -33.5t8 -71.5q-1 -96 -42.5 -209.5t-105.5 -217t-132 -190.5t-134 -153q-31 -33 -86 -55q-87 -23 -133 -23q-19 78 -30 241t-13 304
q-49 -107 -131 -239t-147 -220q-29 -44 -84 -61q-53 -12 -140 -23q-27 53 -32 304q-2 117 -1.5 313.5t-0.5 304.5q26 7 104 18t102 11q26 0 23 -47q-1 -18 -5.5 -127.5t-6.5 -200t0 -182.5q0 -63 10 -115q60 88 159 258.5t144 282.5l8 43q127 41 168 41z" />
    <glyph glyph-name="x" unicode="x" horiz-adv-x="862" 
d="M80 889v6q19 8 95.5 19.5t107.5 11.5q23 0 47 -54q19 -36 123 -262q86 88 165 186.5t113 155.5q29 0 76.5 -35t46.5 -69q-19 -74 -322 -391q21 -42 61 -124.5t63 -129.5t53 -103.5t51 -91.5v-4q-21 -6 -86.5 -11t-106.5 -5q-27 0 -41.5 9.5t-27.5 31.5q-20 32 -138 274
q-255 -272 -297 -358q-30 0 -78 37t-48 69q0 33 75 122t273 292q-20 43 -104 213t-101 211z" />
    <glyph glyph-name="y" unicode="y" horiz-adv-x="872" 
d="M59 -444q-56 0 -104.5 30.5t-56.5 65.5q70 59 179 168t150 168q-35 78 -51 155q-28 132 -61.5 371.5t-42.5 368.5q34 15 98.5 29t101.5 14q28 0 31 -37q23 -326 59 -567q10 -67 31 -119q109 162 178.5 362.5t77.5 335.5q24 8 74.5 16.5t87.5 8.5q20 0 20 -62
q0 -53 -14.5 -126.5t-47 -172.5t-96 -226t-149.5 -257q-117 -176 -258 -331t-207 -195z" />
    <glyph glyph-name="z" unicode="z" horiz-adv-x="798" 
d="M-6 27l-14 36q80 92 261 340t234 345q-95 -3 -182 -3q-69 0 -102 1t-67.5 5t-45 14t-6.5 26q10 35 39.5 78.5t44.5 52.5q12 -8 31.5 -12t90 -6.5t209.5 -2.5q255 0 289 6q-14 -64 -45 -121q-33 -65 -178 -278.5t-246 -347.5q23 -17 176 -17q218 0 262 13q3 -34 -27 -85
t-59 -67q-22 -11 -82 -14.5t-210 -3.5q-190 0 -269.5 9.5t-103.5 31.5z" />
    <glyph glyph-name="braceleft" unicode="{" horiz-adv-x="688" 
d="M690 1434q9 -20 2 -66q-2 -22 -10 -32.5t-29 -14.5q-84 -19 -122.5 -72t-36.5 -149q0 -26 1.5 -87t1 -111.5t-4.5 -96.5q-22 -185 -193 -254q89 -41 113.5 -110t7.5 -162q-8 -53 -39 -171t-37 -174q-9 -81 19 -127.5t106 -60.5q17 -3 23 -10.5t2 -24.5q-7 -41 -35 -73
q-164 10 -239.5 91.5t-57.5 219.5q4 46 39 184.5t41 181.5q11 84 -17 129t-112 62q-12 1 -10.5 36.5t14.5 63.5q98 18 138 58t50 112q6 43 8.5 90.5t3 130.5t0.5 101q6 195 132 276q92 57 241 60z" />
    <glyph glyph-name="bar" unicode="|" horiz-adv-x="571" 
d="M322 1536v-2048h-179v2048h179z" />
    <glyph glyph-name="braceright" unicode="}" horiz-adv-x="688" 
d="M219 1434q163 -10 237.5 -93t59.5 -219q-5 -47 -39 -183.5t-39 -174.5q-11 -77 15.5 -117.5t109.5 -44.5q12 -5 8.5 -35.5t-18.5 -58.5q-92 -22 -129 -66t-47 -123q-5 -45 -8 -101t-4.5 -135.5t-2.5 -109.5q-6 -193 -131 -276q-95 -63 -243 -59q-7 22 -2 73q7 33 39 41
q86 17 123.5 69t37.5 150q-5 208 4 310q9 111 58 175.5t137 100.5q-160 66 -127 252q9 42 36 156t38 172q14 80 -14.5 124.5t-110.5 61.5q-28 6 -23 39q3 32 35 72z" />
    <glyph glyph-name="asciitilde" unicode="~" horiz-adv-x="1169" 
d="M393 727q63 0 118 -32.5t128 -108.5q66 -69 102 -98t66 -29q41 0 66 52t34 177q3 19 11.5 25t23.5 6q37 0 72 -13.5t49 -31.5q-3 -112 -26 -191.5t-61.5 -120.5t-80.5 -59t-92 -18q-37 0 -69 10.5t-68 38t-53 43t-58 58.5l-14 14q-56 57 -89 81.5t-61 24.5
q-89 0 -125 -229q-5 -37 -41 -37q-24 0 -65 14t-56 27q9 89 27 157.5t43 110t51 69t58.5 40t56.5 16.5t53 4z" />
    <glyph glyph-name="exclamdown" unicode="&#xa1;" horiz-adv-x="397" 
d="M209 639q-54 0 -84.5 36t-30.5 91q0 66 39 109t100 43q55 0 88 -33t33 -90q0 -71 -38 -113.5t-107 -42.5zM8 -348q-28 0 -38.5 12t-6.5 47q12 85 69.5 358t76.5 337q4 17 12 28.5t13.5 15t17.5 9.5q61 22 98 22q-4 -58 -17.5 -389t-17.5 -391q-10 -18 -84.5 -33.5
t-122.5 -15.5z" />
    <glyph glyph-name="cent" unicode="&#xa2;" horiz-adv-x="946" 
d="M717 1176l-31 -160q43 -3 92 -20.5t72 -34.5q0 -33 -25 -78q-17 -31 -39.5 -37t-44.5 4q-74 24 -125 24q-121 0 -196.5 -84.5t-75.5 -209.5q0 -106 60 -170t161 -64q128 0 236 62q1 -51 -16 -95t-40 -63q-54 -41 -184 -57l-26 -144q-5 -20 -16.5 -30.5t-43.5 -14.5
q-59 -6 -113 -4l41 205q-143 22 -212.5 116.5t-69.5 241.5q0 159 109 287.5t294 159.5l21 114q3 21 15.5 30.5t45.5 12.5q57 9 111 9z" />
    <glyph glyph-name="sterling" unicode="&#xa3;" horiz-adv-x="946" 
d="M836 115l4 -4q-7 -53 -32.5 -95t-55.5 -63q-55 -39 -199 -39q-203 0 -553 106l-12 46q102 76 149.5 189.5t61.5 260.5q-101 0 -127 23q-9 7 -2 18q43 95 143 109q27 289 128 431t294 142q115 0 188 -68q0 -45 -21.5 -85t-58.5 -33q-50 26 -110 26q-31 0 -56 -10.5
t-42.5 -26.5t-32 -47.5t-23.5 -60.5t-17.5 -78.5t-13.5 -88.5t-12 -103q287 0 344 6q-9 -44 -23.5 -74.5t-32 -45t-30 -20t-28.5 -8.5q-15 -2 -250 -2q-16 -136 -58 -229t-125 -152q75 -25 182 -44t199 -19q137 0 222 39z" />
    <glyph glyph-name="currency" unicode="&#xa4;" horiz-adv-x="946" 
d="M506 995q49 0 103 -15t85 -40q89 93 131 145q44 -19 62 -50.5t16 -59.5q0 -10 -6.5 -22t-27 -35.5t-33.5 -37t-52 -53.5q47 -70 47 -194q0 -83 -27.5 -158.5t-72.5 -120.5q94 -109 109 -141q-8 -29 -42.5 -62.5t-72.5 -46.5q-7 9 -52.5 68t-72.5 94q-72 -47 -178 -47
q-96 0 -141 33q-41 -45 -99 -111q-47 -52 -102 -24q-55 33 -55 65q89 102 129 152q-84 97 -84 237q0 175 110 285q-27 27 -76 84q-19 23 -18.5 47.5t16.5 46.5q30 40 80 53q8 -8 52.5 -61.5t70.5 -79.5q85 49 201 49zM467 860q-90 0 -158.5 -78.5t-68.5 -208.5
q0 -96 52.5 -157.5t139.5 -61.5q105 0 167.5 74t62.5 211q0 100 -51.5 160.5t-143.5 60.5z" />
    <glyph glyph-name="yen" unicode="&#xa5;" horiz-adv-x="946" 
d="M600 709h234l-33 -93q-7 -20 -17.5 -26t-27.5 -6h-209l-23 -150h248l-31 -84q-9 -24 -21.5 -32.5t-33.5 -8.5h-180l-39 -309q-120 -16 -174 -16q-23 0 -33.5 8t-7.5 31l41 286h-246q2 27 16.5 73t24.5 52h223l19 150h-258q4 35 19.5 76.5t35.5 48.5h197
q-34 78 -115.5 254.5t-106.5 224.5v6q137 29 207 29q9 0 15.5 -4t9 -7.5t6.5 -11.5q27 -58 152 -405q43 63 151 225.5t133 196.5q67 14 152 -3q25 -4 32 -15t-2 -21q-32 -38 -83 -105t-144.5 -191t-130.5 -173z" />
    <glyph glyph-name="brokenbar" unicode="&#xa6;" horiz-adv-x="571" 
d="M344 1382v-716h-178v716h178zM344 358v-716h-178v716h178z" />
    <glyph glyph-name="section" unicode="&#xa7;" horiz-adv-x="929" 
d="M602 1268q59 0 112 -20t81 -54q0 -40 -26 -72.5t-64 -15.5q-58 27 -107 27q-56 0 -87 -31t-28 -96q1 -30 22.5 -75t46.5 -83.5t87 -128.5q90 -130 128 -214t38 -167q0 -120 -48.5 -224t-176.5 -212q-84 -189 -308 -189q-75 0 -146 34t-91 73q2 18 14.5 44.5t33.5 43.5
t42 2q71 -53 158 -53q62 0 96 34.5t31 85.5q-2 42 -30 101t-118 184q-101 138 -137.5 226.5t-36.5 168.5q0 225 213 387q28 100 112 162t189 62zM641 272q0 64 -44 161.5t-126 209.5q-130 181 -152 281q-34 -36 -52.5 -89.5t-18.5 -109.5q0 -55 42 -147.5t105 -182.5
q157 -217 172 -344q74 80 74 221z" />
    <glyph glyph-name="dieresis" unicode="&#xa8;" horiz-adv-x="819" 
d="M326 1325q41 0 66.5 -30t25.5 -72q0 -52 -32.5 -83.5t-82.5 -31.5q-39 0 -65.5 27t-26.5 77q0 48 31.5 80.5t83.5 32.5zM674 1325q43 0 68.5 -29.5t25.5 -72.5q0 -53 -31.5 -84t-81.5 -31q-39 0 -66.5 26.5t-27.5 77.5q0 47 31 80t82 33z" />
    <glyph glyph-name="copyright" unicode="&#xa9;" horiz-adv-x="1445" 
d="M735 1290q181 0 326 -84.5t225 -231t80 -327.5q0 -186 -84 -334t-228 -228.5t-319 -80.5q-180 0 -325.5 80.5t-229.5 228t-84 334.5t84.5 334.5t230 228t324.5 80.5zM737 1192q-147 0 -264.5 -71.5t-182.5 -196t-65 -277.5q0 -231 145.5 -388t368.5 -157q144 0 258 72.5
t177 198t63 278.5q0 147 -60 269.5t-175.5 197t-264.5 74.5zM977 459l4 -4q-11 -82 -39 -107q-62 -37 -162 -37q-173 0 -269.5 90t-96.5 244q0 156 107.5 248t264.5 92q75 0 127.5 -18t73.5 -43q0 -38 -21.5 -63t-58.5 -11q-65 24 -133 24q-85 0 -147 -58.5t-62 -160.5
q0 -101 66 -164t186 -63q91 0 160 31z" />
    <glyph glyph-name="ordfeminine" unicode="&#xaa;" horiz-adv-x="755" 
d="M213 563q-59 0 -97 52t-38 139q0 178 112 297.5t295 119.5q28 0 62 -3.5t55 -6.5t59.5 -10t47.5 -8q-9 -31 -30.5 -157.5t-35.5 -225.5q-14 -116 -14 -176q-65 -21 -148 -21q-26 0 -22 62q2 15 4 27.5t5.5 32.5t6.5 38q-54 -85 -124 -122.5t-138 -37.5zM313 711
q57 0 119 77t80 187q7 32 12 76q-19 8 -67 8q-62 0 -107 -42t-64.5 -101t-19.5 -123q0 -35 12.5 -58.5t34.5 -23.5z" />
    <glyph glyph-name="guillemotleft" unicode="&#xab;" horiz-adv-x="1253" 
d="M319 453q42 -62 96.5 -168t57.5 -150q1 -33 -32 -59.5t-64 -32.5q-49 101 -123.5 202t-155.5 177q-12 22 -12 53q219 172 371 389q25 -9 54 -34.5t30 -47.5q1 -36 -85 -154.5t-137 -174.5zM733 453q48 -66 109.5 -182.5t64.5 -166.5q1 -30 -33.5 -54t-68.5 -32
q-108 214 -293 402q-16 24 -16 55q104 74 195 173t194 239q26 -9 56.5 -35t31.5 -49q2 -31 -51.5 -111t-104 -141t-84.5 -98z" />
    <glyph glyph-name="logicalnot" unicode="&#xac;" horiz-adv-x="1169" 
d="M850 154v444h-739q2 82 15.5 122t47.5 40h832l20 -21v-524q0 -26 -17.5 -41t-66.5 -16z" />
    <glyph glyph-name="uni00AD" unicode="&#xad;" horiz-adv-x="595" 
d="M526 602l4 -8q-7 -53 -36.5 -108.5t-69.5 -67.5q-54 -16 -189 -31t-184 -12l-6 8q7 61 35 111.5t49 52.5q269 26 397 55z" />
    <glyph glyph-name="registered" unicode="&#xae;" horiz-adv-x="438" 
d="M289 1311q87 0 141.5 -57t54.5 -144q0 -85 -54.5 -142t-143.5 -57q-87 0 -141 57t-54 142q0 86 54.5 143.5t142.5 57.5zM287 1268q-62 0 -101 -44.5t-39 -111.5q0 -68 39.5 -112t102.5 -44q61 0 101 44t40 112q0 67 -38.5 111.5t-104.5 44.5zM262 1090v-58q0 -18 -16 -18
h-33v194q69 6 70 6q82 0 82 -59q0 -37 -35 -53q6 -8 25.5 -41t25.5 -41v-6q-6 0 -17 -1t-18 -1q-21 0 -31 16q-4 4 -8 11.5t-9 18.5t-9 17q-7 15 -27 15zM262 1178v-60q21 0 31 2q18 11 18 29q0 31 -30 31q-13 0 -19 -2z" />
    <glyph glyph-name="macron" unicode="&#xaf;" horiz-adv-x="819" 
d="M678 1112h-406q-25 0 -22 31q1 27 16 72t23 53h413q23 0 23 -25q-1 -30 -16.5 -71t-30.5 -60z" />
    <glyph glyph-name="degree" unicode="&#xb0;" horiz-adv-x="593" 
d="M373 1227q95 0 156.5 -60t62.5 -157q0 -119 -72 -192t-192 -73q-95 0 -159.5 59t-64.5 159q0 118 75 191t194 73zM360 1112q-55 0 -85.5 -44t-30.5 -99q0 -47 26 -78t66 -31q54 0 84.5 39t30.5 102q0 47 -23 79t-68 32z" />
    <glyph glyph-name="plusminus" unicode="&#xb1;" horiz-adv-x="1169" 
d="M494 625h-371q2 90 15.5 125.5t49.5 35.5h306v193q0 74 -7 135l129 10q33 4 42.5 -11.5t9.5 -57.5v-269h370q-1 -62 -6 -94t-19.5 -49.5t-41.5 -17.5h-303v-324q0 -26 -20 -40t-79 -17l-75 -4v385zM973 0h-848q2 90 15.5 126t49.5 36h850q-1 -62 -6 -94.5t-19.5 -50
t-41.5 -17.5z" />
    <glyph glyph-name="twosuperior" unicode="&#xb2;" 
d="M168 1335h-4q-1 38 10 77t25 52q37 32 92 52t115 20q99 0 158 -53t59 -142q0 -52 -20 -98t-64 -89t-72.5 -65t-84.5 -61q-11 -8 -17 -12q86 -6 268 2q-9 -47 -29 -85.5t-41 -45.5q-53 -13 -192 -13q-191 0 -260 13l-2 4q5 17 19 47t24 43q36 26 45 33t48 37.5t55.5 46.5
t47 47t44.5 53.5t26 51.5t12 55q0 41 -25.5 65.5t-66.5 24.5q-42 0 -90 -18t-80 -42z" />
    <glyph glyph-name="threesuperior" unicode="&#xb3;" 
d="M227 1133l-2 4q12 60 37 90q162 28 162 119q0 30 -22 47.5t-58 17.5q-32 0 -73.5 -16t-71.5 -41h-4q-14 24 -10.5 61.5t24.5 54.5q29 24 84.5 45t116.5 21q86 0 140 -43t54 -109q0 -60 -32 -96t-105 -67q66 -19 106.5 -59.5t40.5 -102.5q0 -79 -44.5 -133t-109 -76.5
t-141.5 -22.5q-110 0 -169 41q-14 11 -26 51.5t-9 67.5l2 2q101 -43 168 -43q64 0 99.5 28t35.5 79q0 38 -30.5 63t-84.5 25q-32 0 -78 -8z" />
    <glyph glyph-name="acute" unicode="&#xb4;" horiz-adv-x="819" 
d="M532 1405q40 0 79 -17t63 -40q11 -9 10.5 -16.5t-12.5 -24.5q-29 -32 -63 -74.5t-54.5 -70.5t-54.5 -74.5t-41 -55.5q-39 6 -72 31q-21 14 -6 55q73 207 115 261q20 25 36 26z" />
    <glyph glyph-name="mu" unicode="&#xb5;" horiz-adv-x="1042" 
d="M143 608q28 176 39 275q17 9 100.5 26t106.5 17q28 0 17 -74q-17 -95 -93 -553q-13 -79 3 -110t55 -31q29 0 65.5 21t79.5 71.5t82.5 123t75.5 186.5t57 251q4 41 13 58t30 26q33 13 99 23.5t96 7.5q-45 -167 -107 -666q-17 -142 -14 -250q-39 -18 -101 -26.5t-100 -8.5
q-6 0 -9 26t-0.5 86.5t11.5 148.5h-4q-50 -86 -93.5 -139.5t-102 -87.5t-127.5 -34q-21 0 -45 10t-37 25q-6 -46 -19 -141.5t-23 -175t-16 -144.5q-74 0 -121 13q-57 13 -70.5 31.5t-8.5 58.5q108 624 161 956z" />
    <glyph glyph-name="paragraph" unicode="&#xb6;" horiz-adv-x="1003" 
d="M571 326l-82 -21q-47 -14 -75 -14q-51 0 -103 24t-96 67t-70.5 112.5t-25.5 152.5q3 181 127.5 307.5t312.5 126.5h221h232l2 -8q-2 -22 -23 -59.5t-43 -50.5l-127 -11l-90 -659q-39 -290 -141 -429.5t-293 -139.5q-109 0 -168 39t-61 81q0 54 47 97h6q67 -78 184 -78
q108 0 166.5 92.5t89.5 300.5z" />
    <glyph glyph-name="periodcentered" unicode="&#xb7;" horiz-adv-x="395" 
d="M197 598q56 0 87 -36t31 -91q0 -66 -38.5 -107.5t-100.5 -41.5q-54 0 -87.5 33.5t-33.5 88.5q0 71 38 112.5t104 41.5z" />
    <glyph glyph-name="cedilla" unicode="&#xb8;" horiz-adv-x="819" 
d="M367 8h137l-88 -108q54 -19 85.5 -57t33.5 -85q2 -56 -26 -101t-73.5 -72t-96 -42.5t-99.5 -17.5q-18 5 -33 30t-19 46q5 20 23 24q83 18 116 41t31 55t-41.5 51t-99.5 15l2 47z" />
    <glyph glyph-name="onesuperior" unicode="&#xb9;" 
d="M563 1536l4 -4q-49 -350 -82 -621q-1 -18 -11 -24.5t-40 -9.5l-145 -11q58 360 76 494q-87 -22 -168 -27l-2 4q3 23 18 57.5t29 49.5q75 14 181 44t140 48z" />
    <glyph glyph-name="ordmasculine" unicode="&#xba;" horiz-adv-x="700" 
d="M436 1171q117 0 183.5 -69.5t68.5 -186.5q0 -157 -92.5 -254.5t-247.5 -97.5q-121 0 -189.5 68.5t-68.5 187.5q0 150 97 251t249 101zM424 1057q-61 0 -104.5 -76.5t-43.5 -171.5q0 -129 82 -129q55 0 100.5 71t45.5 183q0 50 -18 86.5t-62 36.5z" />
    <glyph glyph-name="guillemotright" unicode="&#xbb;" horiz-adv-x="1253" 
d="M498 453q-48 66 -109.5 182.5t-64.5 167.5q-1 29 33.5 53t70.5 31q105 -213 291 -402q19 -28 16 -53q-104 -73 -194 -172.5t-195 -241.5q-26 9 -56.5 35t-31.5 49q-3 44 89 166.5t151 184.5zM911 453q-41 61 -95.5 168t-55.5 149q-1 33 30.5 58.5t63.5 33.5
q48 -100 122.5 -200t156.5 -179q14 -21 14 -51q-217 -168 -375 -389q-22 7 -51.5 33t-30.5 49q-1 35 85 154t136 174z" />
    <glyph glyph-name="onequarter" unicode="&#xbc;" horiz-adv-x="1449" 
d="M1184 1204q-156 -221 -895 -1243q-23 -33 -51 -12q-44 33 -56 69q731 1012 899 1252q17 25 45 6q50 -26 58 -72zM528 1233l4 -4q-41 -292 -81 -621q-1 -18 -11.5 -25t-40.5 -10l-145 -10q65 400 76 494q-87 -22 -168 -27l-2 4q3 23 18 57.5t29 49.5q75 14 181 44t140 48z
M1241 690l12 -12q-231 -220 -383 -422q70 -10 142 -8l18 119q21 14 78.5 30.5t91.5 16.5h4l-20 -164q30 0 86 6l4 -8q-9 -36 -49 -90q-19 -8 -51 -13q-15 -93 -19 -139q-45 -5 -84 -10.5t-59.5 -8t-30.5 -3.5l-8 8q21 112 26 149q-174 0 -278 17q-6 5 -18 35.5t-11 37.5
q56 83 166.5 210.5t175.5 183.5q26 21 92 42.5t115 22.5z" />
    <glyph glyph-name="onehalf" unicode="&#xbd;" horiz-adv-x="1449" 
d="M1174 1204q-156 -221 -895 -1243q-14 -20 -27 -21.5t-25 9.5q-43 34 -55 69q731 1012 899 1252q17 25 45 6q50 -26 58 -72zM520 1233l6 -4q-23 -126 -84 -621q-1 -19 -11 -25.5t-40 -9.5l-143 -10q57 354 74 494q-27 -7 -84 -16t-84 -11l-2 4q3 23 18 57.5t29 49.5
q76 14 181.5 44t139.5 48zM836 453l-5 2q-1 37 10 76t25 53q36 31 92 50t117 19q98 0 156.5 -52t58.5 -142q0 -51 -19.5 -96.5t-66 -90.5t-71 -64t-86.5 -62q-10 -7 -15 -11q80 -8 268 0q-10 -47 -29 -85t-40 -44q-55 -14 -193 -14q-178 0 -260 12l-2 6q5 16 19 45.5
t24 42.5q37 27 53 39.5t57.5 45.5t64 57t50.5 57t41 65t13 62q0 41 -24.5 64.5t-67.5 23.5q-40 0 -88.5 -17.5t-81.5 -41.5z" />
    <glyph glyph-name="threequarters" unicode="&#xbe;" horiz-adv-x="1449" 
d="M1266 1204q-88 -126 -219 -307.5t-334.5 -462.5t-341.5 -473q-23 -34 -52 -12q-47 35 -55 69q710 983 897 1252q18 26 45 6q48 -23 60 -72zM219 829l-2 5q13 66 37 90q160 28 160 118q0 30 -22 48t-56 18q-33 0 -75 -15.5t-73 -41.5h-2q-15 24 -10.5 61.5t25.5 54.5
q30 24 84.5 45t115.5 21q86 0 140.5 -43t54.5 -109q0 -60 -33 -96t-106 -67q68 -19 108.5 -59t40.5 -103q0 -79 -44.5 -133t-109 -76.5t-141.5 -22.5q-119 0 -170 41q-15 10 -26.5 50.5t-8.5 68.5l3 2q101 -43 167 -43q64 0 99 28t35 79q0 38 -30.5 63t-84.5 25
q-24 0 -76 -9zM1305 690l12 -12q-222 -209 -383 -422q70 -10 141 -8l19 119q21 14 77.5 30.5t90.5 16.5h6l-21 -164q31 0 86 6l2 -8q-3 -17 -19.5 -46.5t-29.5 -43.5q-22 -9 -51 -13q-2 -22 -9.5 -75t-8.5 -64q-44 -5 -83.5 -10.5t-60.5 -8t-31 -3.5l-6 8q4 22 13.5 74.5
t13.5 74.5q-175 0 -279 17q-7 4 -18.5 34t-11.5 39q56 82 167 209.5t177 184.5q24 21 90.5 42.5t116.5 22.5z" />
    <glyph glyph-name="questiondown" unicode="&#xbf;" horiz-adv-x="643" 
d="M373 639q-56 0 -87.5 36t-31.5 93q0 65 39.5 107.5t101.5 42.5q57 0 90 -37t33 -90q0 -65 -38.5 -108.5t-106.5 -43.5zM254 -348q-126 0 -196 65.5t-70 163.5q0 91 49 152.5t147 120.5q80 49 110 79.5t30 67.5q0 47 -50.5 73t-128.5 17l-4 4q-3 31 17 74q29 53 121 53
q113 0 186.5 -60t73.5 -169q0 -76 -50 -139.5t-145 -124.5q-77 -49 -109 -81.5t-32 -68.5q0 -30 28 -51t70 -21q47 0 129 35q17 6 33.5 5.5t29 -17.5t15.5 -49q3 -25 -4 -45q-45 -41 -112.5 -62.5t-137.5 -21.5z" />
    <glyph glyph-name="Agrave" unicode="&#xc0;" horiz-adv-x="1245" 
d="M813 373h-446q-120 -242 -185 -355q-18 -30 -55 -30q-76 0 -158 24l-2 4q530 972 649 1209l-10 35q160 26 185 26q9 0 14.5 -4.5t7.5 -9.5t6 -17q23 -88 101 -396t106 -410q13 -49 119 -435v-4q-30 -8 -94 -15t-101 -7q-21 0 -31 12.5t-20 52.5q-11 41 -38 143.5
t-48 176.5zM438 520h348q-37 157 -73.5 305t-40.5 166q-22 -46 -101 -202t-133 -269zM541 1667q28 0 131.5 -68t165.5 -124q34 -27 12 -68q-18 -32 -33 -47q-28 12 -98.5 45t-137.5 62t-122 49q-25 8 -17 38q13 42 41.5 77.5t57.5 35.5z" />
    <glyph glyph-name="Aacute" unicode="&#xc1;" horiz-adv-x="1245" 
d="M813 373h-446q-120 -242 -185 -355q-18 -30 -55 -30q-76 0 -158 24l-2 4q530 972 649 1209l-10 35q160 26 185 26q9 0 14.5 -4.5t7.5 -9.5t6 -17q23 -88 101 -396t106 -410q13 -49 119 -435v-4q-30 -8 -94 -15t-101 -7q-21 0 -31 12.5t-20 52.5q-11 41 -38 143.5
t-48 176.5zM438 520h348q-37 157 -73.5 305t-40.5 166q-22 -46 -101 -202t-133 -269zM901 1645q37 -8 62.5 -45.5t37.5 -77.5q8 -26 -28 -37q-58 -17 -122.5 -40t-139.5 -51.5t-90 -33.5q-17 17 -37 49q-12 22 -9.5 34.5t19.5 26.5q68 58 166 116.5t141 58.5z" />
    <glyph glyph-name="Acircumflex" unicode="&#xc2;" horiz-adv-x="1245" 
d="M813 373h-446q-120 -242 -185 -355q-18 -30 -55 -30q-76 0 -158 24l-2 4q530 972 649 1209l-10 35q160 26 185 26q9 0 14.5 -4.5t7.5 -9.5t6 -17q23 -88 101 -396t106 -410q13 -49 119 -435v-4q-30 -8 -94 -15t-101 -7q-21 0 -31 12.5t-20 52.5q-11 41 -38 143.5
t-48 176.5zM438 520h348q-37 157 -73.5 305t-40.5 166q-22 -46 -101 -202t-133 -269zM539 1358q-33 0 -65 21.5t-38 43.5q125 82 236 199q14 15 39 25q37 6 77 6q83 -116 213 -230q-14 -20 -45 -42.5t-51 -22.5q-31 0 -49 12q-11 7 -26 19.5t-26.5 23.5t-35 33t-37.5 35
q-74 -64 -145 -109q-28 -14 -47 -14z" />
    <glyph glyph-name="Atilde" unicode="&#xc3;" horiz-adv-x="1245" 
d="M813 373h-446q-120 -242 -185 -355q-18 -30 -55 -30q-76 0 -158 24l-2 4q530 972 649 1209l-10 35q160 26 185 26q9 0 14.5 -4.5t7.5 -9.5t6 -17q23 -88 101 -396t106 -410q13 -49 119 -435v-4q-30 -8 -94 -15t-101 -7q-21 0 -31 12.5t-20 52.5q-11 41 -38 143.5
t-48 176.5zM438 520h348q-37 157 -73.5 305t-40.5 166q-22 -46 -101 -202t-133 -269zM641 1636q64 0 123 -69q13 -15 17 -19.5t12.5 -13.5t14 -11.5t11.5 -2.5q32 0 43 96q6 20 21 20q14 0 45.5 -8.5t48.5 -19.5q-11 -246 -146 -246q-36 0 -64 19.5t-65 58.5q-24 27 -36 37
t-25 10q-34 -3 -47 -96q-4 -21 -16 -21q-17 0 -53 6t-46 10q7 250 162 250z" />
    <glyph glyph-name="Adieresis" unicode="&#xc4;" horiz-adv-x="1245" 
d="M813 373h-446q-120 -242 -185 -355q-18 -30 -55 -30q-76 0 -158 24l-2 4q530 972 649 1209l-10 35q160 26 185 26q9 0 14.5 -4.5t7.5 -9.5t6 -17q23 -88 101 -396t106 -410q13 -49 119 -435v-4q-30 -8 -94 -15t-101 -7q-21 0 -31 12.5t-20 52.5q-11 41 -38 143.5
t-48 176.5zM438 520h348q-37 157 -73.5 305t-40.5 166q-22 -46 -101 -202t-133 -269zM547 1593q45 0 73.5 -32.5t26.5 -77.5q0 -57 -34.5 -91t-86.5 -34q-46 0 -76.5 29t-29.5 83q2 53 36 88t91 35zM924 1593q46 0 73 -31.5t25 -78.5q-1 -57 -35 -91t-88 -34
q-42 0 -72.5 29.5t-29.5 82.5q2 52 36.5 87.5t90.5 35.5z" />
    <glyph glyph-name="Aring" unicode="&#xc5;" horiz-adv-x="1245" 
d="M813 373h-446q-120 -242 -185 -355q-18 -30 -55 -30q-76 0 -158 24l-2 4q530 972 649 1209l-10 35q160 26 185 26q9 0 14.5 -4.5t7.5 -9.5t6 -17q23 -88 101 -396t106 -410q13 -49 119 -435v-4q-30 -8 -94 -15t-101 -7q-21 0 -31 12.5t-20 52.5q-11 41 -38 143.5
t-48 176.5zM438 520h348q-37 157 -73.5 305t-40.5 166q-22 -46 -101 -202t-133 -269zM748 1718q76 0 124 -48.5t46 -125.5q0 -80 -57.5 -133t-145.5 -53q-72 0 -119.5 44t-46.5 130q0 78 54.5 132t144.5 54zM735 1626q-35 0 -55.5 -27.5t-20.5 -62.5q0 -40 19 -60t51 -20
q35 0 55.5 25.5t20.5 60.5q0 84 -70 84z" />
    <glyph glyph-name="AE" unicode="&#xc6;" horiz-adv-x="1615" 
d="M1108 631h405q-14 -53 -28.5 -85.5t-34 -48t-38 -20t-48.5 -4.5h-279l-36 -315q48 -13 241 -13q150 0 256 9l4 -4q-14 -79 -104 -150q-46 -12 -256 -12q-269 0 -363 20l-22 37l61 428h-50h-61t-57 -0.5t-63.5 -2t-54 -3.5t-56.5 -5.5t-43 -8.5q-222 -373 -270 -443
q-18 -24 -57 -24q-35 0 -98 6t-85 14v8q32 50 208.5 329.5t329 516t228.5 342.5q7 10 31 58q17 2 62 7t82.5 8.5t70.5 4.5h619q-10 -91 -68 -145q-34 -13 -170 -13h-195zM956 1139h-51q-139 -205 -327 -521q87 13 309 13z" />
    <glyph glyph-name="Ccedilla" unicode="&#xc7;" horiz-adv-x="1099" 
d="M451 -166l118 139q-236 28 -363.5 183.5t-127.5 410.5q0 98 26 198.5t85 199.5t144.5 175t215 123.5t285.5 47.5q99 0 179.5 -23t104.5 -47q-2 -54 -29.5 -94t-78.5 -23q-86 31 -176 31q-102 0 -194.5 -40.5t-162.5 -114t-111.5 -185.5t-41.5 -246q0 -124 43 -222
t134.5 -159t219.5 -61q156 0 285 55l4 -4q-4 -106 -47 -147q-88 -52 -258 -62l-58 -69q54 -19 85.5 -57t33.5 -85q2 -56 -26 -101t-73.5 -72t-96 -42.5t-99.5 -17.5q-18 5 -32.5 30t-18.5 46q5 20 22 24q83 18 116.5 41t31.5 55t-41.5 51t-99.5 15z" />
    <glyph glyph-name="Egrave" unicode="&#xc8;" horiz-adv-x="897" 
d="M406 731h401q-12 -50 -26.5 -80t-36 -44t-41 -17.5t-52.5 -3.5h-266l-59 -441q44 -12 241 -12q200 0 260 8l2 -4q-17 -80 -104 -137q-47 -12 -258 -12q-260 0 -358 20l-27 41l133 944q18 125 33 258q146 28 203 29h444q-3 -36 -16 -64.5t-22.5 -39.5t-29.5 -29
q-31 -12 -172 -12h-194zM426 1667q28 0 131.5 -68t165.5 -124q34 -27 12 -68q-18 -32 -33 -47q-21 9 -96.5 44t-140.5 63.5t-121 48.5q-24 8 -16 38q13 43 41 78t57 35z" />
    <glyph glyph-name="Eacute" unicode="&#xc9;" horiz-adv-x="897" 
d="M406 731h401q-12 -50 -26.5 -80t-36 -44t-41 -17.5t-52.5 -3.5h-266l-59 -441q44 -12 241 -12q200 0 260 8l2 -4q-17 -80 -104 -137q-47 -12 -258 -12q-260 0 -358 20l-27 41l133 944q18 125 33 258q146 28 203 29h444q-3 -36 -16 -64.5t-22.5 -39.5t-29.5 -29
q-31 -12 -172 -12h-194zM758 1645q36 -8 62 -46.5t36 -76.5q8 -25 -27 -37q-58 -17 -122.5 -40t-139.5 -51.5t-90 -33.5q-14 12 -37 49q-11 22 -9 34.5t18 26.5q71 58 168.5 116.5t140.5 58.5z" />
    <glyph glyph-name="Ecircumflex" unicode="&#xca;" horiz-adv-x="897" 
d="M406 731h401q-12 -50 -26.5 -80t-36 -44t-41 -17.5t-52.5 -3.5h-266l-59 -441q44 -12 241 -12q200 0 260 8l2 -4q-17 -80 -104 -137q-47 -12 -258 -12q-260 0 -358 20l-27 41l133 944q18 125 33 258q146 28 203 29h444q-3 -36 -16 -64.5t-22.5 -39.5t-29.5 -29
q-31 -12 -172 -12h-194zM397 1360q-33 0 -64 21t-38 42q123 80 235 199q16 18 39 25q33 8 78 8q82 -116 213 -232q-13 -19 -44.5 -41t-51.5 -22q-31 0 -49 12q-25 14 -125 111q-71 -64 -146 -109q-19 -14 -47 -14z" />
    <glyph glyph-name="Edieresis" unicode="&#xcb;" horiz-adv-x="897" 
d="M406 731h401q-12 -50 -26.5 -80t-36 -44t-41 -17.5t-52.5 -3.5h-266l-59 -441q44 -12 241 -12q200 0 260 8l2 -4q-17 -80 -104 -137q-47 -12 -258 -12q-260 0 -358 20l-27 41l133 944q18 125 33 258q146 28 203 29h444q-3 -36 -16 -64.5t-22.5 -39.5t-29.5 -29
q-31 -12 -172 -12h-194zM410 1610q44 0 73 -33.5t29 -79.5q-1 -56 -35.5 -89.5t-87.5 -33.5q-46 0 -76.5 29t-29.5 82q2 54 36 89.5t91 35.5zM788 1610q46 0 72.5 -32t24.5 -79q0 -57 -33.5 -91t-87.5 -34q-43 0 -74 29t-31 84q2 53 37 88t92 35z" />
    <glyph glyph-name="Igrave" unicode="&#xcc;" horiz-adv-x="528" 
d="M78 25l129 979q4 38 15 127.5t16 138.5q28 5 97 10.5t99 5.5q23 0 27.5 -22t-4.5 -99l-121 -911q-21 -166 -29 -254q-53 -12 -198 -12q-20 0 -27 8.5t-4 28.5zM213 1667q28 0 130 -68t165 -124q34 -27 12 -68q-13 -22 -31 -47q-27 12 -99 45t-138.5 62t-122.5 49
q-24 9 -14 38q12 42 40 77.5t58 35.5z" />
    <glyph glyph-name="Iacute" unicode="&#xcd;" horiz-adv-x="528" 
d="M78 25l129 979q4 38 15 127.5t16 138.5q28 5 97 10.5t99 5.5q23 0 27.5 -22t-4.5 -99l-121 -911q-21 -166 -29 -254q-53 -12 -198 -12q-20 0 -27 8.5t-4 28.5zM528 1645q37 -8 63 -45.5t38 -77.5q8 -26 -29 -37q-57 -17 -121.5 -40t-141 -51.5t-89.5 -33.5q-17 17 -37 49
q-12 22 -9.5 34.5t19.5 26.5q68 58 166 116.5t141 58.5z" />
    <glyph glyph-name="Icircumflex" unicode="&#xce;" horiz-adv-x="528" 
d="M78 25l129 979q4 38 15 127.5t16 138.5q28 5 97 10.5t99 5.5q23 0 27.5 -22t-4.5 -99l-121 -911q-21 -166 -29 -254q-53 -12 -198 -12q-20 0 -27 8.5t-4 28.5zM180 1360q-33 0 -64 21t-38 42q118 76 235 199q16 18 39 25q36 8 78 8q89 -123 213 -232q-13 -19 -44.5 -41
t-51.5 -22q-28 0 -49 12q-29 17 -123 111q-76 -67 -148 -109q-19 -14 -47 -14z" />
    <glyph glyph-name="Idieresis" unicode="&#xcf;" horiz-adv-x="528" 
d="M78 25l129 979q4 38 15 127.5t16 138.5q28 5 97 10.5t99 5.5q23 0 27.5 -22t-4.5 -99l-121 -911q-21 -166 -29 -254q-53 -12 -198 -12q-20 0 -27 8.5t-4 28.5zM195 1593q45 0 73.5 -32.5t26.5 -77.5q0 -57 -34.5 -91t-88.5 -34q-45 0 -75 29t-29 83q0 52 35 87.5t92 35.5
zM571 1593q46 0 72.5 -31.5t26.5 -78.5q-1 -57 -35 -91t-88 -34q-42 0 -73 29.5t-30 82.5q2 52 36.5 87.5t90.5 35.5z" />
    <glyph glyph-name="Eth" unicode="&#xd0;" horiz-adv-x="1320" 
d="M141 1102l-2 4q-5 28 10.5 70t36.5 59q69 22 189.5 38.5t208.5 16.5q669 0 669 -608q0 -165 -58 -299t-159.5 -221.5t-238 -134.5t-295.5 -47q-221 0 -406 53q15 104 78 551h-156q12 51 25.5 82.5t31 44t30.5 15.5t36 3h54q15 98 22 152q8 53 19.5 132.5t15.5 104.5
q-22 -2 -61.5 -8.5t-49.5 -7.5zM594 584h-191q-8 -62 -27 -211t-30 -232q63 -18 160 -18q80 0 153 21t137 65t111 108t74 156t27 203q0 220 -108 342.5t-331 122.5q-42 0 -90 -6q-25 -161 -57 -406h307q-11 -53 -23 -83.5t-31 -43.5t-34 -15.5t-47 -2.5z" />
    <glyph glyph-name="Ntilde" unicode="&#xd1;" horiz-adv-x="1271" 
d="M961 653l73 570q4 31 15 41.5t36 13.5q65 8 148 8q-125 -810 -176 -1278q-74 -33 -131 -33q-31 0 -49 33q-170 314 -312 598q-136 270 -184 395q-12 -155 -41 -395l-74 -559q-4 -31 -14.5 -41.5t-34.5 -13.5q-65 -7 -156 -4q44 270 170 1145q6 44 -4 69l-28 62v6
q31 4 112.5 10t104.5 6q28 0 53 -35q21 -34 69.5 -126t124 -237.5t117.5 -225.5q106 -198 150 -316q3 67 31 307zM674 1632q66 0 125 -69q13 -15 17 -19.5t12.5 -13.5t14 -11.5t11.5 -2.5q29 0 43 96q6 20 21 20q14 0 45 -8.5t47 -19.5q-11 -244 -146 -244q-35 0 -63.5 19.5
t-63.5 58.5l-8 8q-33 33 -47 36l-8 1q-31 0 -45 -94q-3 -21 -17 -21q-17 0 -52 5.5t-46 10.5q4 248 160 248z" />
    <glyph glyph-name="Ograve" unicode="&#xd2;" horiz-adv-x="1325" 
d="M743 1311q129 0 231 -45.5t166 -125.5t97 -185t33 -228q0 -110 -23.5 -215.5t-76 -204.5t-128.5 -173.5t-189.5 -119.5t-250.5 -45q-250 0 -387 155t-137 417q-1 148 43.5 285.5t126.5 246t210.5 173.5t284.5 65zM727 1167q-108 0 -200 -81t-147.5 -225.5t-55.5 -319.5
q0 -81 15.5 -154t48.5 -136t92 -100.5t138 -37.5q77 0 143.5 37.5t113.5 100t81 144.5t50 172t16 181q0 77 -14 146t-45.5 133t-92 102t-143.5 38zM616 1700q28 0 130.5 -67.5t166.5 -123.5q34 -31 13 -69q-15 -24 -33 -47q-261 122 -358 155q-26 9 -15 39q12 42 39.5 77.5
t56.5 35.5z" />
    <glyph glyph-name="Oacute" unicode="&#xd3;" horiz-adv-x="1325" 
d="M743 1311q129 0 231 -45.5t166 -125.5t97 -185t33 -228q0 -110 -23.5 -215.5t-76 -204.5t-128.5 -173.5t-189.5 -119.5t-250.5 -45q-250 0 -387 155t-137 417q-1 148 43.5 285.5t126.5 246t210.5 173.5t284.5 65zM727 1167q-108 0 -200 -81t-147.5 -225.5t-55.5 -319.5
q0 -81 15.5 -154t48.5 -136t92 -100.5t138 -37.5q77 0 143.5 37.5t113.5 100t81 144.5t50 172t16 181q0 77 -14 146t-45.5 133t-92 102t-143.5 38zM928 1681q37 -8 62.5 -45t37.5 -77q8 -26 -29 -37q-58 -17 -122.5 -40t-139.5 -51.5t-90 -33.5q-19 19 -37 51q-22 36 11 59
q68 57 166 115.5t141 58.5z" />
    <glyph glyph-name="Ocircumflex" unicode="&#xd4;" horiz-adv-x="1325" 
d="M743 1311q129 0 231 -45.5t166 -125.5t97 -185t33 -228q0 -110 -23.5 -215.5t-76 -204.5t-128.5 -173.5t-189.5 -119.5t-250.5 -45q-250 0 -387 155t-137 417q-1 148 43.5 285.5t126.5 246t210.5 173.5t284.5 65zM727 1167q-108 0 -200 -81t-147.5 -225.5t-55.5 -319.5
q0 -81 15.5 -154t48.5 -136t92 -100.5t138 -37.5q77 0 143.5 37.5t113.5 100t81 144.5t50 172t16 181q0 77 -14 146t-45.5 133t-92 102t-143.5 38zM573 1395q-32 0 -63 21.5t-37 43.5q120 79 234 199q18 15 41 24q44 7 77 7q87 -120 211 -230q-14 -20 -44 -42.5t-50 -22.5
q-31 0 -49 12q-11 7 -26 19.5t-26.5 23.5t-35 33t-37.5 35q-74 -64 -145 -109q-35 -14 -50 -14z" />
    <glyph glyph-name="Otilde" unicode="&#xd5;" horiz-adv-x="1325" 
d="M743 1311q129 0 231 -45.5t166 -125.5t97 -185t33 -228q0 -110 -23.5 -215.5t-76 -204.5t-128.5 -173.5t-189.5 -119.5t-250.5 -45q-250 0 -387 155t-137 417q-1 148 43.5 285.5t126.5 246t210.5 173.5t284.5 65zM727 1167q-108 0 -200 -81t-147.5 -225.5t-55.5 -319.5
q0 -81 15.5 -154t48.5 -136t92 -100.5t138 -37.5q77 0 143.5 37.5t113.5 100t81 144.5t50 172t16 181q0 77 -14 146t-45.5 133t-92 102t-143.5 38zM684 1673q64 0 125 -71q37 -46 53 -46q32 0 45 97q3 20 19 20q15 0 46.5 -8.5t47.5 -19.5q-11 -246 -146 -246
q-25 0 -49.5 13t-38 25t-41.5 40q-24 27 -36 37t-25 10q-34 -3 -47 -97q-3 -20 -16 -20q-17 0 -53 6t-46 10q7 250 162 250z" />
    <glyph glyph-name="Odieresis" unicode="&#xd6;" horiz-adv-x="1325" 
d="M743 1311q129 0 231 -45.5t166 -125.5t97 -185t33 -228q0 -110 -23.5 -215.5t-76 -204.5t-128.5 -173.5t-189.5 -119.5t-250.5 -45q-250 0 -387 155t-137 417q-1 148 43.5 285.5t126.5 246t210.5 173.5t284.5 65zM727 1167q-108 0 -200 -81t-147.5 -225.5t-55.5 -319.5
q0 -81 15.5 -154t48.5 -136t92 -100.5t138 -37.5q77 0 143.5 37.5t113.5 100t81 144.5t50 172t16 181q0 77 -14 146t-45.5 133t-92 102t-143.5 38zM586 1630q45 0 73.5 -33.5t26.5 -78.5q0 -56 -34.5 -89.5t-86.5 -33.5q-46 0 -76.5 28.5t-29.5 81.5q0 54 35 89.5t92 35.5z
M963 1630q46 0 73 -31.5t25 -78.5q-1 -58 -35 -91.5t-88 -33.5q-42 0 -72.5 28.5t-29.5 83.5q2 52 36.5 87.5t90.5 35.5z" />
    <glyph glyph-name="multiply" unicode="&#xd7;" horiz-adv-x="1169" 
d="M1028 813l-319 -319l288 -289q14 -14 20.5 -34.5t-3.5 -45.5q-36 -56 -105 -84l-319 330l-316 -330q-61 11 -106 80q-25 43 8 76l293 295l-295 292q-32 32 0 78q40 62 100 76l316 -324l284 293q34 37 76 13q30 -17 53 -51.5t25 -55.5z" />
    <glyph glyph-name="Oslash" unicode="&#xd8;" horiz-adv-x="1318" 
d="M1231 1272l-96 -129q68 -73 101.5 -190t33.5 -236q0 -150 -44.5 -284.5t-127.5 -238t-213 -164.5t-289 -61q-187 0 -287 84l-106 -137q-13 -19 -30 -21t-32 13q-35 41 -53 84l113 151q-121 142 -121 414q-1 159 46.5 297.5t133 239.5t212 159t276.5 58q78 0 153.5 -20.5
t120.5 -51.5l76 96q21 28 35.5 33t25.5 -10q42 -40 72 -86zM350 336l563 756q-65 75 -188 75q-112 0 -206 -79t-149 -220t-55 -313q0 -150 35 -219zM991 967l-573 -764q29 -44 81 -68t117 -24q97 0 177.5 57t131.5 149t79 203.5t28 224.5q0 139 -41 222z" />
    <glyph glyph-name="Ugrave" unicode="&#xd9;" horiz-adv-x="1296" 
d="M444 1165l-75 -551q-11 -97 -10.5 -170.5t17.5 -127t40.5 -89t58 -56.5t70 -29.5t76.5 -8.5q70 0 124.5 26.5t101.5 87t81.5 168t56.5 261.5l76 545q4 33 14 44t31 13q71 8 162 8q-28 -170 -58 -381l-36 -270q-22 -163 -66.5 -284.5t-99 -193t-127.5 -114.5t-141.5 -57.5
t-151.5 -14.5q-537 0 -445 666l50 364q10 75 21.5 162t14.5 107q20 4 91.5 10t101.5 6q13 0 19.5 -4.5t9 -19t1 -36t-7.5 -61.5zM610 1667q28 0 130 -68t165 -124q36 -25 13 -68q-8 -16 -31 -47q-27 12 -99 45t-138.5 62t-121.5 49q-26 9 -16 38q14 43 41 78t57 35z" />
    <glyph glyph-name="Uacute" unicode="&#xda;" horiz-adv-x="1296" 
d="M444 1165l-75 -551q-11 -97 -10.5 -170.5t17.5 -127t40.5 -89t58 -56.5t70 -29.5t76.5 -8.5q70 0 124.5 26.5t101.5 87t81.5 168t56.5 261.5l76 545q4 33 14 44t31 13q71 8 162 8q-28 -170 -58 -381l-36 -270q-22 -163 -66.5 -284.5t-99 -193t-127.5 -114.5t-141.5 -57.5
t-151.5 -14.5q-537 0 -445 666l50 364q10 75 21.5 162t14.5 107q20 4 91.5 10t101.5 6q13 0 19.5 -4.5t9 -19t1 -36t-7.5 -61.5zM936 1645q37 -8 62.5 -45.5t37.5 -77.5q8 -26 -28 -37q-58 -17 -122.5 -40t-141 -51.5t-89.5 -33.5q-17 17 -37 49q-12 22 -9.5 34.5t20.5 26.5
q68 58 166 116.5t141 58.5z" />
    <glyph glyph-name="Ucircumflex" unicode="&#xdb;" horiz-adv-x="1296" 
d="M444 1165l-75 -551q-11 -97 -10.5 -170.5t17.5 -127t40.5 -89t58 -56.5t70 -29.5t76.5 -8.5q70 0 124.5 26.5t101.5 87t81.5 168t56.5 261.5l76 545q4 33 14 44t31 13q71 8 162 8q-28 -170 -58 -381l-36 -270q-22 -163 -66.5 -284.5t-99 -193t-127.5 -114.5t-141.5 -57.5
t-151.5 -14.5q-537 0 -445 666l50 364q10 75 21.5 162t14.5 107q20 4 91.5 10t101.5 6q13 0 19.5 -4.5t9 -19t1 -36t-7.5 -61.5zM580 1360q-32 0 -63 21.5t-38 41.5q128 84 234 199q19 19 41 25q33 8 77 8q80 -114 211 -232q-12 -19 -43 -41t-51 -22q-31 0 -49 12
q-25 14 -125 111q-73 -66 -145 -109q-23 -14 -49 -14z" />
    <glyph glyph-name="Udieresis" unicode="&#xdc;" horiz-adv-x="1296" 
d="M444 1165l-75 -551q-11 -97 -10.5 -170.5t17.5 -127t40.5 -89t58 -56.5t70 -29.5t76.5 -8.5q70 0 124.5 26.5t101.5 87t81.5 168t56.5 261.5l76 545q4 33 14 44t31 13q71 8 162 8q-28 -170 -58 -381l-36 -270q-22 -163 -66.5 -284.5t-99 -193t-127.5 -114.5t-141.5 -57.5
t-151.5 -14.5q-537 0 -445 666l50 364q10 75 21.5 162t14.5 107q20 4 91.5 10t101.5 6q13 0 19.5 -4.5t9 -19t1 -36t-7.5 -61.5zM604 1597q45 0 74 -32.5t27 -77.5q0 -57 -34.5 -91t-88.5 -34q-45 0 -75.5 29.5t-29.5 83.5q0 53 34.5 87.5t92.5 34.5zM981 1597q46 0 72 -31
t26 -79q-1 -57 -35 -91t-88 -34q-42 0 -72.5 29.5t-29.5 83.5q0 52 35.5 87t91.5 35z" />
    <glyph glyph-name="Yacute" unicode="&#xdd;" horiz-adv-x="1118" 
d="M127 1255v5q126 26 205 26q22 0 36 -13t31 -50q30 -73 100 -222.5t109 -242.5q63 84 214.5 297t164.5 231q99 -3 158 -24q41 -14 -4 -68q-56 -70 -436 -573q-26 -39 -31 -74l-37 -293q-23 -199 -25 -254q-59 -12 -196 -12q-24 0 -32 6t-5 31l63 493q7 71 -2 94
q-19 60 -65 156q-139 286 -248 487zM836 1645q36 -8 62 -46.5t36 -76.5q8 -25 -27 -37q-57 -17 -124 -41t-137 -50t-93 -34q-17 17 -37 49q-11 23 -8.5 35t18.5 26q68 58 166.5 116.5t143.5 58.5z" />
    <glyph glyph-name="Thorn" unicode="&#xde;" horiz-adv-x="1005" 
d="M76 25l131 981q27 202 33 268q66 12 190 12q18 0 26 -10.5t8 -34.5t-5 -65l-23 -154q93 6 99 6q192 0 300.5 -94t108.5 -275q0 -96 -33 -175.5t-88 -130.5t-126.5 -79t-149.5 -28q-81 0 -107 18q-50 40 -47 127q40 -10 68 -10q105 0 175.5 73t70.5 201q0 115 -62.5 174.5
t-161.5 57.5q-42 0 -65 -6l-82 -627q-10 -81 -18.5 -160.5t-10.5 -93.5q-77 -12 -192 -12q-24 0 -33 8.5t-6 28.5z" />
    <glyph glyph-name="germandbls" unicode="&#xdf;" horiz-adv-x="1044" 
d="M168 735h-143q-5 32 17.5 86.5t51.5 61.5h96q14 82 36.5 153.5t63 140.5t93.5 117.5t130.5 78.5t172.5 30q155 0 238.5 -85.5t83.5 -201.5q0 -74 -27 -123q-121 -57 -185.5 -126.5t-64.5 -143.5q0 -24 17.5 -55.5t33 -50t58.5 -66.5q4 -5 7.5 -8.5t6.5 -7.5
q52 -62 76 -111t24 -105q0 -70 -22 -128t-58.5 -97t-85 -66.5t-100.5 -40t-106 -12.5q-46 0 -89 12t-67 29q-32 19 -43 52t-6 61t18 49q2 2 8 2q29 -19 76.5 -34t91.5 -15q68 0 115 35t47 98q0 36 -23.5 74.5t-74.5 95.5q-58 63 -89.5 118t-31.5 112q0 92 75.5 191.5
t209.5 172.5q12 32 12 70q0 67 -37 112t-106 45q-59 0 -103.5 -30t-76 -84.5t-56.5 -147.5t-42 -201t-34 -264q-28 -252 -63 -475q-36 -237 -136 -364t-263 -127q-75 0 -115 32q-25 17 -31 74t12 78q45 -20 109 -20q101 0 149 96t78 334q9 75 37 297.5t35 281.5z" />
    <glyph glyph-name="agrave" unicode="&#xe0;" horiz-adv-x="1013" 
d="M37 264q0 69 15 147t62 178t119 173q159 164 416 164q96 0 291 -45q-14 -67 -43.5 -267.5t-46.5 -349.5q-20 -171 -14 -254q-38 -18 -98.5 -27.5t-94.5 -9.5q-12 0 -15 59.5t5 139.5q1 7 4.5 43t3.5 45q-69 -128 -183.5 -206.5t-234.5 -78.5q-87 0 -136.5 73t-49.5 216z
M332 154q47 0 103 40t108.5 109.5t96 174.5t62.5 224q8 40 13 60q-46 16 -94 16q-151 0 -246 -127q-58 -79 -86.5 -174t-28.5 -184q0 -64 18.5 -101.5t53.5 -37.5zM569 1411q28 -4 75 -111.5t69 -195.5q8 -33 -17 -47q-31 -20 -69 -23q-38 66 -97 149t-116 146q-7 5 -5 17
t15 22q27 21 67.5 34t77.5 9z" />
    <glyph glyph-name="aacute" unicode="&#xe1;" horiz-adv-x="1013" 
d="M37 264q0 69 15 147t62 178t119 173q159 164 416 164q96 0 291 -45q-14 -67 -43.5 -267.5t-46.5 -349.5q-20 -171 -14 -254q-38 -18 -98.5 -27.5t-94.5 -9.5q-12 0 -15 59.5t5 139.5q1 7 4.5 43t3.5 45q-69 -128 -183.5 -206.5t-234.5 -78.5q-87 0 -136.5 73t-49.5 216z
M332 154q47 0 103 40t108.5 109.5t96 174.5t62.5 224q8 40 13 60q-46 16 -94 16q-151 0 -246 -127q-58 -79 -86.5 -174t-28.5 -184q0 -64 18.5 -101.5t53.5 -37.5zM680 1405q40 0 78 -17t63 -40q11 -9 10.5 -16.5t-12.5 -24.5q-29 -32 -63 -74.5t-54.5 -70.5t-54.5 -74.5
t-41 -55.5q-38 6 -71 31q-22 14 -7 55q13 37 18.5 51.5t21.5 57.5t27.5 66t27.5 53t30 44.5t27 14.5z" />
    <glyph glyph-name="acircumflex" unicode="&#xe2;" horiz-adv-x="1013" 
d="M37 264q0 69 15 147t62 178t119 173q159 164 416 164q96 0 291 -45q-14 -67 -43.5 -267.5t-46.5 -349.5q-20 -171 -14 -254q-38 -18 -98.5 -27.5t-94.5 -9.5q-12 0 -15 59.5t5 139.5q1 7 4.5 43t3.5 45q-69 -128 -183.5 -206.5t-234.5 -78.5q-87 0 -136.5 73t-49.5 216z
M332 154q47 0 103 40t108.5 109.5t96 174.5t62.5 224q8 40 13 60q-46 16 -94 16q-151 0 -246 -127q-58 -79 -86.5 -174t-28.5 -184q0 -64 18.5 -101.5t53.5 -37.5zM465 1044q-51 0 -111 27q147 194 201 283q16 26 45 32q44 9 80 9q67 -129 176 -314q-77 -37 -106 -37t-37 19
q-10 16 -29 46.5t-35.5 58.5t-30.5 55q-50 -84 -108 -150q-19 -29 -45 -29z" />
    <glyph glyph-name="atilde" unicode="&#xe3;" horiz-adv-x="1013" 
d="M37 264q0 69 15 147t62 178t119 173q159 164 416 164q96 0 291 -45q-14 -67 -43.5 -267.5t-46.5 -349.5q-20 -171 -14 -254q-38 -18 -98.5 -27.5t-94.5 -9.5q-12 0 -15 59.5t5 139.5q1 7 4.5 43t3.5 45q-69 -128 -183.5 -206.5t-234.5 -78.5q-87 0 -136.5 73t-49.5 216z
M332 154q47 0 103 40t108.5 109.5t96 174.5t62.5 224q8 40 13 60q-46 16 -94 16q-151 0 -246 -127q-58 -79 -86.5 -174t-28.5 -184q0 -64 18.5 -101.5t53.5 -37.5zM537 1366q62 0 122 -70q35 -47 56 -47q30 0 41 97q3 11 7.5 15.5t14.5 4.5q15 0 46.5 -9t45.5 -20
q-4 -128 -40 -187.5t-103 -59.5q-36 0 -64.5 20t-64.5 59q-24 26 -36 35.5t-25 9.5q-32 -3 -48 -94q-3 -20 -16 -20q-17 0 -52.5 5.5t-47.5 10.5q11 250 164 250z" />
    <glyph glyph-name="adieresis" unicode="&#xe4;" horiz-adv-x="1013" 
d="M37 264q0 69 15 147t62 178t119 173q159 164 416 164q96 0 291 -45q-14 -67 -43.5 -267.5t-46.5 -349.5q-20 -171 -14 -254q-38 -18 -98.5 -27.5t-94.5 -9.5q-12 0 -15 59.5t5 139.5q1 7 4.5 43t3.5 45q-69 -128 -183.5 -206.5t-234.5 -78.5q-87 0 -136.5 73t-49.5 216z
M332 154q47 0 103 40t108.5 109.5t96 174.5t62.5 224q8 40 13 60q-46 16 -94 16q-151 0 -246 -127q-58 -79 -86.5 -174t-28.5 -184q0 -64 18.5 -101.5t53.5 -37.5zM451 1325q41 0 66.5 -30t25.5 -72q0 -52 -32.5 -83.5t-82.5 -31.5q-39 0 -65.5 27t-26.5 77q0 48 31.5 80.5
t83.5 32.5zM799 1325q43 0 68.5 -29.5t25.5 -72.5q0 -53 -31.5 -84t-81.5 -31q-39 0 -66.5 26.5t-27.5 77.5q0 47 31 80t82 33z" />
    <glyph glyph-name="aring" unicode="&#xe5;" horiz-adv-x="1013" 
d="M37 264q0 69 15 147t62 178t119 173q159 164 416 164q96 0 291 -45q-14 -67 -43.5 -267.5t-46.5 -349.5q-20 -171 -14 -254q-38 -18 -98.5 -27.5t-94.5 -9.5q-12 0 -15 59.5t5 139.5q1 7 4.5 43t3.5 45q-69 -128 -183.5 -206.5t-234.5 -78.5q-87 0 -136.5 73t-49.5 216z
M332 154q47 0 103 40t108.5 109.5t96 174.5t62.5 224q8 40 13 60q-46 16 -94 16q-151 0 -246 -127q-58 -79 -86.5 -174t-28.5 -184q0 -64 18.5 -101.5t53.5 -37.5zM651 1395q76 0 125 -47t49 -121q0 -85 -57 -139t-143 -54q-73 0 -121.5 43.5t-48.5 124.5q0 84 54 138.5
t142 54.5zM647 1300q-35 0 -57.5 -28.5t-22.5 -63.5q0 -36 18.5 -57t49.5 -21q35 0 56.5 26t21.5 63q0 81 -66 81z" />
    <glyph glyph-name="ae" unicode="&#xe6;" horiz-adv-x="1374" 
d="M592 221l-6 2q-181 -248 -396 -248q-68 0 -116 54t-51 168q-5 121 59 262.5t194 251.5q225 186 633 180q1 0 12.5 4.5t14.5 5.5t14.5 5t17.5 5.5l18 4.5t21.5 4t22.5 3t26.5 2.5t28.5 0.5q120 0 176 -59.5t56 -145.5q0 -65 -28 -119.5t-74.5 -91t-101 -64t-115 -42.5
t-108.5 -22.5t-87 -8.5q-3 -40 2 -76.5t18.5 -73t44.5 -58.5t76 -22q84 0 159.5 40t131.5 100q32 -13 35 -74q0 -47 -31 -86q-121 -148 -352 -148q-73 0 -130 22t-91 58.5t-52.5 78.5t-21.5 87zM1044 795q-69 0 -134.5 -74t-94.5 -207q307 39 307 197q0 84 -78 84zM307 147
q42 0 124.5 70.5t158.5 202.5q17 103 61.5 196.5t91.5 135.5q-203 -9 -342 -150q-69 -71 -110.5 -173.5t-38.5 -197.5q3 -84 55 -84z" />
    <glyph glyph-name="ccedilla" unicode="&#xe7;" horiz-adv-x="792" 
d="M172 -166l121 143q-116 13 -185 96.5t-69 239.5q0 94 23.5 184t70 167.5t111 136t152 92t186.5 33.5q59 0 106.5 -14.5t69.5 -39.5q1 -38 -23.5 -81t-46.5 -41q-60 22 -115 22q-135 0 -219 -121.5t-84 -302.5q0 -198 142 -198q72 0 141.5 36.5t122.5 87.5
q11 -8 20.5 -28.5t10.5 -42.5q0 -60 -45 -105q-85 -88 -226 -114l-67 -84q54 -19 85 -57t33 -85q2 -56 -25.5 -101t-73.5 -72t-96 -42.5t-99 -17.5q-18 5 -33 30t-19 46q5 20 23 24q83 18 116 41t31 55t-41.5 51t-99.5 15z" />
    <glyph glyph-name="egrave" unicode="&#xe8;" horiz-adv-x="825" 
d="M539 926q112 0 169.5 -57t57.5 -138q0 -69 -34 -127.5t-86.5 -97.5t-122 -67.5t-135 -43t-130.5 -20.5q-2 -12 -2 -45q0 -185 150 -185q142 0 280 134q12 -6 20.5 -26.5t8.5 -43.5q0 -57 -33 -98q-55 -61 -143 -98.5t-203 -37.5q-152 0 -225.5 92t-73.5 252
q0 112 34.5 219.5t97 194.5t159 140t211.5 53zM498 797q-75 0 -140.5 -78t-89.5 -203q134 12 219.5 68.5t85.5 130.5q0 33 -18.5 57.5t-56.5 24.5zM477 1411q28 -4 75 -111.5t69 -195.5q8 -33 -17 -47q-31 -20 -69 -23q-109 181 -213 295q-7 5 -5 17t13 22q72 51 147 43z
" />
    <glyph glyph-name="eacute" unicode="&#xe9;" horiz-adv-x="825" 
d="M539 926q112 0 169.5 -57t57.5 -138q0 -69 -34 -127.5t-86.5 -97.5t-122 -67.5t-135 -43t-130.5 -20.5q-2 -12 -2 -45q0 -185 150 -185q142 0 280 134q12 -6 20.5 -26.5t8.5 -43.5q0 -57 -33 -98q-55 -61 -143 -98.5t-203 -37.5q-152 0 -225.5 92t-73.5 252
q0 112 34.5 219.5t97 194.5t159 140t211.5 53zM498 797q-75 0 -140.5 -78t-89.5 -203q134 12 219.5 68.5t85.5 130.5q0 33 -18.5 57.5t-56.5 24.5zM584 1405q40 0 78 -17t63 -40q11 -9 10.5 -16.5t-12.5 -24.5q-29 -32 -63 -74.5t-54.5 -70.5t-54.5 -74.5t-41 -55.5
q-39 6 -72 31q-21 14 -6 55q13 37 18.5 51.5t21.5 57.5t27.5 66t27.5 53t30 44.5t27 14.5z" />
    <glyph glyph-name="ecircumflex" unicode="&#xea;" horiz-adv-x="825" 
d="M539 926q112 0 169.5 -57t57.5 -138q0 -69 -34 -127.5t-86.5 -97.5t-122 -67.5t-135 -43t-130.5 -20.5q-2 -12 -2 -45q0 -185 150 -185q142 0 280 134q12 -6 20.5 -26.5t8.5 -43.5q0 -57 -33 -98q-55 -61 -143 -98.5t-203 -37.5q-152 0 -225.5 92t-73.5 252
q0 112 34.5 219.5t97 194.5t159 140t211.5 53zM498 797q-75 0 -140.5 -78t-89.5 -203q134 12 219.5 68.5t85.5 130.5q0 33 -18.5 57.5t-56.5 24.5zM354 1044q-50 0 -110 27q143 188 202 283q17 27 43 32q44 9 80 9q67 -129 176 -314q-77 -37 -104 -37q-29 0 -37 19
q-64 102 -94 160q-54 -84 -111 -150q-19 -29 -45 -29z" />
    <glyph glyph-name="edieresis" unicode="&#xeb;" horiz-adv-x="825" 
d="M539 926q112 0 169.5 -57t57.5 -138q0 -69 -34 -127.5t-86.5 -97.5t-122 -67.5t-135 -43t-130.5 -20.5q-2 -12 -2 -45q0 -185 150 -185q142 0 280 134q12 -6 20.5 -26.5t8.5 -43.5q0 -57 -33 -98q-55 -61 -143 -98.5t-203 -37.5q-152 0 -225.5 92t-73.5 252
q0 112 34.5 219.5t97 194.5t159 140t211.5 53zM498 797q-75 0 -140.5 -78t-89.5 -203q134 12 219.5 68.5t85.5 130.5q0 33 -18.5 57.5t-56.5 24.5zM354 1325q41 0 66.5 -30t25.5 -72q0 -52 -32 -83.5t-82 -31.5q-39 0 -65.5 27t-26.5 77q0 48 31 80.5t83 32.5zM702 1325
q43 0 69 -29.5t26 -72.5q0 -53 -31.5 -84t-81.5 -31q-39 0 -66.5 26.5t-27.5 77.5q0 48 30.5 80.5t81.5 32.5z" />
    <glyph glyph-name="igrave" unicode="&#xec;" horiz-adv-x="468" 
d="M367 926q19 0 21.5 -28.5t-9.5 -117.5q-18 -124 -38.5 -279t-34 -254.5t-23.5 -156.5q-11 -52 -29 -67q-15 -11 -80.5 -24.5t-130.5 -14.5q0 3 33.5 214t48.5 324q40 303 37 361q19 9 103 26t102 17zM248 1411q28 -4 74.5 -112t66.5 -195q11 -33 -14 -47q-30 -19 -70 -23
q-109 181 -213 295q-18 18 8 39q29 21 70 34t78 9z" />
    <glyph glyph-name="iacute" unicode="&#xed;" horiz-adv-x="468" 
d="M367 926q19 0 21.5 -28.5t-9.5 -117.5q-18 -124 -38.5 -279t-34 -254.5t-23.5 -156.5q-11 -52 -29 -67q-15 -11 -80.5 -24.5t-130.5 -14.5q0 3 33.5 214t48.5 324q40 303 37 361q19 9 103 26t102 17zM377 1405q40 0 78 -17t63 -40q11 -9 10.5 -16.5t-12.5 -24.5
q-29 -32 -63 -74.5t-54.5 -70.5t-54.5 -74.5t-41 -55.5q-39 6 -72 31q-21 14 -6 55q13 37 18.5 51.5t21.5 57.5t27.5 66t27.5 53t30 44.5t27 14.5z" />
    <glyph glyph-name="icircumflex" unicode="&#xee;" horiz-adv-x="468" 
d="M367 926q19 0 21.5 -28.5t-9.5 -117.5q-18 -124 -38.5 -279t-34 -254.5t-23.5 -156.5q-11 -52 -29 -67q-15 -11 -80.5 -24.5t-130.5 -14.5q0 3 33.5 214t48.5 324q40 303 37 361q19 9 103 26t102 17zM162 1044q-51 0 -111 27q147 194 201 283q16 26 45 32q44 9 80 9
q67 -129 176 -314q-77 -37 -107 -37q-28 0 -36 19q-10 16 -29 46.5t-35.5 58.5t-30.5 55q-50 -84 -108 -150q-19 -29 -45 -29z" />
    <glyph glyph-name="idieresis" unicode="&#xef;" horiz-adv-x="468" 
d="M367 926q19 0 21.5 -28.5t-9.5 -117.5q-18 -124 -38.5 -279t-34 -254.5t-23.5 -156.5q-11 -52 -29 -67q-15 -11 -80.5 -24.5t-130.5 -14.5q0 3 33.5 214t48.5 324q40 303 37 361q19 9 103 26t102 17zM147 1325q41 0 67 -30.5t26 -71.5q0 -52 -32.5 -83.5t-82.5 -31.5
q-39 0 -65.5 27t-26.5 77q0 48 31 80.5t83 32.5zM496 1325q43 0 68.5 -29.5t25.5 -72.5q0 -53 -31.5 -84t-81.5 -31q-39 0 -66.5 26.5t-27.5 77.5q0 47 31 80t82 33z" />
    <glyph glyph-name="eth" unicode="&#xf0;" horiz-adv-x="942" 
d="M846 1249l-141 -80q169 -215 169 -532q-2 -290 -141.5 -476t-361.5 -186q-161 0 -245.5 99t-84.5 266q0 84 20.5 168t61.5 159t97 133t134 92t166 34q61 0 96 -17q-8 41 -31 93t-50 85l-252 -133q-15 -11 -27 -5.5t-12 28.5q4 65 8 92l199 109q-51 42 -116.5 73.5
t-103.5 42.5v6q29 50 82 78q23 13 43 13q42 0 121 -38t139 -89l199 104q23 12 31 9.5t8 -25.5q0 -70 -8 -103zM393 117q31 0 65 20t69 63.5t62 104.5t44.5 152t17.5 196q0 45 -6 86q-36 45 -104 45q-73 0 -135 -69t-97 -178.5t-35 -229.5q0 -89 30 -139.5t89 -50.5z" />
    <glyph glyph-name="ntilde" unicode="&#xf1;" horiz-adv-x="1032" 
d="M356 633h6q173 293 400 293q100 0 140.5 -82.5t19.5 -235.5q-5 -36 -25 -152.5t-31 -189.5q-27 -179 -24 -256q-27 -15 -99.5 -25t-109.5 -10q-6 0 -9 29t0.5 86t14.5 123q6 35 32 179.5t36 209.5q19 139 -56 139q-30 0 -67 -19.5t-81.5 -67.5t-85.5 -119t-79 -185
t-62 -254q-12 -61 -45 -82q-53 -27 -192 -30q13 68 45 280.5t45 292.5q36 253 27 326q22 9 105 26t99 17q36 0 5 -232q-1 -11 -4.5 -33t-4.5 -28zM500 1366q67 0 123 -70q40 -47 55 -47q32 0 43 97q6 20 20 20t46.5 -9t48.5 -20q-9 -247 -144 -247q-36 0 -64.5 20t-64.5 59
q-24 26 -36 35.5t-25 9.5q-31 -3 -47 -94q-3 -20 -17 -20q-17 0 -53.5 6t-46.5 10q7 250 162 250z" />
    <glyph glyph-name="ograve" unicode="&#xf2;" horiz-adv-x="964" 
d="M551 926q89 0 155.5 -28t106 -78t59 -113.5t19.5 -141.5q0 -255 -144.5 -422.5t-371.5 -167.5q-336 0 -336 353q0 118 34.5 225t98 190.5t162 133t217.5 49.5zM530 788q-71 0 -129.5 -69t-90 -180t-31.5 -236q0 -88 31 -138t91 -50q69 0 126.5 65t91.5 178.5t34 249.5
q0 46 -10 84t-39 67t-74 29zM530 1411q27 -4 75 -113.5t67 -193.5q8 -33 -17 -47q-31 -20 -69 -23q-38 66 -97 149t-116 146q-7 5 -5 17t15 22q28 21 68.5 34t78.5 9z" />
    <glyph glyph-name="oacute" unicode="&#xf3;" horiz-adv-x="964" 
d="M551 926q89 0 155.5 -28t106 -78t59 -113.5t19.5 -141.5q0 -255 -144.5 -422.5t-371.5 -167.5q-336 0 -336 353q0 118 34.5 225t98 190.5t162 133t217.5 49.5zM530 788q-71 0 -129.5 -69t-90 -180t-31.5 -236q0 -88 31 -138t91 -50q69 0 126.5 65t91.5 178.5t34 249.5
q0 46 -10 84t-39 67t-74 29zM616 1405q40 0 79 -17t63 -40q11 -9 10.5 -16.5t-12.5 -24.5q-29 -32 -63 -74.5t-54.5 -70.5t-54.5 -74.5t-41 -55.5q-39 6 -72 31q-21 14 -6 55q73 207 115 261q20 25 36 26z" />
    <glyph glyph-name="ocircumflex" unicode="&#xf4;" horiz-adv-x="964" 
d="M551 926q89 0 155.5 -28t106 -78t59 -113.5t19.5 -141.5q0 -255 -144.5 -422.5t-371.5 -167.5q-336 0 -336 353q0 118 34.5 225t98 190.5t162 133t217.5 49.5zM530 788q-71 0 -129.5 -69t-90 -180t-31.5 -236q0 -88 31 -138t91 -50q69 0 126.5 65t91.5 178.5t34 249.5
q0 46 -10 84t-39 67t-74 29zM414 1044q-51 0 -111 27q148 195 203 283q17 27 43 32q43 9 80 9q67 -129 176 -314q-77 -37 -105 -37t-36 19q-70 110 -95 160q-56 -88 -110 -150q-19 -29 -45 -29z" />
    <glyph glyph-name="otilde" unicode="&#xf5;" horiz-adv-x="964" 
d="M551 926q89 0 155.5 -28t106 -78t59 -113.5t19.5 -141.5q0 -255 -144.5 -422.5t-371.5 -167.5q-336 0 -336 353q0 118 34.5 225t98 190.5t162 133t217.5 49.5zM530 788q-71 0 -129.5 -69t-90 -180t-31.5 -236q0 -88 31 -138t91 -50q69 0 126.5 65t91.5 178.5t34 249.5
q0 46 -10 84t-39 67t-74 29zM489 1366q67 0 123 -70q40 -47 56 -47q32 0 43 97q6 20 20 20t46 -9t48 -20q-9 -247 -143 -247q-36 0 -64.5 20t-64.5 59q-24 26 -36 35.5t-25 9.5q-32 -3 -48 -94q-3 -20 -16 -20q-17 0 -53.5 6t-46.5 10q7 250 161 250z" />
    <glyph glyph-name="odieresis" unicode="&#xf6;" horiz-adv-x="964" 
d="M551 926q89 0 155.5 -28t106 -78t59 -113.5t19.5 -141.5q0 -255 -144.5 -422.5t-371.5 -167.5q-336 0 -336 353q0 118 34.5 225t98 190.5t162 133t217.5 49.5zM530 788q-71 0 -129.5 -69t-90 -180t-31.5 -236q0 -88 31 -138t91 -50q69 0 126.5 65t91.5 178.5t34 249.5
q0 46 -10 84t-39 67t-74 29zM408 1325q41 0 66.5 -30t25.5 -72q0 -52 -32.5 -83.5t-82.5 -31.5q-39 0 -65.5 27t-26.5 77q0 48 31.5 80.5t83.5 32.5zM756 1325q43 0 68.5 -29.5t25.5 -72.5q0 -53 -31.5 -84t-81.5 -31q-39 0 -66.5 26.5t-27.5 77.5q0 47 31 80t82 33z" />
    <glyph glyph-name="divide" unicode="&#xf7;" horiz-adv-x="1169" 
d="M584 721q-44 0 -76.5 35t-32.5 80q0 46 33 81t78 35q48 0 80 -34.5t32 -81.5t-33.5 -81t-80.5 -34zM977 420h-848q2 89 15.5 125.5t48.5 36.5h851q-2 -83 -15.5 -122.5t-51.5 -39.5zM584 281q45 0 77.5 -33.5t32.5 -79.5q0 -47 -33.5 -82t-76.5 -35q-47 0 -80 34.5
t-33 82.5q0 47 33 80t80 33z" />
    <glyph glyph-name="oslash" unicode="&#xf8;" horiz-adv-x="960" 
d="M858 903l-57 -80q42 -45 64 -119.5t22 -156.5q0 -161 -62 -290.5t-178 -205.5t-264 -76q-124 0 -182 39l-64 -86q-26 -35 -49 -12q-30 30 -41 76l68 92q-76 91 -76 264q0 147 61.5 278t180.5 215.5t270 84.5q100 0 158 -35l47 70q21 31 34 33t29 -17q42 -42 39 -74z
M268 272l344 484q-30 37 -88 37q-59 0 -113 -45.5t-90 -117t-51.5 -167.5t-1.5 -191zM659 645l-346 -487q13 -22 39.5 -34.5t55.5 -12.5q55 0 106.5 41t89 110t53.5 170.5t2 212.5z" />
    <glyph glyph-name="ugrave" unicode="&#xf9;" horiz-adv-x="1034" 
d="M645 236h-4q-155 -261 -385 -261q-53 0 -89.5 20t-55.5 51.5t-27 76.5t-6 89t10 95q8 55 26 156t25 145q28 176 39 275q17 9 100.5 26t106.5 17q27 0 16 -74q-8 -43 -92 -553q-13 -79 3 -110t55 -31q29 0 65.5 21t79.5 71.5t82.5 123t75.5 186.5t57 251q4 41 13 58t30 26
q35 13 100.5 23.5t94.5 7.5q-45 -167 -107 -666q-17 -142 -14 -250q-39 -18 -101 -26.5t-100 -8.5q-6 0 -9 26t-0.5 86.5t11.5 148.5zM543 1411q28 -4 74.5 -112t66.5 -195q5 -19 2 -29.5t-18 -17.5q-28 -19 -70 -23q-95 164 -211 295q-18 18 8 39q27 21 69 34t79 9z" />
    <glyph glyph-name="uacute" unicode="&#xfa;" horiz-adv-x="1034" 
d="M645 236h-4q-155 -261 -385 -261q-53 0 -89.5 20t-55.5 51.5t-27 76.5t-6 89t10 95q8 55 26 156t25 145q28 176 39 275q17 9 100.5 26t106.5 17q27 0 16 -74q-8 -43 -92 -553q-13 -79 3 -110t55 -31q29 0 65.5 21t79.5 71.5t82.5 123t75.5 186.5t57 251q4 41 13 58t30 26
q35 13 100.5 23.5t94.5 7.5q-45 -167 -107 -666q-17 -142 -14 -250q-39 -18 -101 -26.5t-100 -8.5q-6 0 -9 26t-0.5 86.5t11.5 148.5zM682 1405q40 0 78 -17t63 -40q11 -9 10.5 -16.5t-12.5 -24.5q-29 -32 -63 -74.5t-54.5 -70.5t-54.5 -74.5t-41 -55.5q-38 6 -71 31
q-22 14 -7 55q13 37 18.5 51.5t21.5 57.5t27.5 66t27.5 53t30 44.5t27 14.5z" />
    <glyph glyph-name="ucircumflex" unicode="&#xfb;" horiz-adv-x="1034" 
d="M645 236h-4q-155 -261 -385 -261q-53 0 -89.5 20t-55.5 51.5t-27 76.5t-6 89t10 95q8 55 26 156t25 145q28 176 39 275q17 9 100.5 26t106.5 17q27 0 16 -74q-8 -43 -92 -553q-13 -79 3 -110t55 -31q29 0 65.5 21t79.5 71.5t82.5 123t75.5 186.5t57 251q4 41 13 58t30 26
q35 13 100.5 23.5t94.5 7.5q-45 -167 -107 -666q-17 -142 -14 -250q-39 -18 -101 -26.5t-100 -8.5q-6 0 -9 26t-0.5 86.5t11.5 148.5zM453 1044q-49 0 -109 27q147 194 201 283q16 26 43 32q46 9 82 9q67 -129 176 -314q-77 -37 -107 -37q-29 0 -37 19q-9 15 -28.5 46.5
t-35.5 59t-30 54.5q-62 -97 -108 -150q-23 -29 -47 -29z" />
    <glyph glyph-name="udieresis" unicode="&#xfc;" horiz-adv-x="1034" 
d="M645 236h-4q-155 -261 -385 -261q-53 0 -89.5 20t-55.5 51.5t-27 76.5t-6 89t10 95q8 55 26 156t25 145q28 176 39 275q17 9 100.5 26t106.5 17q27 0 16 -74q-8 -43 -92 -553q-13 -79 3 -110t55 -31q29 0 65.5 21t79.5 71.5t82.5 123t75.5 186.5t57 251q4 41 13 58t30 26
q35 13 100.5 23.5t94.5 7.5q-45 -167 -107 -666q-17 -142 -14 -250q-39 -18 -101 -26.5t-100 -8.5q-6 0 -9 26t-0.5 86.5t11.5 148.5zM446 1325q41 0 67 -30.5t26 -71.5q0 -52 -32.5 -83.5t-82.5 -31.5q-39 0 -65.5 27t-26.5 77q0 48 31 80.5t83 32.5zM795 1325
q43 0 68.5 -29.5t25.5 -72.5q0 -53 -31.5 -84t-81.5 -31q-39 0 -66.5 26.5t-27.5 77.5q0 47 31 80t82 33z" />
    <glyph glyph-name="yacute" unicode="&#xfd;" horiz-adv-x="872" 
d="M59 -444q-56 0 -104.5 30.5t-56.5 65.5q70 59 179 168t150 168q-35 78 -51 155q-28 132 -61.5 371.5t-42.5 368.5q34 15 98.5 29t101.5 14q28 0 31 -37q23 -326 59 -567q10 -67 31 -119q109 162 178.5 362.5t77.5 335.5q24 8 74.5 16.5t87.5 8.5q20 0 20 -62
q0 -53 -14.5 -126.5t-47 -172.5t-96 -226t-149.5 -257q-117 -176 -258 -331t-207 -195zM573 1405q40 0 79 -17t63 -40q11 -9 10.5 -16.5t-12.5 -24.5q-29 -32 -63 -74.5t-54.5 -70.5t-54.5 -74.5t-41 -55.5q-39 6 -72 31q-21 14 -6 55q73 207 115 261q20 25 36 26z" />
    <glyph glyph-name="thorn" unicode="&#xfe;" horiz-adv-x="1046" 
d="M367 664h4q184 262 395 262q100 0 159.5 -82t59.5 -211q0 -184 -63.5 -333.5t-182 -237t-270.5 -87.5q-67 0 -122.5 21.5t-72.5 44.5q-6 -43 -27.5 -173.5t-27.5 -180.5q-15 -85 -53 -97q-85 -25 -182 -28q44 250 112.5 717t108.5 786q33 256 33 299q133 29 198 29
q32 0 23 -64q-1 -6 -38.5 -282t-53.5 -383zM670 741q-41 0 -90 -30t-100 -86.5t-96 -153t-71 -215.5q-7 -31 -12 -63q59 -62 141 -62q94 0 167 69t110 176t37 230q0 64 -24 99.5t-62 35.5z" />
    <glyph glyph-name="ydieresis" unicode="&#xff;" horiz-adv-x="872" 
d="M59 -444q-56 0 -104.5 30.5t-56.5 65.5q70 59 179 168t150 168q-35 78 -51 155q-28 132 -61.5 371.5t-42.5 368.5q34 15 98.5 29t101.5 14q28 0 31 -37q23 -326 59 -567q10 -67 31 -119q109 162 178.5 362.5t77.5 335.5q24 8 74.5 16.5t87.5 8.5q20 0 20 -62
q0 -53 -14.5 -126.5t-47 -172.5t-96 -226t-149.5 -257q-117 -176 -258 -331t-207 -195zM338 1325q42 0 67 -30t25 -72q0 -52 -31.5 -83.5t-81.5 -31.5q-39 0 -65.5 27t-26.5 77q0 48 30.5 80.5t82.5 32.5zM686 1325q43 0 68.5 -29.5t25.5 -72.5q0 -53 -30 -84t-80 -31
q-40 0 -68.5 26.5t-28.5 77.5q0 47 31 80t82 33z" />
    <glyph glyph-name="OE" unicode="&#x152;" horiz-adv-x="1734" 
d="M1255 731h400q-13 -49 -28 -78.5t-35.5 -44t-39.5 -18.5t-51 -4h-264l-45 -441q56 -12 252 -12q195 0 258 8l2 -4q-14 -78 -100 -137q-50 -12 -256 -12q-269 0 -371 20l-16 23l10 96q-149 -158 -385 -158q-110 0 -201.5 35.5t-160.5 103.5t-107.5 175.5t-38.5 244.5
q0 158 49 301t135.5 249.5t213.5 169.5t276 63q114 0 203.5 -43.5t134.5 -116.5l14 102q81 22 188 27h443q-1 -11 -3 -21.5t-4 -18.5t-6 -17t-6.5 -14.5t-7.5 -13.5t-7 -11.5t-8.5 -10.5t-8 -9t-8 -9t-7.5 -8q-33 -12 -174 -12h-192zM631 113q71 0 133 24t103 62.5
t67.5 75.5t40.5 73q27 74 35 148l39 315q12 104 -7 160q-8 28 -26.5 58t-50 63t-84 54t-115.5 21q-192 0 -317 -174t-125 -458q0 -190 79 -306t228 -116z" />
    <glyph glyph-name="oe" unicode="&#x153;" horiz-adv-x="1423" 
d="M1139 926q114 0 170.5 -59t56.5 -140q0 -66 -26 -121t-71 -91.5t-97 -63.5t-114 -42.5t-111 -24t-97 -11.5v-43q3 -187 154 -187q77 0 151.5 40t130.5 98q13 -8 22 -28t9 -44q0 -53 -27 -88q-126 -146 -348 -146q-93 0 -157.5 38t-92.5 106q-131 -144 -319 -144
q-161 0 -247.5 89.5t-86.5 265.5q0 118 36 226t101 190t162.5 131t212.5 49q190 0 260 -156q61 69 146.5 112.5t181.5 43.5zM1094 795q-71 0 -139 -77t-93 -204q138 11 225 64t87 135q0 34 -19 58t-61 24zM522 788q-69 0 -126.5 -69t-88.5 -178t-31 -230q0 -88 32.5 -142
t97.5 -54q104 0 175.5 140t71.5 341q0 46 -10.5 86.5t-41.5 73t-79 32.5z" />
    <glyph glyph-name="Ydieresis" unicode="&#x178;" horiz-adv-x="1118" 
d="M127 1255v5q126 26 205 26q22 0 36 -13t31 -50q30 -73 100 -222.5t109 -242.5q63 84 214.5 297t164.5 231q99 -3 158 -24q41 -14 -4 -68q-56 -70 -436 -573q-26 -39 -31 -74l-37 -293q-23 -199 -25 -254q-59 -12 -196 -12q-24 0 -32 6t-5 31l63 493q7 71 -2 94
q-19 60 -65 156q-139 286 -248 487zM496 1597q45 0 73.5 -32.5t28.5 -77.5q-1 -58 -35.5 -91.5t-87.5 -33.5q-46 0 -76.5 29.5t-29.5 83.5q2 53 36 87.5t91 34.5zM872 1597q46 0 73.5 -31.5t25.5 -78.5q0 -57 -34.5 -91t-88.5 -34q-42 0 -73 30t-30 83q2 52 36.5 87t90.5 35
z" />
    <glyph glyph-name="tilde" unicode="&#x2dc;" horiz-adv-x="819" 
d="M397 1366q67 0 123 -70q40 -47 55 -47q32 0 43 97q6 20 21 20q14 0 46 -9t48 -20q-9 -247 -143 -247q-36 0 -64.5 20t-64.5 59q-42 45 -62 45q-31 -3 -47 -94q-3 -20 -16 -20q-17 0 -53.5 6t-46.5 10q7 250 161 250z" />
    <glyph glyph-name="endash" unicode="&#x2013;" horiz-adv-x="1095" 
d="M154 578h841q-3 -41 -16 -93q-11 -49 -21.5 -63t-29.5 -14h-852q3 44 16 106q16 64 62 64z" />
    <glyph glyph-name="emdash" unicode="&#x2014;" horiz-adv-x="1861" 
d="M154 578h1609q-2 -28 -14 -91q-11 -50 -22.5 -64.5t-30.5 -14.5h-1620q3 57 16 104q17 66 62 66z" />
    <glyph glyph-name="quoteleft" unicode="&#x2018;" horiz-adv-x="428" 
d="M461 1364l4 -4q-67 -95 -106 -212t-23 -220q-92 -47 -152 -47q-31 0 -48 29.5t-17 68.5q0 88 51 182.5t115 153.5q58 53 176 49z" />
    <glyph glyph-name="quoteright" unicode="&#x2019;" horiz-adv-x="428" 
d="M100 870l-2 7q70 94 108.5 208.5t22.5 221.5q87 47 154 47q61 0 61 -97q0 -88 -50 -182.5t-113 -154.5q-55 -50 -181 -50z" />
    <glyph glyph-name="quotedblleft" unicode="&#x201c;" horiz-adv-x="751" 
d="M788 1364l7 -4q-71 -95 -110 -210t-21 -222q-96 -47 -154 -47q-31 0 -48.5 30t-17.5 68q0 86 51 181t115 155q29 26 80 38.5t98 10.5zM465 1364l4 -4q-71 -95 -110 -210t-23 -222q-92 -47 -152 -47q-31 0 -48 30t-17 68q0 88 51 182.5t115 153.5q57 49 180 49z" />
    <glyph glyph-name="quotedblright" unicode="&#x201d;" horiz-adv-x="755" 
d="M98 872l-2 7q72 96 111 210t22 222q88 45 154 45q31 0 46 -27t15 -65q0 -98 -48.5 -189t-114.5 -153q-55 -50 -183 -50zM426 872l-2 7q70 94 108.5 209t22.5 223q88 45 154 45q31 0 47 -27t16 -65q0 -90 -51 -186.5t-115 -155.5q-55 -50 -180 -50z" />
    <glyph glyph-name="quotedblbase" unicode="&#x201e;" horiz-adv-x="731" 
d="M-86 -205l-2 6q75 98 116.5 215t24.5 228q84 47 158 47q33 0 51.5 -31.5t18.5 -73.5q0 -93 -56 -189t-125 -155q-59 -51 -186 -47zM250 -205l-2 6q76 96 117.5 214t25.5 229q84 47 158 47q33 0 51 -31.5t18 -73.5q0 -93 -55.5 -190t-124.5 -154q-31 -26 -85 -37.5
t-103 -9.5z" />
    <glyph glyph-name="bullet" unicode="&#x2022;" horiz-adv-x="610" 
d="M311 686q86 0 136.5 -60t50.5 -147q0 -104 -61.5 -168.5t-160.5 -64.5q-81 0 -135.5 54t-54.5 146q0 106 60 173t165 67z" />
    <glyph glyph-name="ellipsis" unicode="&#x2026;" horiz-adv-x="1470" 
d="M180 254q54 0 84.5 -37t30.5 -92q0 -65 -38 -106.5t-99 -41.5q-55 0 -88 31.5t-33 87.5q0 72 37.5 115t105.5 43zM670 254q55 0 85.5 -37t30.5 -92q0 -66 -38.5 -107t-100.5 -41q-55 0 -88 31.5t-33 87.5q0 71 38.5 114.5t105.5 43.5zM1161 254q54 0 84.5 -36t30.5 -91
q0 -67 -38.5 -108.5t-100.5 -41.5q-54 0 -86.5 31.5t-32.5 87.5q0 71 38 114.5t105 43.5z" />
    <glyph glyph-name="guilsinglleft" unicode="&#x2039;" horiz-adv-x="849" 
d="M324 453q50 -68 112.5 -183.5t65.5 -165.5q1 -30 -34 -54t-71 -32q-104 206 -297 402q-16 24 -16 55q105 73 197 172t200 240q26 -9 56 -35t30 -49q2 -31 -53 -111.5t-104.5 -140t-85.5 -98.5z" />
    <glyph glyph-name="guilsinglright" unicode="&#x203a;" horiz-adv-x="849" 
d="M504 453q-50 69 -112.5 184t-65.5 166q-1 29 33.5 53t70.5 31q101 -205 295 -402q19 -28 16 -53q-105 -73 -197 -172.5t-198 -241.5q-26 9 -56.5 35t-31.5 49q-2 31 53 111t107.5 143t85.5 97z" />
    <glyph glyph-name="Euro" unicode="&#x20ac;" horiz-adv-x="946" 
d="M858 164l4 -4q-3 -26 -21 -68t-38 -65q-29 -22 -87.5 -37t-127.5 -15q-394 0 -430 457h-138q17 65 41 90t64 25h33q8 71 14 108h-86q17 66 37.5 90.5t56.5 24.5h21q56 206 193 334.5t339 128.5q78 0 140.5 -24.5t84.5 -57.5q-4 -44 -29 -78t-63 -14q-68 28 -118 28
q-235 0 -330 -317h403q-18 -74 -43 -94.5t-82 -20.5h-305q-9 -48 -12 -108h360q-18 -74 -44.5 -94.5t-84.5 -20.5h-227q12 -151 82 -230t190 -79q110 0 203 41z" />
    <glyph glyph-name="trademark" unicode="&#x2122;" horiz-adv-x="675" 
d="M182 1032v191h-82q-6 0 -7.5 2.5t-0.5 9.5q7 39 19 47q6 -2 63 -2h182q0 -13 -9 -33.5t-19 -23.5h-66v-146v-51l-67 -4q-13 0 -13 10zM692 1270l23 -152q3 -19 6 -36t6 -33t4 -23q-48 -6 -69 -6q-4 0 -8.5 4.5t-4.5 9.5q-1 10 -4 34t-4 34l-12 110q-6 -17 -28.5 -83.5
t-33.5 -98.5q-23 -4 -55 -4q-42 132 -59 174q-11 -81 -27 -170q-2 -10 -8 -10q-46 2 -60 6q5 28 22.5 116.5t22.5 114.5l-6 17q16 8 92 8q11 0 21 -33l39 -106q9 22 26 67.5t23 61.5v4q15 6 88 6q6 0 6 -12z" />
    <glyph glyph-name="A.swash" unicode="&#xe001;" horiz-adv-x="1271" 
d="M870 379q-177 -4 -333 4q-101 -181 -141 -238q-92 -132 -203 -166q-49 -16 -107 -16q-59 0 -92 24t-33 68q0 21 11.5 53t25.5 46h4q37 -21 70 -21q58 0 105 42t122 165q175 279 489 860l9 49q18 16 93 37t154 21q10 0 13.5 -6t3.5 -21q3 -84 39 -1012q11 -228 16 -260
q-96 -33 -201 -33q-21 0 -28.5 10t-9.5 38q-7 201 -7 356zM870 532q0 60 -1.5 178t-1 195t4.5 137q-54 -112 -260 -505q210 -5 258 -5z" />
    <glyph glyph-name="AE.sc" unicode="&#xe002;" horiz-adv-x="1343" 
d="M897 496h338q-9 -47 -22 -76.5t-31.5 -42t-33.5 -16t-38 -3.5h-231l-29 -211q40 -8 119 -8q197 0 291 2l2 -4q-7 -46 -31.5 -83t-54.5 -56q-39 -8 -209 -8q-262 0 -336 16l-23 29l56 323q-240 0 -279 -12q-51 -82 -99.5 -162t-70 -115.5t-33.5 -50.5q-14 -28 -63 -28
q-69 0 -168 12v8q75 134 282 454t302 447q7 9 15 24t11 19l59.5 7t75.5 7.5t64 2.5h549q-4 -55 -25 -91t-41 -49q-27 -8 -141 -8h-156zM748 831h-66q-86 -116 -213 -342q36 7 221 7z" />
    <glyph glyph-name="AE.swash" unicode="&#xe003;" horiz-adv-x="1697" 
d="M842 25l73 493q-174 -4 -284 -20q-48 -139 -90.5 -228.5t-99 -162t-128.5 -105.5t-166 -33q-80 0 -130 29t-50 68q-1 24 14 55t33 43h9q50 -35 118 -35q100 0 180 130.5t191 449.5q27 77 43 120t46 113.5t55.5 111t65.5 91t81.5 77.5t98 46.5t120.5 19.5q48 0 170 -8h473
q-3 -35 -15.5 -64t-23 -41.5t-29.5 -31.5q-39 -15 -174 -15h-206l-60 -460q60 -2 134.5 -2t160.5 1t123 1q-19 -91 -53 -120.5t-92 -29.5l-295 -2l-52 -369q121 -18 273 -22q89 -1 152 20t94 50q20 -15 20 -60q0 -62 -39 -98q-37 -32 -97.5 -47t-174.5 -15q-265 0 -451 33z
M938 668l74 477q-197 -9 -330 -492q115 15 256 15z" />
    <glyph glyph-name="AEacute.sc" unicode="&#xe004;" horiz-adv-x="1343" 
d="M897 496h338q-9 -47 -22 -76.5t-31.5 -42t-33.5 -16t-38 -3.5h-231l-29 -211q40 -8 119 -8q197 0 291 2l2 -4q-7 -46 -31.5 -83t-54.5 -56q-39 -8 -209 -8q-262 0 -336 16l-23 29l56 323q-240 0 -279 -12q-51 -82 -99.5 -162t-70 -115.5t-33.5 -50.5q-14 -28 -63 -28
q-69 0 -168 12v8q75 134 282 454t302 447q7 9 15 24t11 19l59.5 7t75.5 7.5t64 2.5h549q-4 -55 -25 -91t-41 -49q-27 -8 -141 -8h-156zM748 831h-66q-86 -116 -213 -342q36 7 221 7zM985 1403q38 -6 73 -29t56 -51q9 -10 7 -18.5t-17 -20.5q-93 -75 -258 -235q-36 13 -66 43
q-20 20 4 57q22 40 42.5 74t52 81.5t59.5 74.5t47 24z" />
    <glyph glyph-name="AEacute.swash" unicode="&#xe005;" horiz-adv-x="1697" 
d="M842 25l73 493q-174 -4 -284 -20q-48 -139 -90.5 -228.5t-99 -162t-128.5 -105.5t-166 -33q-80 0 -130 29t-50 68q-1 24 14 55t33 43h9q50 -35 118 -35q100 0 180 130.5t191 449.5q27 77 43 120t46 113.5t55.5 111t65.5 91t81.5 77.5t98 46.5t120.5 19.5q48 0 170 -8h473
q-3 -35 -15.5 -64t-23 -41.5t-29.5 -31.5q-39 -15 -174 -15h-206l-60 -460q60 -2 134.5 -2t160.5 1t123 1q-19 -91 -53 -120.5t-92 -29.5l-295 -2l-52 -369q121 -18 273 -22q89 -1 152 20t94 50q20 -15 20 -60q0 -62 -39 -98q-37 -32 -97.5 -47t-174.5 -15q-265 0 -451 33z
M938 668l74 477q-197 -9 -330 -492q115 15 256 15zM1380 1645q36 -8 62.5 -47t36.5 -76q8 -25 -27 -37q-57 -17 -124 -41t-137 -50t-93 -34q-21 21 -35 49q-12 23 -10 35t18 26q72 60 168 117.5t141 57.5z" />
    <glyph glyph-name="Aacute.sc" unicode="&#xe006;" horiz-adv-x="1034" 
d="M647 248h-336q-65 -114 -127 -228q-11 -18 -24 -23t-37 -5q-81 0 -162 18v6q46 84 254.5 454t253.5 454l-4 32q159 29 192 29q22 0 31.5 -8.5t16.5 -36.5q16 -60 72 -286t77 -302q24 -92 50.5 -198.5t35.5 -139.5l-2 -6q-63 -16 -188 -16q-20 0 -29 7.5t-16 37.5
q-30 122 -58 211zM369 393h254q-56 223 -80 344q-84 -179 -174 -344zM700 1436q38 -6 73 -29t56 -51q9 -11 7 -18t-17 -21q-33 -27 -74 -63t-67.5 -61t-67 -63.5t-51.5 -48.5q-31 11 -63 43q-20 20 2 58q21 39 42.5 74t53 82t59.5 74t47 24z" />
    <glyph glyph-name="fraction" horiz-adv-x="180" 
d="M518 1157q-94 -156 -371 -595t-419 -668q-28 -48 -54 -25q-20 16 -63 70q50 80 233.5 372t323.5 517.5t244 400.5q14 27 43 8q55 -30 63 -80z" />
    <glyph glyph-name="zero.slash" horiz-adv-x="946" 
d="M287 283l348 768q-33 41 -84 41q-61 0 -110.5 -47.5t-79.5 -123t-50.5 -167t-27.5 -182.5t-6 -167t10 -122zM680 879l-334 -736q32 -26 74 -26q55 0 100.5 39.5t74.5 104t51 146t29.5 166.5t10.5 165t-6 141zM555 1233q80 0 142 -29.5t99.5 -76t62 -112t33.5 -130.5
t9 -137q0 -86 -10.5 -171.5t-33 -174t-61.5 -164t-91 -135.5t-127.5 -94t-165.5 -34q-98 0 -169 42t-109 113.5t-55.5 152.5t-17.5 174q0 83 12 169.5t36 174.5t65 165t93.5 137t127 95t160.5 35z" />
    <glyph glyph-name="i.dot" horiz-adv-x="468" 
d="M319 1350q106 0 113 -115q3 -68 -37.5 -108t-87.5 -40q-43 0 -75 25.5t-35 89.5q-3 52 20 87.5t50 48t52 12.5zM365 926q19 0 22.5 -15t-2.5 -65q-22 -162 -59.5 -434.5t-44.5 -325.5q-8 -52 -31 -68q-14 -11 -78.5 -22t-130.5 -12q8 57 38 246.5t44 291.5q42 315 39 361
q20 9 102 26t101 17z" />
    <glyph glyph-name="twodotenleader" horiz-adv-x="1054" 
d="M205 254q55 0 83.5 -35.5t28.5 -91.5q0 -66 -38 -108t-99 -42q-55 0 -88 30.5t-33 86.5q0 71 39.5 115.5t106.5 44.5zM748 254q53 0 82.5 -37t29.5 -92q0 -66 -38 -107t-99 -41q-55 0 -88 32t-33 89q0 70 39.5 113t106.5 43z" />
    <glyph glyph-name="onedotenleader" horiz-adv-x="1024" 
d="M473 254q53 0 83 -36t30 -91q0 -66 -39 -108t-101 -42q-54 0 -86 32t-32 89q0 70 39 113t106 43z" />
    <glyph glyph-name="s_t" horiz-adv-x="1320" 
d="M1237 246h4q12 -33 1 -88.5t-38 -79.5q-50 -49 -118 -76t-138 -27q-207 0 -164 285q12 76 39.5 245t36.5 228h-125q0 41 23 93.5t55 52.5h68q26 122 63 194q-62 4 -102 4q-199 0 -236 -196q20 -15 23 -19q-2 -45 -33.5 -84.5t-71.5 -25.5q-68 22 -106 22q-52 0 -86.5 -26
t-34.5 -72q0 -36 30 -65t142 -111q72 -52 102.5 -104.5t30.5 -121.5q0 -52 -24.5 -104.5t-68.5 -96t-114 -71t-153 -27.5q-74 0 -135.5 24t-83.5 60q-15 23 -15 60.5t12 63t29 18.5q110 -66 215 -66q58 0 91.5 26.5t33.5 67.5q0 31 -31.5 65.5t-126.5 102.5
q-75 54 -107 107.5t-32 118.5q0 124 96 213.5t250 89.5q31 0 45 -4q12 146 114 222.5t269 76.5q36 0 148 -3.5t168 -3.5q-49 -121 -88 -335q37 1 100.5 1t93 1t47.5 4q-17 -101 -69 -135q-11 -6 -27 -10t-49 -5.5t-49.5 -1.5h-69.5q-15 -86 -42 -270.5t-30 -202.5
q-16 -115 48 -115q83 0 190 101z" />
    <glyph glyph-name="a.sc" horiz-adv-x="1034" 
d="M647 248h-336q-65 -114 -127 -228q-11 -18 -24 -23t-37 -5q-81 0 -162 18v6q46 84 254.5 454t253.5 454l-4 32q159 29 192 29q22 0 31.5 -8.5t16.5 -36.5q16 -60 72 -286t77 -302q24 -92 50.5 -198.5t35.5 -139.5l-2 -6q-63 -16 -188 -16q-20 0 -29 7.5t-16 37.5
q-30 122 -58 211zM369 393h254q-56 223 -80 344q-84 -179 -174 -344z" />
    <glyph glyph-name="b.sc" horiz-adv-x="933" 
d="M88 821q-1 20 16.5 63.5t32.5 57.5q64 20 161.5 31.5t168.5 11.5q179 0 268.5 -69t89.5 -183q0 -82 -50 -138.5t-132 -82.5q94 -25 144.5 -81.5t50.5 -137.5q0 -107 -64.5 -177.5t-168 -100t-243.5 -29.5q-144 0 -305 34q80 519 103 658q7 51 13 98t7 53q-9 0 -44.5 -3.5
t-47.5 -4.5zM602 287q0 74 -54 107.5t-136 33.5q-55 0 -80 -2q-29 -210 -45 -289q41 -14 110 -14q83 0 144 42.5t61 121.5zM612 717q0 57 -44 92t-117 35q-42 0 -60 -4q-6 -38 -39 -285q61 0 90 2q80 6 125 47t45 113z" />
    <glyph glyph-name="c.sc" horiz-adv-x="911" 
d="M829 178l2 -6q2 -33 -15.5 -83.5t-35.5 -63.5q-34 -23 -105.5 -36.5t-158.5 -13.5q-214 0 -339.5 119.5t-125.5 333.5q0 83 20 162t66.5 153.5t114.5 130.5t170.5 89.5t228.5 33.5q61 0 136 -17.5t110 -49.5q0 -18 -4.5 -38.5t-14.5 -42.5t-30.5 -32.5t-48.5 -1.5
q-83 25 -148 25q-154 0 -261 -105.5t-107 -292.5q0 -139 83 -224t220 -85q66 0 136.5 14.5t106.5 30.5z" />
    <glyph glyph-name="d.sc" horiz-adv-x="1071" 
d="M82 807l-4 2q0 36 16 75.5t37 57.5q37 17 141 30t191 13q254 0 390 -123t136 -350q0 -134 -45.5 -236t-127 -164t-187 -93t-232.5 -31q-177 0 -338 37q18 125 50.5 338.5t42.5 287.5q8 53 14 102.5t8 63.5q-14 0 -92 -10zM756 506q0 157 -77 241t-222 84q-48 0 -64 -2
q-71 -535 -92 -690q36 -10 119 -10q62 0 119.5 21t107 64t79.5 118.5t30 173.5z" />
    <glyph glyph-name="e.sc" horiz-adv-x="819" 
d="M365 573h344q-10 -52 -23 -83.5t-32 -44.5t-33 -16t-39 -3h-242l-33 -274q41 -13 152 -13q132 0 276 4l2 -2q-19 -93 -88 -139q-39 -10 -217 -10q-262 0 -340 16l-22 31l96 715q20 147 24 194q116 21 199 23h391q-4 -42 -17 -73t-21 -40t-25 -24q-30 -11 -142 -11h-182z
" />
    <glyph glyph-name="f.sc" horiz-adv-x="802" 
d="M362 543h343q-7 -50 -18 -80.5t-28 -45t-33.5 -18.5t-43.5 -4h-240q-43 -340 -47 -391q-35 -12 -191 -12q-21 0 -29 7t-7 24l104 759q14 110 18 164q47 21 201 25h410q-14 -90 -58 -131q-25 -17 -131 -17h-213z" />
    <glyph glyph-name="g.sc" horiz-adv-x="1028" 
d="M668 997q97 0 178.5 -28.5t103.5 -57.5q-5 -52 -33 -86.5t-77 -17.5q-102 35 -176 35q-173 0 -276 -109t-103 -297q0 -81 24 -143.5t64 -99t86 -54.5t94 -18t90 10q45 241 45 322q129 12 189 12q23 0 29 -10.5t3 -34.5q-3 -27 -13 -88t-24.5 -149.5t-23.5 -145.5
q-159 -62 -338 -62q-209 0 -334 120.5t-125 332.5q0 48 6.5 97t25.5 106.5t47.5 108t77.5 98.5t111 82.5t152 55.5t197 21z" />
    <glyph glyph-name="h.sc" horiz-adv-x="1130" 
d="M365 580h403l51 356q3 24 14 32t39 11q45 6 177 6q-12 -80 -41 -287q-64 -462 -90 -694q-32 -12 -189 -12q-22 0 -30 6t-5 25l56 413q-62 -4 -154 -4h-250l-53 -391q-3 -26 -18 -34t-60 -11q-88 -7 -158 -4q19 115 36.5 237t41 302t31.5 239q21 152 24 203q87 12 197 12
q20 0 24.5 -16.5t-1.5 -71.5z" />
    <glyph glyph-name="i.sc" horiz-adv-x="503" 
d="M66 23l100 747q3 25 11.5 96.5t12.5 106.5q23 3 97.5 7.5t99.5 4.5q20 0 23.5 -17.5t-4.5 -74.5l-93 -696q-6 -47 -10.5 -86t-7.5 -68.5t-4 -38.5q-18 -4 -94 -8t-105 -4t-26 31z" />
    <glyph glyph-name="j.sc" horiz-adv-x="503" 
d="M-135 -125l2 6q44 5 70.5 12t54.5 26t45 51t32 85.5t25 132.5q55 384 76 557q23 182 23 228q108 12 196 12q19 0 24 -12.5t1 -50.5q-70 -544 -95 -727q-34 -277 -149 -371q-88 -76 -203 -76q-42 0 -71 37t-31 90z" />
    <glyph glyph-name="k.sc" horiz-adv-x="983" 
d="M68 23l100 747q25 174 27 203q22 3 95 7.5t99 4.5q21 0 25.5 -17t-2.5 -71l-60 -401q49 49 101.5 104t108 115.5t89 97.5t89.5 99.5t65 72.5q89 0 143 -14q30 -9 37 -27t-12 -43q-39 -41 -178 -180.5t-220 -222.5q57 -93 167.5 -253.5t172.5 -240.5v-4q-54 -14 -184 -14
q-35 0 -62 18.5t-59 71.5q-6 8 -41.5 58t-57 81.5t-55 81.5t-61 94.5t-47.5 83.5l-33 -278q-6 -53 -22 -193q-32 -12 -191 -12q-22 0 -29.5 6t-4.5 25z" />
    <glyph glyph-name="l.sc" horiz-adv-x="763" 
d="M70 39l100 729q21 135 25 205q58 12 192 12q25 0 30 -17.5t-3 -74.5l-105 -746q40 -8 127 -8q96 0 252 4v-6q-7 -43 -32 -77.5t-50 -51.5q-18 -10 -60.5 -13t-158.5 -3q-177 0 -297 16z" />
    <glyph glyph-name="m.sc" horiz-adv-x="1353" 
d="M2 6q192 634 270 914v24q118 41 232 41q19 0 27 -15.5t16 -62.5q27 -148 62.5 -317.5t47.5 -233.5q78 149 175 342t114 226l4 28q20 11 104.5 22t123.5 11q12 0 15 -7.5t3 -33.5q3 -84 3.5 -203.5t-0.5 -357.5t-1 -379q-12 -4 -83 -8t-101 -4q-24 0 -31.5 9t-5.5 34
q7 121 13 243.5t12 264t10 227.5q-240 -522 -340 -745q-96 -22 -164 -19q-17 132 -117 760q-75 -349 -184 -743q-5 -18 -13 -24.5t-26 -6.5q-142 0 -166 14z" />
    <glyph glyph-name="n.sc" horiz-adv-x="1105" 
d="M754 328h4q8 65 37.5 294t38.5 312q1 7 2 12.5t4 10t4 7.5t5.5 5t6 3.5t7.5 2.5t8 1.5t10 1.5t10 1q53 6 133 6q-29 -216 -73.5 -520t-63.5 -453q-90 -20 -164 -20q-33 0 -47 22q-45 88 -172 359q-127 279 -166 385q-4 -82 -27 -254l-61 -463q-3 -20 -10.5 -28t-26.5 -15
q-36 -10 -158 -6q29 188 72.5 482.5t62.5 422.5q2 16 -16 74l2 6q98 8 234 8q29 0 47 -29q11 -17 46.5 -90.5t81.5 -171t70 -145.5q12 -24 48 -106.5t51 -114.5z" />
    <glyph glyph-name="o.sc" horiz-adv-x="1107" 
d="M592 997q214 0 327 -128t111 -345q0 -85 -18.5 -162.5t-59.5 -149t-102 -123.5t-152 -83t-202 -31q-214 0 -330 122t-113 341q1 105 36 203.5t100 178.5t169.5 128.5t233.5 48.5zM584 850q-126 0 -209.5 -124.5t-83.5 -303.5q0 -59 11 -110t34.5 -95t67 -70t102.5 -26
q91 0 158 64.5t98 161t31 206.5q1 53 -9 102t-32 94.5t-65.5 73t-102.5 27.5z" />
    <glyph glyph-name="p.sc" horiz-adv-x="890" 
d="M80 819l-4 8q3 27 21.5 66t33.5 53q134 39 305 39q63 0 117.5 -8.5t108 -31.5t91 -58.5t60.5 -94t23 -133.5q0 -143 -93 -236t-235 -93q-42 0 -59 12q-25 9 -43 46t-15 79q5 0 18 -1t19 -1q85 0 134.5 54.5t49.5 142.5q0 93 -47 135.5t-119 42.5q-26 0 -36 -2l-99 -674
q-6 -43 -12 -100t-6 -60q-35 -12 -197 -12q-22 0 -29 7t-4 24q4 30 91 598q32 204 34 215q-83 -12 -108 -17z" />
    <glyph glyph-name="q.sc" horiz-adv-x="1107" 
d="M596 997q207 0 320.5 -126t113.5 -341q0 -175 -75.5 -312.5t-223.5 -201.5q56 -23 131 -77q148 -110 242 -134q-12 -38 -61 -63t-107 -25q-66 0 -133 34t-172 114q-91 70 -123.5 87.5t-97.5 27.5q-171 28 -264 142t-93 310q0 85 21.5 166t66 153.5t107.5 127t153 86.5
t195 32zM575 850q-121 0 -202.5 -125.5t-81.5 -300.5q0 -63 11.5 -115.5t36 -95.5t67.5 -67.5t100 -24.5q93 0 160 64t97 159t30 205q0 54 -11 104.5t-35 96t-68.5 73t-103.5 27.5z" />
    <glyph glyph-name="q.scalt" horiz-adv-x="1107" 
d="M594 997q141 0 240.5 -61t147.5 -166t48 -244q0 -81 -17 -155.5t-52 -142.5t-94 -123.5t-138 -88.5q38 -16 213 -120q224 -138 385 -138q149 0 260 54h4q7 -39 -11 -85.5t-48 -68.5q-98 -70 -272 -70q-135 0 -271.5 63.5t-316.5 192.5q-110 80 -156 104.5t-121 35.5
q-160 24 -251 137.5t-91 302.5q0 88 21.5 170.5t66 156t107.5 128t152 86.5t194 32zM584 850q-124 0 -208.5 -125t-84.5 -301q0 -63 11.5 -115.5t36 -95.5t67.5 -67.5t100 -24.5q91 0 158 63t98 158t31 205q0 55 -10 104.5t-32 96t-65 74.5t-102 28z" />
    <glyph glyph-name="r.sc" horiz-adv-x="931" 
d="M330 379l-49 -338q-2 -17 -8.5 -26t-14 -12t-22.5 -5q-31 -6 -183 -6q13 88 59.5 389.5t67.5 449.5q-69 -7 -92 -12l-4 8q2 28 16.5 64.5t32.5 50.5q161 43 320 43q374 0 374 -283q0 -99 -60.5 -166.5t-156.5 -101.5q36 -44 131 -248q48 -101 109 -182l-2 -4
q-48 -16 -127 -16q-65 0 -100 18t-64 76q-21 41 -53.5 111t-50.5 104q-22 43 -44.5 64.5t-54.5 21.5h-24zM391 838l-43 -334q91 -4 150 22q108 47 108 162q0 70 -42 112t-115 42q-26 0 -58 -4z" />
    <glyph glyph-name="s.sc" horiz-adv-x="747" 
d="M401 995q75 0 149.5 -25.5t115.5 -70.5q-2 -47 -29.5 -86t-69.5 -18q-85 47 -161 47q-56 0 -90.5 -29.5t-34.5 -75.5q0 -35 30.5 -70t108.5 -87q79 -52 125.5 -93t78 -95.5t31.5 -115.5q0 -100 -50 -169.5t-129 -100.5t-179 -31q-87 0 -158.5 24.5t-111.5 59.5
q-35 31 -35 66q-3 52 49 108q144 -104 260 -104q61 0 95 26.5t34 71.5q0 38 -33.5 76.5t-120.5 99.5q-111 77 -158.5 142.5t-47.5 148.5q0 137 95.5 219t235.5 82z" />
    <glyph glyph-name="t.sc" horiz-adv-x="905" 
d="M266 20l113 803h-287q-44 0 -26 49q26 71 69 105q35 -6 250 -6h539q-4 -67 -26 -103t-50 -45h-248l-86 -628q-7 -58 -15 -117t-10 -74q-38 -14 -188 -14q-21 0 -29.5 6.5t-5.5 23.5z" />
    <glyph glyph-name="u.sc" horiz-adv-x="1099" 
d="M387 895l-59 -451q-10 -92 -2.5 -152t37 -95t65.5 -49.5t82 -14.5q105 0 170 86.5t92 290.5l55 424q3 24 11 32t28 11q94 13 164 8q-3 -26 -16.5 -121t-22.5 -168l-28 -227q-16 -126 -51.5 -218t-80 -144.5t-107 -83t-119 -39.5t-130.5 -9q-93 0 -165.5 26.5t-126 83.5
t-73.5 157t-1 237l38 289q21 134 21 205q13 3 92 7.5t105 4.5q14 0 20 -7t7 -27t-5 -56z" />
    <glyph glyph-name="v.sc" horiz-adv-x="1021" 
d="M276 985q17 0 28 -10.5t14.5 -21.5t7.5 -31q49 -206 145 -656q15 31 238 463q30 56 75 147t54 109q121 -4 161 -18q33 -12 7 -66q-62 -118 -170 -311q-54 -95 -151 -269t-146 -258q-24 -47 -50 -57q-35 -14 -165 -14q-46 224 -146 604q-15 56 -32.5 122.5t-26.5 101
t-19.5 70t-19.5 60.5q43 16 102.5 25.5t93.5 9.5z" />
    <glyph glyph-name="w.sc" horiz-adv-x="1427" 
d="M256 985q32 0 42.5 -21.5t20.5 -91.5q6 -43 38 -246t51 -337q166 424 245 614q0 40 2 58q104 22 166 22q33 0 41 -51q58 -330 107 -641q97 239 190 458.5t98 231.5q51 3 140 -6q27 -5 36 -14.5t1 -32.5q-14 -38 -115 -248q-37 -78 -140.5 -299.5t-150.5 -317.5
q-21 -47 -47 -57q-41 -14 -166 -14q-10 58 -45.5 298t-58.5 378q-26 -59 -123.5 -296t-126.5 -304q-22 -54 -53 -64q-81 -12 -154 -12q-8 37 -123 672q-13 68 -34 174t-23 118q23 10 83.5 19.5t98.5 9.5z" />
    <glyph glyph-name="x.sc" horiz-adv-x="937" 
d="M104 952v4q149 29 207 29q30 0 54 -47q28 -54 57.5 -115t47 -96t30.5 -55q26 33 103.5 133.5t111.5 144.5q25 35 59 35q31 0 83 -9t77 -20v-4q-1 -2 -133.5 -164t-214.5 -266q142 -289 258 -508v-2q-46 -20 -209 -20q-32 0 -45 28q-120 240 -158 314q-39 -50 -123 -165
t-114 -153q-18 -24 -52 -24q-31 0 -94 5t-84 9v4q174 226 387 486q-34 67 -82 155.5t-105 190.5t-61 110z" />
    <glyph glyph-name="y.sc" horiz-adv-x="907" 
d="M61 961v4q36 9 97.5 15.5t93.5 6.5q28 0 40.5 -16t26.5 -56q23 -59 71 -173.5t65 -155.5q199 273 282 401q83 0 160 -16q34 -15 0 -56q-23 -28 -173.5 -231t-168.5 -225q-29 -42 -31 -64q-7 -59 -22.5 -191.5t-24.5 -201.5q-59 -10 -196 -10q-21 0 -28.5 5t-4.5 23
l53 367q8 43 -6 76q-72 170 -234 498z" />
    <glyph glyph-name="z.sc" horiz-adv-x="890" 
d="M827 143q-12 -46 -46 -94t-56 -53q-23 -6 -246 -6q-351 0 -465 12q-11 6 -21.5 25t-10.5 30q152 187 330.5 432t230.5 334h-406q-45 0 -56 11t-1 38q13 30 35.5 63.5t36.5 45.5q31 -10 141 -10h547q-3 -67 -45 -150q-26 -52 -185.5 -284.5t-277.5 -386.5q43 -6 235.5 -8
t259.5 1z" />
    <glyph glyph-name="germandbls.sc" horiz-adv-x="1495" 
d="M401 995q75 0 149.5 -25.5t115.5 -70.5q-2 -47 -29.5 -86t-69.5 -18q-85 47 -161 47q-56 0 -90.5 -29.5t-34.5 -75.5q0 -35 30.5 -70t108.5 -87q79 -52 125.5 -93t78 -95.5t31.5 -115.5q0 -100 -50 -169.5t-129 -100.5t-179 -31q-87 0 -158.5 24.5t-111.5 59.5
q-35 31 -35 66q-3 52 49 108q144 -104 260 -104q61 0 95 26.5t34 71.5q0 38 -33.5 76.5t-120.5 99.5q-111 77 -158.5 142.5t-47.5 148.5q0 137 95.5 219t235.5 82zM1149 995q75 0 149 -25.5t115 -70.5q-2 -47 -29 -86t-69 -18q-85 47 -162 47q-56 0 -90.5 -29.5t-34.5 -75.5
q0 -35 30.5 -70t108.5 -87q120 -80 178 -148t58 -156q0 -100 -50.5 -169.5t-129.5 -100.5t-179 -31q-87 0 -158.5 24.5t-111.5 59.5q-35 31 -35 66q-3 52 49 108q144 -104 261 -104q61 0 95 26.5t34 71.5q0 38 -33.5 76.5t-120.5 99.5q-111 77 -159 142.5t-48 148.5
q0 137 96 219t236 82z" />
    <glyph glyph-name="ae.sc" horiz-adv-x="1343" 
d="M897 496h338q-9 -47 -22 -76.5t-31.5 -42t-33.5 -16t-38 -3.5h-231l-29 -211q40 -8 119 -8q197 0 291 2l2 -4q-7 -46 -31.5 -83t-54.5 -56q-39 -8 -209 -8q-262 0 -336 16l-23 29l56 323q-240 0 -279 -12q-51 -82 -99.5 -162t-70 -115.5t-33.5 -50.5q-14 -28 -63 -28
q-69 0 -168 12v8q75 134 282 454t302 447q7 9 15 24t11 19l59.5 7t75.5 7.5t64 2.5h549q-4 -55 -25 -91t-41 -49q-27 -8 -141 -8h-156zM748 831h-66q-86 -116 -213 -342q36 7 221 7z" />
    <glyph glyph-name="oe.sc" horiz-adv-x="1488" 
d="M1036 571h328q-9 -50 -22 -81t-31 -44t-32 -16.5t-38 -3.5h-223l-37 -276q42 -11 178 -11q178 0 252 4l2 -4q-15 -91 -88 -139q-39 -8 -217 -8q-229 0 -320 14l-20 25l8 61q-104 -117 -303 -117q-203 0 -310.5 121.5t-107.5 337.5q0 115 38 217.5t107 179t172 121.5
t226 45q183 0 272 -125l15 80q113 18 180 21h379q-4 -54 -16.5 -79.5t-34.5 -47.5q-24 -21 -138 -21h-188zM524 121q160 0 244 125q25 53 31 94l43 293q7 54 -8 92q-18 46 -73.5 86.5t-146.5 40.5q-139 0 -235 -119t-96 -303q0 -63 13 -117t40.5 -98t75.5 -69t112 -25z" />
    <glyph glyph-name="eth.sc" horiz-adv-x="1091" 
d="M111 811l-5 4q0 36 14.5 72.5t35.5 54.5q41 16 142 29.5t185 13.5q257 0 393 -123t136 -350q0 -134 -45.5 -236t-127.5 -164t-188 -93t-233 -31q-170 0 -334 37q35 225 59 405h-125q20 137 101 137h45q6 41 18.5 128t18.5 128q-24 0 -90 -12zM500 430h-135
q-2 -18 -16.5 -126t-20.5 -165q36 -10 112 -10q62 0 120 21t108 64t80 118.5t30 173.5q0 157 -76.5 241t-220.5 84q-31 0 -63 -4q-3 -23 -15.5 -114t-19.5 -146h223q-11 -83 -36 -110t-70 -27z" />
    <glyph glyph-name="oslash.sc" horiz-adv-x="1107" 
d="M1012 954l-82 -102q50 -53 75 -143t25 -181q0 -112 -32.5 -209.5t-97 -175.5t-171.5 -123t-244 -45q-65 0 -128 17t-105 47l-88 -98q-29 -33 -55 -7q-24 21 -50 68l95 113q-43 50 -72 131.5t-29 177.5q0 85 19 165.5t62 155t105.5 130t157 89t209.5 33.5q63 0 125 -19
t98 -46l66 76q33 40 57 16q23 -17 60 -70zM303 289l414 508q-50 57 -144 57q-125 0 -208.5 -123.5t-83.5 -320.5q0 -62 22 -121zM782 684l-417 -508q42 -55 137 -55q139 0 220 120.5t83 311.5q0 70 -23 131z" />
    <glyph glyph-name="thorn.sc" horiz-adv-x="872" 
d="M57 23l103 745q7 48 12.5 97.5t8.5 75t5 32.5q18 3 92.5 7.5t100.5 4.5q11 0 17 -5t7 -15.5t0.5 -17.5t-2.5 -21l-16 -144q40 4 72 4q338 0 338 -288q0 -129 -92.5 -219.5t-227.5 -90.5q-16 0 -61 9q-25 10 -44 39t-22 71q4 17 39 17q84 0 138.5 45.5t54.5 124.5
q0 78 -47.5 113.5t-118.5 35.5q-24 0 -52 -4l-57 -442q-22 -190 -22 -191q-55 -14 -193 -14q-20 0 -28 6.5t-5 24.5z" />
    <glyph glyph-name="ampersand.sc" horiz-adv-x="1177" 
d="M1020 10v-4q-24 -8 -89.5 -17t-121.5 -9q-41 0 -68 30q-13 15 -90 103q-69 -77 -142 -104t-163 -27q-125 0 -207 74.5t-82 185.5q0 29 3.5 53.5t14 47t18 38.5t27.5 35.5t29.5 29.5t37.5 28.5t38 25t44 26.5q4 2 6 3.5t5.5 3.5t6.5 4q-34 44 -55 99t-21 107
q0 132 78.5 209.5t222.5 77.5q106 0 181 -64t75 -165q0 -40 -11.5 -74t-28 -58t-48.5 -50.5t-58 -43t-73 -43.5q34 -35 93 -101.5t69 -76.5q115 212 170 291q32 47 71 47q46 0 89.5 -17t58.5 -32v-4q-100 -96 -291 -391q147 -156 211 -238zM399 786q0 -40 22 -85t58 -83
q58 39 87.5 81.5t29.5 105.5q0 47 -26.5 78.5t-65.5 31.5q-51 0 -78 -37.5t-27 -91.5zM426 143q78 0 139 58q-17 20 -64.5 74.5t-87 101.5t-57.5 72q-86 -60 -86 -150q0 -72 43.5 -114t112.5 -42z" />
    <glyph glyph-name="exclam.sc" horiz-adv-x="425" 
d="M358 1079q31 0 44.5 -10t9.5 -39q-7 -66 -58 -292t-71 -289q-8 -32 -50 -48q-98 -16 -120 -16q1 29 4 176.5t7 282.5t9 174q8 27 87.5 44t137.5 17zM170 254q54 0 83.5 -38t29.5 -93q0 -65 -38.5 -105.5t-101.5 -40.5q-53 0 -85.5 31.5t-32.5 87.5q0 71 39 114.5
t106 43.5z" />
    <glyph glyph-name="exclamdown.sc" horiz-adv-x="395" 
d="M229 786q-54 0 -83 35t-29 90q0 65 40 108.5t101 43.5q54 0 85.5 -33t31.5 -90q0 -70 -38.5 -112t-107.5 -42zM41 -39q-31 0 -44 10t-9 39q9 68 58.5 295.5t68.5 288.5q11 32 51 45q94 16 121 16q-1 -29 -4 -177t-7.5 -282t-9.5 -173q-8 -27 -87 -44.5t-138 -17.5z" />
    <glyph glyph-name="question.sc" horiz-adv-x="595" 
d="M348 1075q105 0 167.5 -53t62.5 -137q0 -73 -38 -119t-130 -102q-57 -34 -78 -56t-21 -43q0 -19 14 -32t35.5 -18.5t42.5 -7.5t39 -3h5h4q4 -74 -31 -105.5t-111 -31.5q-93 0 -155 53.5t-62 136.5q0 128 162 217q53 30 76.5 52.5t23.5 45.5q0 21 -17 32t-44 11
q-28 0 -63 -9.5t-56 -22.5q-33 -18 -54.5 34t-10.5 82q37 34 104 55t135 21zM248 256q53 0 81.5 -36.5t28.5 -92.5q0 -67 -38.5 -108.5t-100.5 -41.5q-55 0 -87 32.5t-32 88.5q0 71 40 114.5t108 43.5z" />
    <glyph glyph-name="questiondown.sc" horiz-adv-x="581" 
d="M334 782q-54 0 -84.5 36t-30.5 91q0 66 39.5 108t101.5 42q55 0 86 -33t31 -90q0 -71 -37 -112.5t-106 -41.5zM231 -41q-105 0 -167 52.5t-62 138.5q-1 73 38 121t130 102q98 61 98 104q0 9 -3.5 16t-10.5 12t-14 9t-18.5 7t-20 4.5t-21.5 3t-19 2t-18 1t-14 0.5
q-4 74 30 105t111 31q93 0 154.5 -53t62.5 -136q0 -131 -161 -219q-54 -29 -76.5 -50.5t-22.5 -43.5q0 -49 64 -49q61 0 115 28q34 17 52.5 -31.5t8.5 -80.5q-37 -34 -100.5 -54t-135.5 -20z" />
    <glyph glyph-name="aacute.sc" horiz-adv-x="1034" 
d="M647 248h-336q-65 -114 -127 -228q-11 -18 -24 -23t-37 -5q-81 0 -162 18v6q46 84 254.5 454t253.5 454l-4 32q159 29 192 29q22 0 31.5 -8.5t16.5 -36.5q16 -60 72 -286t77 -302q24 -92 50.5 -198.5t35.5 -139.5l-2 -6q-63 -16 -188 -16q-20 0 -29 7.5t-16 37.5
q-30 122 -58 211zM369 393h254q-56 223 -80 344q-84 -179 -174 -344zM700 1436q38 -6 73 -29t56 -51q9 -11 7 -18t-17 -21q-33 -27 -74 -63t-67.5 -61t-67 -63.5t-51.5 -48.5q-31 11 -63 43q-20 20 2 58q21 39 42.5 74t53 82t59.5 74t47 24z" />
    <glyph glyph-name="acircumflex.sc" horiz-adv-x="1034" 
d="M647 248h-336q-65 -114 -127 -228q-11 -18 -24 -23t-37 -5q-81 0 -162 18v6q46 84 254.5 454t253.5 454l-4 32q159 29 192 29q22 0 31.5 -8.5t16.5 -36.5q16 -60 72 -286t77 -302q24 -92 50.5 -198.5t35.5 -139.5l-2 -6q-63 -16 -188 -16q-20 0 -29 7.5t-16 37.5
q-30 122 -58 211zM369 393h254q-56 223 -80 344q-84 -179 -174 -344zM440 1081q-48 0 -108 27q11 14 52.5 69.5t56.5 76.5t42.5 61.5t48.5 75.5q14 22 43 32q70 9 82 9q48 -92 177 -316q-72 -35 -107 -35q-29 0 -37 19q-63 99 -94 157q-65 -99 -107 -147q-23 -29 -49 -29z
" />
    <glyph glyph-name="adieresis.sc" horiz-adv-x="1034" 
d="M647 248h-336q-65 -114 -127 -228q-11 -18 -24 -23t-37 -5q-81 0 -162 18v6q46 84 254.5 454t253.5 454l-4 32q159 29 192 29q22 0 31.5 -8.5t16.5 -36.5q16 -60 72 -286t77 -302q24 -92 50.5 -198.5t35.5 -139.5l-2 -6q-63 -16 -188 -16q-20 0 -29 7.5t-16 37.5
q-30 122 -58 211zM369 393h254q-56 223 -80 344q-84 -179 -174 -344zM434 1343q41 0 65.5 -31t24.5 -73q0 -53 -31.5 -83t-82.5 -30q-40 0 -66.5 26t-26.5 77q0 47 32.5 80.5t84.5 33.5zM780 1343q43 0 68.5 -30.5t25.5 -73.5q0 -52 -32 -82.5t-82 -30.5q-38 0 -65 27.5
t-27 75.5t30.5 81t81.5 33z" />
    <glyph glyph-name="agrave.sc" horiz-adv-x="1034" 
d="M647 248h-336q-65 -114 -127 -228q-11 -18 -24 -23t-37 -5q-81 0 -162 18v6q46 84 254.5 454t253.5 454l-4 32q159 29 192 29q22 0 31.5 -8.5t16.5 -36.5q16 -60 72 -286t77 -302q24 -92 50.5 -198.5t35.5 -139.5l-2 -6q-63 -16 -188 -16q-20 0 -29 7.5t-16 37.5
q-30 122 -58 211zM369 393h254q-56 223 -80 344q-84 -179 -174 -344zM506 1458q28 0 89.5 -98.5t98.5 -183.5q14 -33 -8 -52q-29 -23 -65 -32q-112 129 -252 256q-8 6 -8 18t10 23q25 26 61 46t74 23z" />
    <glyph glyph-name="aring.sc" horiz-adv-x="1034" 
d="M647 248h-336q-65 -114 -127 -228q-11 -18 -24 -23t-37 -5q-81 0 -162 18v6q46 84 254.5 454t253.5 454l-4 32q159 29 192 29q22 0 31.5 -8.5t16.5 -36.5q16 -60 72 -286t77 -302q24 -92 50.5 -198.5t35.5 -139.5l-2 -6q-63 -16 -188 -16q-20 0 -29 7.5t-16 37.5
q-30 122 -58 211zM369 393h254q-56 223 -80 344q-84 -179 -174 -344zM618 1397q76 0 122 -48.5t46 -125.5q0 -86 -57 -136.5t-147 -50.5q-72 0 -119 44t-47 126q0 78 57 134.5t145 56.5zM608 1305q-33 0 -55.5 -28.5t-22.5 -64.5q0 -38 17 -57.5t47 -19.5q36 0 58 26t22 60
q0 84 -66 84z" />
    <glyph glyph-name="atilde.sc" horiz-adv-x="1034" 
d="M647 248h-336q-65 -114 -127 -228q-11 -18 -24 -23t-37 -5q-81 0 -162 18v6q46 84 254.5 454t253.5 454l-4 32q159 29 192 29q22 0 31.5 -8.5t16.5 -36.5q16 -60 72 -286t77 -302q24 -92 50.5 -198.5t35.5 -139.5l-2 -6q-63 -16 -188 -16q-20 0 -29 7.5t-16 37.5
q-30 122 -58 211zM369 393h254q-56 223 -80 344q-84 -179 -174 -344zM506 1399q63 0 123 -70q33 -45 55 -45q30 0 41 94q6 21 20 21q15 0 48 -9t49 -20q-11 -246 -146 -246q-36 0 -65 19.5t-64 58.5q-24 26 -36 35.5t-25 9.5q-31 0 -47 -94q-3 -20 -17 -20q-17 0 -52.5 5.5
t-47.5 10.5q7 250 164 250z" />
    <glyph glyph-name="ccedilla.sc" horiz-adv-x="911" 
d="M309 -170l127 150q-180 22 -282.5 139t-102.5 309q0 83 20 162t66.5 153.5t114.5 130.5t170.5 89.5t228.5 33.5q61 0 136 -17.5t110 -49.5q0 -18 -4.5 -38.5t-14.5 -42.5t-30.5 -32.5t-48.5 -1.5q-83 25 -148 25q-154 0 -261 -105.5t-107 -292.5q0 -139 83 -224t220 -85
q66 0 136.5 14.5t106.5 30.5l2 -6q2 -33 -15.5 -83.5t-35.5 -63.5q-62 -42 -205 -48l-65 -79q55 -19 89 -60.5t34 -91.5q0 -58 -29 -103.5t-75.5 -72t-96 -40.5t-100.5 -17q-19 7 -34 32t-19 45q5 23 22 29q88 18 120 39t32 57q0 34 -42 53.5t-104 14.5z" />
    <glyph glyph-name="eacute.sc" horiz-adv-x="819" 
d="M365 573h344q-10 -52 -23 -83.5t-32 -44.5t-33 -16t-39 -3h-242l-33 -274q41 -13 152 -13q132 0 276 4l2 -2q-19 -93 -88 -139q-39 -10 -217 -10q-262 0 -340 16l-22 31l96 715q20 147 24 194q116 21 199 23h391q-4 -42 -17 -73t-21 -40t-25 -24q-30 -11 -142 -11h-182z
M596 1440q72 -13 131 -80q8 -10 6 -19t-18 -22q-97 -78 -258 -234q-29 10 -66 43q-20 17 4 56q29 54 59.5 104.5t74 102.5t67.5 49z" />
    <glyph glyph-name="ecircumflex.sc" horiz-adv-x="819" 
d="M365 573h344q-10 -52 -23 -83.5t-32 -44.5t-33 -16t-39 -3h-242l-33 -274q41 -13 152 -13q132 0 276 4l2 -2q-19 -93 -88 -139q-39 -10 -217 -10q-262 0 -340 16l-22 31l96 715q20 147 24 194q116 21 199 23h391q-4 -42 -17 -73t-21 -40t-25 -24q-30 -11 -142 -11h-182z
M340 1077q-49 0 -109 27q11 15 52.5 70t57.5 77t43.5 62.5t49.5 75.5q12 23 41 30q41 8 82 8q41 -78 176 -313q-77 -37 -106 -37t-37 19q-73 119 -94 159q-55 -86 -107 -149q-25 -29 -49 -29z" />
    <glyph glyph-name="edieresis.sc" horiz-adv-x="819" 
d="M365 573h344q-10 -52 -23 -83.5t-32 -44.5t-33 -16t-39 -3h-242l-33 -274q41 -13 152 -13q132 0 276 4l2 -2q-19 -93 -88 -139q-39 -10 -217 -10q-262 0 -340 16l-22 31l96 715q20 147 24 194q116 21 199 23h391q-4 -42 -17 -73t-21 -40t-25 -24q-30 -11 -142 -11h-182z
M328 1352q42 0 67 -31.5t25 -73.5q0 -53 -32 -82.5t-83 -29.5q-40 0 -66 25.5t-26 76.5q0 47 32 81t83 34zM676 1352q43 0 68.5 -31t25.5 -74q0 -51 -32 -81.5t-83 -30.5q-38 0 -65 26.5t-27 75.5q0 48 31 81.5t82 33.5z" />
    <glyph glyph-name="egrave.sc" horiz-adv-x="819" 
d="M365 573h344q-10 -52 -23 -83.5t-32 -44.5t-33 -16t-39 -3h-242l-33 -274q41 -13 152 -13q132 0 276 4l2 -2q-19 -93 -88 -139q-39 -10 -217 -10q-262 0 -340 16l-22 31l96 715q20 147 24 194q116 21 199 23h391q-4 -42 -17 -73t-21 -40t-25 -24q-30 -11 -142 -11h-182z
M428 1458q28 0 89.5 -98.5t98.5 -183.5q14 -33 -8 -52q-22 -20 -63 -32q-123 137 -254 256q-16 16 2 41q24 26 61 46t74 23z" />
    <glyph glyph-name="figuredash" horiz-adv-x="833" 
d="M145 678h615l-12 -86q-8 -50 -21 -66t-31 -16h-628l14 94q10 74 63 74z" />
    <glyph glyph-name="iacute.sc" horiz-adv-x="503" 
d="M66 23l100 747q3 25 11.5 96.5t12.5 106.5q23 3 97.5 7.5t99.5 4.5q20 0 23.5 -17.5t-4.5 -74.5l-93 -696q-6 -47 -10.5 -86t-7.5 -68.5t-4 -38.5q-18 -4 -94 -8t-105 -4t-26 31zM422 1407q77 -11 129 -80q9 -10 7 -18.5t-17 -20.5q-105 -87 -258 -235q-29 10 -66 43
q-20 20 4 57q22 40 42.5 74t52 81.5t59.5 74.5t47 24z" />
    <glyph glyph-name="icircumflex.sc" horiz-adv-x="503" 
d="M66 23l100 747q3 25 11.5 96.5t12.5 106.5q23 3 97.5 7.5t99.5 4.5q20 0 23.5 -17.5t-4.5 -74.5l-93 -696q-6 -47 -10.5 -86t-7.5 -68.5t-4 -38.5q-18 -4 -94 -8t-105 -4t-26 31zM170 1071q-51 0 -111 27q19 26 54 71.5t54.5 72t46.5 65t48 73.5q12 24 43 33q58 8 82 8
q52 -103 174 -315q-73 -35 -106 -35q-29 0 -37 19q-5 8 -39.5 64.5t-54.5 92.5q-52 -84 -107 -147q-23 -29 -47 -29z" />
    <glyph glyph-name="idieresis.sc" horiz-adv-x="503" 
d="M66 23l100 747q3 25 11.5 96.5t12.5 106.5q23 3 97.5 7.5t99.5 4.5q20 0 23.5 -17.5t-4.5 -74.5l-93 -696q-6 -47 -10.5 -86t-7.5 -68.5t-4 -38.5q-18 -4 -94 -8t-105 -4t-26 31zM174 1362q42 0 67 -30t25 -72q0 -53 -31.5 -83t-82.5 -30q-40 0 -66.5 25t-26.5 75
q0 49 31.5 82t83.5 33zM522 1362q43 0 68.5 -29.5t25.5 -72.5q0 -53 -31.5 -83t-82.5 -30q-38 0 -65 26.5t-27 75.5q0 47 30.5 80t81.5 33z" />
    <glyph glyph-name="igrave.sc" horiz-adv-x="503" 
d="M66 23l100 747q3 25 11.5 96.5t12.5 106.5q23 3 97.5 7.5t99.5 4.5q20 0 23.5 -17.5t-4.5 -74.5l-93 -696q-6 -47 -10.5 -86t-7.5 -68.5t-4 -38.5q-18 -4 -94 -8t-105 -4t-26 31zM246 1448q28 0 89.5 -98.5t98.5 -184.5q14 -32 -8 -51q-29 -22 -64 -33q-128 142 -253 256
q-8 6 -8 18t10 23q24 26 61 46.5t74 23.5z" />
    <glyph glyph-name="oneeighth" horiz-adv-x="1449" 
d="M1171 1204q-89 -127 -216 -303.5t-339 -470t-340 -471.5q-14 -19 -26.5 -20t-24.5 10q-18 10 -33.5 30t-21.5 39q731 1012 899 1252q17 25 45 6q48 -25 57 -72zM514 1233l6 -4q-49 -350 -82 -621q-1 -19 -11 -25.5t-40 -9.5l-145 -10q54 331 73 494q-27 -7 -83 -16
t-82 -11l-3 4q3 23 18.5 57.5t29.5 49.5q76 14 181.5 44t137.5 48zM1075 653q93 0 161.5 -45t68.5 -123q0 -53 -27 -82.5t-92 -66.5q108 -64 108 -154q0 -98 -76 -148t-194 -50q-119 0 -187.5 47.5t-68.5 126.5q0 52 32.5 89.5t114.5 71.5q-88 59 -88 144t69 137.5t179 52.5
zM1071 553q-33 0 -54.5 -19.5t-21.5 -46.5q0 -26 25.5 -49t83.5 -51q57 34 57 86q0 34 -26 57t-64 23zM1120 160q0 28 -27 51.5t-89 56.5q-72 -39 -72 -96q0 -32 27.5 -57t72.5 -25q41 0 64.5 18t23.5 52z" />
    <glyph glyph-name="threeeighths" horiz-adv-x="1449" 
d="M1219 1204q-88 -126 -219 -307.5t-334.5 -462.5t-341.5 -473q-23 -34 -52 -12q-46 34 -55 69q710 983 897 1252q18 26 45 6q48 -23 60 -72zM182 829l-2 5q5 24 17 52t22 38q160 28 160 118q0 30 -22 48t-58 18q-32 0 -73.5 -16t-71.5 -41h-4q-14 24 -9.5 61.5t25.5 54.5
q27 23 83 44.5t118 21.5q86 0 140 -43t54 -109q0 -60 -33 -96t-106 -67q68 -19 108.5 -59t40.5 -103q0 -60 -25.5 -106t-68.5 -72.5t-94.5 -40t-108.5 -13.5q-117 0 -168 41q-14 10 -26 50t-10 69l4 2q101 -43 168 -43q64 0 98.5 28t34.5 79q0 38 -30.5 63t-84.5 25
q-26 0 -78 -9zM1102 653q92 0 160.5 -45t68.5 -123q0 -53 -27 -82.5t-92 -66.5q109 -65 109 -154q0 -98 -76.5 -148t-193.5 -50q-119 0 -187.5 47.5t-68.5 126.5q0 52 32.5 89.5t114.5 71.5q-88 59 -88 144t69 137.5t179 52.5zM1098 553q-33 0 -54.5 -19.5t-21.5 -46.5
q0 -26 25 -49t83 -51q58 34 58 86q0 34 -26.5 57t-63.5 23zM1147 160q0 28 -27 51.5t-90 56.5q-72 -39 -72 -96q0 -31 28 -56.5t73 -25.5q40 0 64 18t24 52z" />
    <glyph glyph-name="fiveeighths" horiz-adv-x="1449" 
d="M1219 1204q-88 -127 -219 -308t-334.5 -462.5t-341.5 -472.5q-23 -34 -52 -12q-46 34 -55 69q43 59 199 275t249 344.5t225 314t224 318.5q18 26 45 6q48 -23 60 -72zM129 870l-10 19q6 46 42.5 173t49.5 144q162 23 371 27q-4 -65 -25 -109q-10 -18 -23 -26t-40 -8
q-115 0 -189 -5q-6 -13 -31 -96q108 -19 183 -59q123 -55 123 -168q0 -82 -46.5 -137.5t-114 -78t-149.5 -22.5q-102 0 -155 39q-17 15 -27.5 48.5t-7.5 60.5l2 2q85 -35 168 -35q65 0 105 23.5t40 74.5q0 53 -69 82q-48 19 -197 51zM1098 653q92 0 160.5 -45t68.5 -123
q0 -53 -27 -82.5t-92 -66.5q109 -65 109 -154q0 -98 -76 -148t-194 -50q-119 0 -187.5 47.5t-68.5 126.5q0 52 32.5 89.5t114.5 71.5q-86 58 -86 144q0 85 68 137.5t178 52.5zM1094 553q-33 0 -54.5 -19.5t-21.5 -46.5q0 -26 25 -49t83 -51q58 34 58 86q0 34 -26 57t-64 23z
M1143 160q0 28 -27 51.5t-90 56.5q-72 -39 -72 -96q0 -31 28 -56.5t73 -25.5q41 0 64.5 18t23.5 52z" />
    <glyph glyph-name="seveneighths" horiz-adv-x="1449" 
d="M1171 1204q-156 -221 -895 -1243q-14 -20 -26.5 -21.5t-24.5 9.5q-44 35 -53 69q77 107 265.5 368t351.5 488.5t280 395.5q17 25 45 6q48 -25 57 -72zM684 1219l4 -11q-33 -117 -82 -229.5t-96 -190t-78.5 -123.5t-50.5 -67q-34 -37 -96 -45q-84 -9 -127 -6l-2 6
q89 92 175 232t148 288h-239q-56 0 -73.5 11t-8.5 36q10 27 33 62t38 47q31 -10 115 -10h340zM1087 653q93 0 161.5 -45t68.5 -123q0 -53 -27 -82.5t-92 -66.5q109 -65 109 -154q0 -98 -76.5 -148t-194.5 -50q-119 0 -187.5 47.5t-68.5 126.5q0 52 33 89.5t115 71.5
q-86 58 -86 144q0 85 67.5 137.5t177.5 52.5zM1083 553q-33 0 -54 -19.5t-21 -46.5q0 -26 25 -49t83 -51q58 34 58 86q0 34 -26.5 57t-64.5 23zM1133 160q0 28 -27 51.5t-90 56.5q-72 -39 -72 -96q0 -32 27.5 -57t72.5 -25q41 0 65 18t24 52z" />
    <glyph glyph-name="onethird" horiz-adv-x="1449" 
d="M1178 1204q-88 -126 -219 -307.5t-334.5 -462.5t-341.5 -473q-23 -34 -52 -12q-46 34 -55 69q731 1012 899 1252q15 26 45 6q46 -24 58 -72zM516 1233l6 -4q-5 -27 -84 -621q-2 -19 -11 -25.5t-38 -9.5l-145 -10q54 331 73 494q-82 -22 -167 -27l-3 4q5 23 21 57.5
t29 49.5q75 14 180 44t139 48zM893 254l-2 4q11 55 37 90q162 25 162 117q0 32 -22 49.5t-58 17.5q-32 0 -74 -16t-72 -41h-4q-14 24 -10.5 62t24.5 55q29 23 84.5 44t116.5 21q86 0 140.5 -43t54.5 -108q0 -61 -32.5 -97t-104.5 -67q66 -18 106.5 -59.5t40.5 -102.5
q0 -60 -25.5 -106.5t-68.5 -72.5t-93.5 -39t-107.5 -13q-118 0 -170 41q-14 11 -26 51.5t-9 67.5l2 2q89 -43 168 -43q65 0 100 27.5t35 78.5q0 37 -30.5 61.5t-83.5 24.5q-44 0 -78 -6z" />
    <glyph glyph-name="twothirds" horiz-adv-x="1449" 
d="M1243 1204q-88 -126 -219 -307.5t-334.5 -462.5t-341.5 -473q-23 -33 -51 -12q-46 34 -55 69q77 107 265.5 368t351.5 488.5t280 395.5q17 25 45 6q48 -25 59 -72zM133 1032h-4q-1 38 10 77t25 52q37 32 92 52t115 20q99 0 158 -53t59 -142q0 -23 -5 -45.5t-11 -40
t-21 -39t-23 -34.5t-30.5 -34t-31 -29.5t-36 -29.5t-33 -25t-35.5 -25.5t-32 -22.5q86 -6 268 2q-9 -47 -29 -85.5t-41 -45.5q-53 -13 -192 -13q-191 0 -260 13l-2 4q5 17 19 47t24 43q132 97 187 154q91 94 91 169q0 41 -25.5 66t-66.5 25q-42 0 -90 -18t-80 -42zM936 254
l-2 4q11 55 37 90q162 25 162 117q0 32 -22 49.5t-58 17.5q-32 0 -74 -16t-72 -41h-4q-14 24 -10 62t25 55q29 24 84 44.5t116 20.5q86 0 140.5 -43t54.5 -108q0 -61 -32.5 -97t-104.5 -67q66 -18 106.5 -59.5t40.5 -102.5q0 -60 -25.5 -106.5t-68.5 -72.5t-93.5 -39
t-107.5 -13q-118 0 -170 41q-14 11 -26 51.5t-9 67.5l2 2q89 -43 168 -43q65 0 100 27.5t35 78.5q0 37 -30.5 61.5t-83.5 24.5q-44 0 -78 -6z" />
    <glyph glyph-name="ntilde.sc" horiz-adv-x="1105" 
d="M754 328h4q8 65 37.5 294t38.5 312q1 7 2 12.5t4 10t4 7.5t5.5 5t6 3.5t7.5 2.5t8 1.5t10 1.5t10 1q53 6 133 6q-29 -216 -73.5 -520t-63.5 -453q-90 -20 -164 -20q-33 0 -47 22q-45 88 -172 359q-127 279 -166 385q-4 -82 -27 -254l-61 -463q-3 -20 -10.5 -28t-26.5 -15
q-36 -10 -158 -6q29 188 72.5 482.5t62.5 422.5q2 16 -16 74l2 6q98 8 234 8q29 0 47 -29q11 -17 46.5 -90.5t81.5 -171t70 -145.5q12 -24 48 -106.5t51 -114.5zM555 1368q66 0 125 -72q36 -45 53 -45q32 0 43 97q6 20 21 20q14 0 46 -9t48 -20q-9 -247 -143 -247
q-36 0 -65.5 20t-64.5 59q-25 27 -37 36.5t-24 9.5q-31 -3 -47 -95q-3 -20 -16 -20q-17 0 -53 5.5t-48 10.5q7 250 162 250z" />
    <glyph glyph-name="oacute.sc" horiz-adv-x="1107" 
d="M592 997q214 0 327 -128t111 -345q0 -85 -18.5 -162.5t-59.5 -149t-102 -123.5t-152 -83t-202 -31q-214 0 -330 122t-113 341q1 105 36 203.5t100 178.5t169.5 128.5t233.5 48.5zM584 850q-126 0 -209.5 -124.5t-83.5 -303.5q0 -59 11 -110t34.5 -95t67 -70t102.5 -26
q91 0 158 64.5t98 161t31 206.5q1 53 -9 102t-32 94.5t-65.5 73t-102.5 27.5zM707 1440q72 -13 131 -80q8 -10 6 -19t-19 -22q-97 -78 -258 -234q-27 10 -65 43q-20 17 4 56q19 36 42.5 74t53.5 83.5t58.5 73t46.5 25.5z" />
    <glyph glyph-name="ocircumflex.sc" horiz-adv-x="1107" 
d="M592 997q214 0 327 -128t111 -345q0 -85 -18.5 -162.5t-59.5 -149t-102 -123.5t-152 -83t-202 -31q-214 0 -330 122t-113 341q1 105 36 203.5t100 178.5t169.5 128.5t233.5 48.5zM584 850q-126 0 -209.5 -124.5t-83.5 -303.5q0 -59 11 -110t34.5 -95t67 -70t102.5 -26
q91 0 158 64.5t98 161t31 206.5q1 53 -9 102t-32 94.5t-65.5 73t-102.5 27.5zM453 1100q-53 0 -111 26q11 15 52.5 70t57.5 77t43.5 62.5t49.5 75.5q12 25 43 31q39 8 82 8q44 -86 174 -313q-77 -37 -107 -37q-29 0 -37 18q-11 19 -43 72.5t-51 87.5q-48 -80 -106 -150
q-24 -28 -47 -28z" />
    <glyph glyph-name="odieresis.sc" horiz-adv-x="1107" 
d="M592 997q214 0 327 -128t111 -345q0 -85 -18.5 -162.5t-59.5 -149t-102 -123.5t-152 -83t-202 -31q-214 0 -330 122t-113 341q1 105 36 203.5t100 178.5t169.5 128.5t233.5 48.5zM584 850q-126 0 -209.5 -124.5t-83.5 -303.5q0 -59 11 -110t34.5 -95t67 -70t102.5 -26
q91 0 158 64.5t98 161t31 206.5q1 53 -9 102t-32 94.5t-65.5 73t-102.5 27.5zM465 1343q42 0 67 -31t25 -73q0 -53 -32 -83t-83 -30q-40 0 -66 26t-26 77q0 47 32 80.5t83 33.5zM813 1343q43 0 68.5 -30.5t25.5 -73.5q0 -52 -32 -82.5t-82 -30.5q-38 0 -65.5 27.5
t-27.5 75.5q0 47 31 80.5t82 33.5z" />
    <glyph glyph-name="ograve.sc" horiz-adv-x="1107" 
d="M592 997q214 0 327 -128t111 -345q0 -85 -18.5 -162.5t-59.5 -149t-102 -123.5t-152 -83t-202 -31q-214 0 -330 122t-113 341q1 105 36 203.5t100 178.5t169.5 128.5t233.5 48.5zM584 850q-126 0 -209.5 -124.5t-83.5 -303.5q0 -59 11 -110t34.5 -95t67 -70t102.5 -26
q91 0 158 64.5t98 161t31 206.5q1 53 -9 102t-32 94.5t-65.5 73t-102.5 27.5zM537 1462q20 1 58.5 -50.5t73.5 -115t56 -114.5q17 -32 -6 -52q-28 -22 -66 -32q-116 134 -252 254q-19 15 0 41q66 66 136 69z" />
    <glyph glyph-name="otilde.sc" horiz-adv-x="1107" 
d="M592 997q214 0 327 -128t111 -345q0 -85 -18.5 -162.5t-59.5 -149t-102 -123.5t-152 -83t-202 -31q-214 0 -330 122t-113 341q1 105 36 203.5t100 178.5t169.5 128.5t233.5 48.5zM584 850q-126 0 -209.5 -124.5t-83.5 -303.5q0 -59 11 -110t34.5 -95t67 -70t102.5 -26
q91 0 158 64.5t98 161t31 206.5q1 53 -9 102t-32 94.5t-65.5 73t-102.5 27.5zM537 1364q63 0 122 -72q36 -45 56 -45q30 0 41 96q6 21 20 21q15 0 47.5 -9t46.5 -20q-4 -128 -40 -188t-103 -60q-36 0 -64.5 20t-64.5 60q-24 26 -36 35.5t-25 9.5q-32 -3 -48 -94
q-3 -20 -16 -20q-17 0 -52.5 5.5t-47.5 10.5q7 250 164 250z" />
    <glyph glyph-name="uacute.sc" horiz-adv-x="1099" 
d="M387 895l-59 -451q-10 -92 -2.5 -152t37 -95t65.5 -49.5t82 -14.5q105 0 170 86.5t92 290.5l55 424q3 24 11 32t28 11q94 13 164 8q-3 -26 -16.5 -121t-22.5 -168l-28 -227q-16 -126 -51.5 -218t-80 -144.5t-107 -83t-119 -39.5t-130.5 -9q-93 0 -165.5 26.5t-126 83.5
t-73.5 157t-1 237l38 289q21 134 21 205q13 3 92 7.5t105 4.5q14 0 20 -7t7 -27t-5 -56zM719 1403q38 -6 73 -29t56 -51q9 -10 7 -18.5t-17 -20.5q-105 -87 -258 -235q-36 13 -66 43q-20 20 4 57q22 40 42.5 74t52 81.5t59.5 74.5t47 24z" />
    <glyph glyph-name="ucircumflex.sc" horiz-adv-x="1099" 
d="M387 895l-59 -451q-10 -92 -2.5 -152t37 -95t65.5 -49.5t82 -14.5q105 0 170 86.5t92 290.5l55 424q3 24 11 32t28 11q94 13 164 8q-3 -26 -16.5 -121t-22.5 -168l-28 -227q-16 -126 -51.5 -218t-80 -144.5t-107 -83t-119 -39.5t-130.5 -9q-93 0 -165.5 26.5t-126 83.5
t-73.5 157t-1 237l38 289q21 134 21 205q13 3 92 7.5t105 4.5q14 0 20 -7t7 -27t-5 -56zM475 1092q-52 0 -110 26q11 14 43 57t45 61t36.5 51t41.5 60t36 56q16 26 43 31q41 8 82 8q48 -94 174 -314q-69 -36 -104 -36q-29 0 -37 18q-77 127 -94 160q-47 -73 -107 -150
q-25 -28 -49 -28z" />
    <glyph glyph-name="udieresis.sc" horiz-adv-x="1099" 
d="M387 895l-59 -451q-10 -92 -2.5 -152t37 -95t65.5 -49.5t82 -14.5q105 0 170 86.5t92 290.5l55 424q3 24 11 32t28 11q94 13 164 8q-3 -26 -16.5 -121t-22.5 -168l-28 -227q-16 -126 -51.5 -218t-80 -144.5t-107 -83t-119 -39.5t-130.5 -9q-93 0 -165.5 26.5t-126 83.5
t-73.5 157t-1 237l38 289q21 134 21 205q13 3 92 7.5t105 4.5q14 0 20 -7t7 -27t-5 -56zM467 1343q42 0 67 -31t25 -73q0 -53 -32 -83t-83 -30q-40 0 -66 26t-26 77q0 48 31.5 81t83.5 33zM815 1343q42 0 67 -30.5t25 -73.5q0 -52 -31 -82.5t-81 -30.5q-38 0 -66.5 27.5
t-28.5 75.5t31.5 81t83.5 33z" />
    <glyph glyph-name="ugrave.sc" horiz-adv-x="1099" 
d="M387 895l-59 -451q-10 -92 -2.5 -152t37 -95t65.5 -49.5t82 -14.5q105 0 170 86.5t92 290.5l55 424q3 24 11 32t28 11q94 13 164 8q-3 -26 -16.5 -121t-22.5 -168l-28 -227q-16 -126 -51.5 -218t-80 -144.5t-107 -83t-119 -39.5t-130.5 -9q-93 0 -165.5 26.5t-126 83.5
t-73.5 157t-1 237l38 289q21 134 21 205q13 3 92 7.5t105 4.5q14 0 20 -7t7 -27t-5 -56zM557 1419q28 0 89.5 -98.5t98.5 -183.5q14 -33 -8 -52q-29 -23 -65 -32q-112 129 -252 256q-8 6 -8 18t10 23q25 26 61 46t74 23z" />
    <glyph glyph-name="yacute.sc" horiz-adv-x="907" 
d="M61 961v4q36 9 97.5 15.5t93.5 6.5q28 0 40.5 -16t26.5 -56q23 -59 71 -173.5t65 -155.5q199 273 282 401q83 0 160 -16q34 -15 0 -56q-23 -28 -173.5 -231t-168.5 -225q-29 -42 -31 -64q-7 -59 -22.5 -191.5t-24.5 -201.5q-59 -10 -196 -10q-21 0 -28.5 5t-4.5 23
l53 367q8 43 -6 76q-72 170 -234 498zM627 1401q38 -7 73 -30t56 -50q9 -11 6.5 -19t-17.5 -22q-93 -74 -258 -233q-33 11 -65 43q-22 18 4 55q29 54 59.5 104.5t74 102.5t67.5 49z" />
    <glyph glyph-name="ydieresis.sc" horiz-adv-x="907" 
d="M61 961v4q36 9 97.5 15.5t93.5 6.5q28 0 40.5 -16t26.5 -56q23 -59 71 -173.5t65 -155.5q199 273 282 401q83 0 160 -16q34 -15 0 -56q-23 -28 -173.5 -231t-168.5 -225q-29 -42 -31 -64q-7 -59 -22.5 -191.5t-24.5 -201.5q-59 -10 -196 -10q-21 0 -28.5 5t-4.5 23
l53 367q8 43 -6 76q-72 170 -234 498zM354 1354q41 0 65.5 -31.5t24.5 -73.5q0 -53 -31.5 -82.5t-82.5 -29.5q-40 0 -66 25.5t-26 76.5q0 48 32 81.5t84 33.5zM700 1354q43 0 69 -31t26 -74q0 -51 -32 -81.5t-81 -30.5q-39 0 -66.5 27t-27.5 75t30.5 81.5t81.5 33.5z" />
    <glyph glyph-name="longs" horiz-adv-x="479" 
d="M551 1403q41 0 83.5 -11.5t61.5 -31.5q4 -33 -13 -75.5t-48 -47.5q-27 12 -66 12t-67.5 -20t-48.5 -55.5t-36.5 -102t-28.5 -139.5t-26 -189q-8 -67 -38.5 -331t-47.5 -375q-17 -113 -49.5 -199.5t-71.5 -137t-87.5 -82.5t-91.5 -43t-91 -11q-38 0 -75.5 11.5t-51.5 25.5
q-26 26 -26.5 78t16.5 69q48 -20 107 -20q89 0 137 73t74 248q45 325 90 725q38 337 130 483t265 146z" />
    <glyph glyph-name="acute.sc" horiz-adv-x="819" 
d="M592 1403q72 -10 129 -80q9 -10 7 -18.5t-17 -20.5q-33 -27 -74.5 -64t-66 -59t-69 -64.5t-50.5 -47.5q-33 12 -64 43q-20 20 2 57q21 38 42.5 73.5t53 82.5t60 74t47.5 24z" />
    <glyph glyph-name="cedilla.sc" horiz-adv-x="843" 
d="M379 8h141l-92 -110q54 -19 87.5 -61t33.5 -91q0 -58 -28.5 -103.5t-75.5 -72t-96 -40.5t-99 -17q-21 7 -35 31.5t-18 45.5q5 23 22 29q87 19 119.5 39.5t32.5 56.5q0 34 -42.5 53.5t-105.5 14.5l4 47z" />
    <glyph glyph-name="dieresis.sc" horiz-adv-x="819" 
d="M326 1343q41 0 65.5 -31t24.5 -73q0 -52 -32 -82.5t-81 -30.5q-41 0 -67.5 26t-26.5 77q0 47 32.5 80.5t84.5 33.5zM672 1343q43 0 68.5 -30.5t25.5 -73.5q0 -51 -32 -82t-81 -31q-39 0 -66.5 27t-27.5 76q0 47 31 80.5t82 33.5z" />
    <glyph glyph-name="grave.sc" horiz-adv-x="819" 
d="M346 1419q30 0 92.5 -99t96.5 -183q17 -32 -9 -52q-24 -22 -63 -32q-135 151 -254 256q-16 16 2 41q64 64 135 69z" />
    <glyph glyph-name="macron.sc" horiz-adv-x="819" 
d="M565 1133h-418q-14 0 -20 6t-6 24q-1 29 10 74t21 55h426q14 0 19 -6t7 -20q0 -32 -13 -73t-26 -60z" />
    <glyph glyph-name="tilde.sc" horiz-adv-x="819" 
d="M399 1384q65 0 123 -71q36 -45 56 -45q30 0 43 96q3 20 20 20q15 0 46.5 -8.5t47.5 -19.5q-11 -248 -145 -248q-25 0 -49.5 12.5t-38.5 26t-41 41.5q-42 45 -62 45q-31 -3 -47 -94q-4 -21 -14 -21q-18 0 -53.5 6t-48.5 11q5 115 42 182t121 67z" />
    <glyph glyph-name="zero.oldstyle" horiz-adv-x="940" 
d="M535 926q71 0 128 -23t94 -61t62.5 -89.5t36 -106.5t10.5 -114q-1 -76 -17.5 -151t-53.5 -149t-91 -130.5t-136 -91.5t-181 -35q-170 0 -253 103t-83 276q0 79 19 158.5t59 154t96 132.5t136.5 92.5t173.5 34.5zM514 786q-58 0 -110 -59.5t-84.5 -165t-32.5 -229.5
q0 -56 8.5 -100.5t37.5 -80.5t77 -36q57 0 108 61.5t81 165.5t30 223q0 221 -115 221z" />
    <glyph glyph-name="egrave.superior" horiz-adv-x="618" 
d="M354 1518q23 3 77 -77.5t83 -146.5q12 -27 -4 -43q-20 -22 -53 -32q-122 132 -215 202q-18 11 0 35q51 59 112 62zM430 1171q93 0 144 -42t51 -113q0 -52 -34 -94t-88 -66t-111.5 -37.5t-115.5 -15.5q0 -101 93 -101q113 0 202 78q21 -8 24.5 -54t-7.5 -60
q-95 -103 -273 -103q-106 0 -165.5 66t-59.5 170q0 156 96 264t244 108zM414 1061q-44 0 -82 -42t-56 -114q60 7 99.5 19.5t57.5 29.5t24 31.5t6 32.5q0 17 -13 30t-36 13z" />
    <glyph glyph-name="g.superior" horiz-adv-x="720" 
d="M418 1174q62 0 135 -25q35 -14 51 -14q11 0 73.5 5.5t76.5 8.5q-4 -17 -10 -60.5t-9 -54.5q-7 0 -42.5 3t-49.5 3q12 -30 12 -69q0 -108 -80 -169t-208 -61q-33 0 -58 7q-18 -9 -18 -21q0 -26 69 -41q10 -2 61 -11.5t96 -18.5t65 -15q104 -36 104 -141q0 -91 -95 -152
t-235 -61q-86 0 -152 18t-101.5 47t-52.5 59.5t-17 61.5q0 35 43.5 69t103.5 52q-32 19 -45.5 47.5t-13.5 52.5q0 16 32.5 39.5t69.5 38.5q-96 41 -96 162q0 105 81.5 172.5t209.5 67.5zM483 985q0 40 -18.5 65t-50.5 25q-51 0 -80 -40.5t-29 -102.5q0 -42 19 -67t55 -25
q47 0 75.5 38t28.5 107zM385 389q63 0 95 18.5t32 41.5t-17.5 36.5t-66.5 26.5q-47 15 -154 33q-63 -29 -63 -62q0 -39 49.5 -66.5t124.5 -27.5z" />
    <glyph glyph-name="one.oldstyle" horiz-adv-x="677" 
d="M575 926l7 -2q-74 -503 -121 -881q-4 -27 -18.5 -37.5t-47.5 -13.5q-100 -11 -178 -8q23 133 63 385.5t52 322.5q-28 -9 -126.5 -22t-150.5 -17l-2 6q38 86 68 132q391 101 454 135z" />
    <glyph glyph-name="two.oldstyle" horiz-adv-x="831" 
d="M-2 16l70 111q63 45 108 79.5t111 92.5t107.5 106.5t72.5 108t31 111.5q0 59 -37.5 91t-91.5 32q-43 0 -95 -22.5t-88 -49.5q-42 -28 -70.5 8t-25.5 88q74 79 165 116.5t181 37.5q133 0 212 -74.5t79 -185.5q0 -35 -7 -69t-17.5 -62t-30 -58.5t-36.5 -53t-46 -50.5
t-49 -45.5t-55 -44.5t-55 -41.5t-58.5 -41.5t-55.5 -40q88 -7 441 -2q-10 -56 -44.5 -98.5t-62.5 -51.5q-70 -18 -209 -18q-373 4 -442 12z" />
    <glyph glyph-name="three.oldstyle" horiz-adv-x="792" 
d="M-43 -14h4q37 -23 106.5 -44.5t127.5 -21.5q120 0 178.5 55.5t58.5 151.5q0 84 -58.5 125t-142.5 41q-61 0 -98 -6q-1 51 18 84.5t44 42.5q129 35 186 89t57 138q0 51 -33.5 86t-95.5 35q-90 0 -203 -82q-27 20 -30 63q0 49 26 78q50 50 126.5 77.5t150.5 27.5
q115 0 191.5 -67t76.5 -171q0 -192 -213 -282q223 -72 223 -271q0 -165 -120 -268t-316 -103q-72 0 -134 18t-91 40q-26 21 -37.5 67.5t-1.5 96.5z" />
    <glyph glyph-name="four.oldstyle" horiz-adv-x="956" 
d="M702 254q128 6 183 14q-3 -23 -15 -54t-26 -50q-17 -24 -60 -35q-13 -3 -98 -8q-21 -151 -39 -277q-3 -31 -11.5 -42.5t-37.5 -18.5q-80 -23 -195 -19q28 147 58 345q-100 -7 -373 6q-28 1 -54 34t-30 58q48 95 242 335.5t286 317.5q24 13 114.5 39.5t121.5 26.5
q29 0 23 -41q-44 -322 -89 -631zM481 248q59 310 86 465q-70 -79 -191 -239.5t-153 -217.5q37 -8 258 -8z" />
    <glyph glyph-name="five.oldstyle" horiz-adv-x="786" 
d="M57 342l-8 18q16 91 67 272.5t85 262.5q22 3 238.5 16.5t242.5 16.5l4 -4q-3 -31 -19 -80t-30 -70q-22 -36 -66 -39q-144 -6 -252 -12q-38 -105 -69 -229q118 -31 190 -68q117 -51 171.5 -120.5t54.5 -170.5q0 -165 -122.5 -268t-314.5 -103q-69 0 -127 15t-84 35
q-37 30 -34 98q0 37 14 51q131 -47 203 -47q102 0 170.5 46.5t68.5 139.5q0 35 -14.5 64.5t-46 53t-62.5 40.5t-82 33.5t-86 25.5t-92 23z" />
    <glyph glyph-name="six.oldstyle" horiz-adv-x="946" 
d="M356 494l-6 4q-2 25 16 73.5t37 61.5q36 25 87 39t94 14q128 0 199 -86.5t71 -214.5q0 -178 -115.5 -294t-308.5 -116q-192 0 -283.5 113.5t-91.5 300.5q0 126 49 254.5t132 226.5q80 95 185 160t192 90t159 25q102 0 131 -105l-2 -6q-205 -17 -362 -135
q-113 -82 -183 -217t-71 -303q0 -45 8 -88t26 -84.5t53 -66.5t83 -25q85 0 133.5 64.5t46.5 164.5q0 80 -39.5 129t-110.5 49q-27 0 -66 -8.5t-63 -19.5z" />
    <glyph glyph-name="seven.oldstyle" horiz-adv-x="831" 
d="M88 -236q-81 0 -98 27q170 172 340.5 448t244.5 478q-4 0 -157.5 -1t-220.5 -1q-72 0 -94.5 10.5t-24.5 36.5q0 22 32 85t52 83q46 -27 182 -27h481q5 -71 -63 -250q-86 -235 -249.5 -500.5t-268.5 -342.5q-59 -46 -156 -46z" />
    <glyph glyph-name="eight.oldstyle" horiz-adv-x="911" 
d="M508 1145q141 0 230 -77.5t89 -197.5q0 -52 -18 -96t-57 -82.5t-68 -60.5t-84 -58q107 -81 153 -144t46 -140q0 -58 -22 -111.5t-67 -100t-123.5 -74.5t-180.5 -28q-96 0 -169 25t-115 67t-62.5 91t-20.5 102q0 33 9 63.5t20 53t35 47.5t39.5 39t49.5 36t48 30.5t51 29.5
q-146 128 -146 270q0 61 23.5 117t67.5 101t114.5 71.5t157.5 26.5zM492 1020q-67 0 -108.5 -45.5t-41.5 -114.5q0 -56 38.5 -103t111.5 -102q76 54 109.5 102.5t33.5 114.5q0 60 -39.5 104t-103.5 44zM420 115q68 0 113 43.5t45 105.5q0 54 -42 99.5t-130 109.5
q-29 -19 -48 -34.5t-46 -42.5t-41.5 -60t-14.5 -70q0 -66 45 -108.5t119 -42.5z" />
    <glyph glyph-name="nine.oldstyle" horiz-adv-x="933" 
d="M498 926q94 0 165.5 -34t113.5 -94.5t62.5 -135.5t20.5 -164q0 -168 -73.5 -318.5t-204.5 -255.5q-102 -83 -217.5 -122.5t-198.5 -39.5q-48 0 -76 19q-28 14 -45.5 47t-15.5 55q206 26 338 109q50 33 93.5 77t85 108.5t65.5 154t24 194.5q0 42 -6 82.5t-21.5 83.5
t-48 69.5t-78.5 26.5q-77 0 -126.5 -66.5t-49.5 -178.5q0 -82 38.5 -127t102.5 -45q18 0 51 5t50 13l2 -2q2 -30 -11.5 -75.5t-35.5 -61.5q-55 -41 -150 -41q-123 0 -198.5 82.5t-75.5 218.5q0 188 120.5 302t299.5 114z" />
    <glyph glyph-name="dollar.oldstyle" horiz-adv-x="903" 
d="M680 1085l-37 -141q32 -5 80 -28t88 -56q-12 -61 -44 -100.5t-87 -16.5q-98 54 -170 54q-66 0 -97.5 -26.5t-31.5 -65.5q0 -43 36 -70.5t152 -85.5q108 -53 162.5 -112t54.5 -150q0 -133 -94 -211t-235 -86l-31 -119q-10 -23 -51 -29q-48 -9 -146 -6l43 164
q-63 10 -135.5 44.5t-103.5 68.5q7 28 35 82q42 75 106 41q150 -80 256 -80q115 0 115 82q0 30 -38.5 63.5t-141.5 87.5q-121 60 -171.5 118.5t-50.5 151.5q0 121 91.5 203.5t226.5 85.5l22 88q11 32 54 41q53 15 143 8z" />
    <glyph glyph-name="cent.oldstyle" horiz-adv-x="888" 
d="M739 1034l-39 -153q105 -11 160 -64q-4 -50 -38.5 -97t-80.5 -26q-55 25 -125 25q-116 0 -195 -80.5t-79 -202.5q0 -91 58 -145.5t151 -54.5q120 0 235 51q-8 -133 -69 -168q-58 -39 -187 -51l-36 -140q-8 -38 -72 -43q-62 -9 -123 -6l53 201q-123 24 -189.5 109.5
t-66.5 213.5q0 170 114.5 302.5t307.5 168.5l31 105q6 24 18.5 34.5t44.5 14.5q55 6 127 6z" />
    <glyph glyph-name="percent.oldstyle" horiz-adv-x="1456" 
d="M1182 1159q28 -42 28 -80q-48 -61 -402 -525t-470 -613q-23 -32 -51 -11q-16 11 -26.5 32t-12.5 40q14 18 136 174.5t209 269.5t201.5 263.5t178.5 240.5q-79 -30 -175 -35.5t-153 11.5q14 -49 14 -97q0 -67 -21 -131t-60 -116t-102 -83.5t-140 -31.5q-106 0 -170 69.5
t-64 186.5q0 70 21.5 136t62 120t105.5 86.5t145 32.5q78 0 152 -45q46 -27 129 -33.5t158.5 3.5t119.5 28q68 27 107 73l33 37q27 31 47 -2zM416 995q-44 0 -77.5 -54t-48 -120t-14.5 -123t18.5 -93t57.5 -36q33 0 60 31.5t42.5 79.5t24 98.5t8.5 93.5q0 123 -71 123z
M1118 610q106 0 168 -72t62 -186q0 -72 -20 -137.5t-58 -119.5t-101 -86t-143 -32q-109 0 -170 67.5t-61 184.5q0 70 21 136.5t59.5 122t102 89t140.5 33.5zM1102 506q-32 0 -59 -30.5t-43 -76.5t-24.5 -97t-8.5 -97q0 -50 18.5 -86.5t56.5 -36.5q40 0 72 50t47 114.5
t15 122.5q0 137 -74 137z" />
    <glyph glyph-name="zero.fitted" horiz-adv-x="946" 
d="M555 1233q80 0 142 -29.5t99.5 -76t62 -112t33.5 -130.5t9 -137q0 -86 -10.5 -171.5t-33 -174t-61.5 -164t-91 -135.5t-127.5 -94t-165.5 -34q-98 0 -169 42t-109 113.5t-55.5 152.5t-17.5 174q0 82 12 168t36 174t65 165t93.5 138t127 96t160.5 35zM545 1092
q-67 0 -120 -68t-83 -174t-45.5 -219t-15.5 -219q0 -36 2 -68.5t10.5 -76t23 -75t41.5 -53.5t64 -22q57 0 103.5 49t75 124t48 171t27.5 185t8 171q0 275 -139 275z" />
    <glyph glyph-name="one.fitted" horiz-adv-x="946" 
d="M713 1233l12 -10q-116 -990 -137 -1176q-5 -26 -12 -35t-27 -12q-141 -12 -207 -12q47 270 139 1011q-167 -51 -276 -65l-4 8l45 121q143 37 279 87t188 83z" />
    <glyph glyph-name="two.fitted" horiz-adv-x="946" 
d="M27 8l-11 10q6 15 18 35t27 43.5t19 30.5q139 135 231 233t160 190t98.5 168t30.5 148q0 82 -43.5 137.5t-122.5 55.5q-53 0 -103 -21t-81 -45t-80 -69l-12 2q-36 26 -44 69.5t13 65.5q158 172 373 172q157 0 248.5 -94t91.5 -252q0 -174 -152 -363q-112 -139 -369 -358
q122 -11 508 0q1 -44 -29.5 -95t-56.5 -59q-68 -22 -219 -22q-393 0 -495 18z" />
    <glyph glyph-name="three.fitted" horiz-adv-x="946" 
d="M250 549l-6 8q5 22 24 65t27 46q151 26 221 82.5t70 169.5q0 63 -45 107t-117 44q-127 0 -254 -106q-16 32 -18 59q-3 51 26 84q45 48 130.5 86.5t183.5 38.5q78 0 140.5 -24.5t100 -65.5t57 -90t19.5 -101q0 -112 -63 -182t-173 -115q119 -38 190 -113.5t71 -191.5
q0 -127 -65 -221.5t-174.5 -142t-246.5 -47.5q-87 0 -157.5 18.5t-104.5 46.5q-34 27 -45 76.5t-2 85.5l4 4q127 -84 279 -84q120 0 195 59t75 177q0 115 -72 174t-194 59q-38 0 -76 -6z" />
    <glyph glyph-name="four.fitted" horiz-adv-x="946" 
d="M885 1274l6 -12q-425 -410 -666 -797q146 -22 320 -19l47 293q26 17 97 37t114 25l8 -6l-47 -351q35 0 137 11l4 -9q-17 -70 -71 -124q-25 -12 -86 -19q-7 -62 -33 -256q-3 -24 -13.5 -34t-31.5 -13q-135 -12 -199 -12q37 160 55 313q-126 1 -267 10.5t-200 20.5
q-14 9 -36 48t-21 62q93 155 301.5 413.5t304.5 334.5q55 32 134.5 54.5t142.5 29.5z" />
    <glyph glyph-name="five.fitted" horiz-adv-x="946" 
d="M119 604l-13 21q22 110 73.5 301t80.5 274q76 9 273 21t276 12l6 -8q-6 -73 -35 -125q-22 -45 -73 -51q-47 -4 -171 -10.5t-155 -8.5q-16 -42 -41 -134.5t-33 -137.5q174 -44 252 -74q135 -55 201.5 -135.5t66.5 -206.5q0 -123 -66 -216t-175 -140t-242 -47
q-94 0 -162 19.5t-94 45.5q-19 19 -31 62.5t-10 76.5l6 2q34 -20 111.5 -39.5t150.5 -19.5q81 0 138.5 19t89 53t45.5 74t14 90q0 87 -67.5 141t-208.5 94q-53 16 -207 47z" />
    <glyph glyph-name="six.fitted" horiz-adv-x="946" 
d="M928 1178l-4 -4q-261 -40 -418 -179q-115 -99 -175.5 -250.5t-60.5 -312.5q0 -54 8 -104.5t27 -101.5t57.5 -82t92.5 -31q90 0 141 79.5t51 188.5q0 84 -41 138t-119 54q-63 0 -137 -34l-8 6q-2 32 19.5 77.5t48.5 65.5q31 22 79 35.5t95 13.5q135 0 210.5 -96t75.5 -240
q0 -190 -119 -308t-309 -118q-193 0 -298 126t-105 329q0 169 60.5 322.5t174.5 269.5q74 75 156 128.5t153 78t121.5 34t90.5 9.5q43 0 78.5 -25t54.5 -69z" />
    <glyph glyph-name="seven.fitted" horiz-adv-x="946" 
d="M94 -27l-4 11q180 187 348 471t275 577q-10 0 -173.5 -1t-301.5 -1q-104 0 -107 43q-1 24 24.5 71.5t55.5 82.5q31 -13 66 -16t108 -3h561q0 -36 -12 -101t-31 -112q-125 -335 -282.5 -599.5t-247.5 -354.5q-45 -43 -83.5 -59.5t-96.5 -16.5q-63 0 -99 8z" />
    <glyph glyph-name="eight.fitted" horiz-adv-x="946" 
d="M510 1233q151 0 247.5 -83t96.5 -212q0 -48 -15 -89.5t-35 -70t-57 -58.5t-64 -46.5t-73 -42.5q127 -83 180.5 -157t53.5 -167q0 -56 -24 -112t-72 -106.5t-133.5 -82t-194.5 -31.5q-104 0 -183.5 28t-124 74t-66 98.5t-21.5 109.5q0 50 17.5 94t40.5 74t65 62.5t70.5 50
t78.5 44.5q-85 70 -124.5 137t-39.5 152q0 134 103.5 234t273.5 100zM500 1102q-69 0 -114.5 -47.5t-45.5 -124.5q0 -36 11 -65.5t36 -57.5t49.5 -48.5t67.5 -51.5q81 56 114 109t33 122q0 67 -44.5 115.5t-106.5 48.5zM440 111q90 0 138.5 48t48.5 124q0 61 -52 113.5
t-172 133.5q-85 -53 -125 -104.5t-40 -122.5q0 -85 58.5 -138.5t143.5 -53.5z" />
    <glyph glyph-name="nine.fitted" horiz-adv-x="946" 
d="M590 641l4 -4q2 -30 -9 -70t-26 -57q-19 -21 -64.5 -34t-101.5 -13q-137 0 -220 93.5t-83 242.5q0 182 120 308t294 126q103 0 180 -39t122 -107t67 -152t22 -183q0 -202 -84 -374.5t-248 -291.5q-105 -79 -207.5 -113t-167.5 -34q-40 0 -76 30t-49 80q103 19 194 54
t179 106q230 187 230 541q0 57 -7.5 111t-25.5 109.5t-55 89.5t-89 34q-86 0 -136 -82t-50 -187q0 -89 45 -149t125 -60q65 0 117 25z" />
    <glyph glyph-name="zero.taboldstyle" horiz-adv-x="901" 
d="M514 926q88 0 153.5 -33.5t101.5 -90.5t53.5 -123.5t17.5 -141.5q0 -76 -15.5 -151.5t-52 -150.5t-89.5 -132t-134.5 -92.5t-181.5 -35.5q-166 0 -246 100t-80 273q0 81 18.5 162t57.5 156t94 133t133.5 92.5t169.5 34.5zM494 788q-57 0 -107 -65t-80.5 -175.5
t-30.5 -236.5q0 -52 10 -94.5t35.5 -72t63.5 -29.5q60 0 111 67t79.5 173.5t28.5 222.5q0 210 -110 210z" />
    <glyph glyph-name="one.taboldstyle" horiz-adv-x="901" 
d="M682 926l6 -2q-58 -373 -121 -881q-4 -27 -18.5 -37.5t-48.5 -13.5q-100 -10 -176 -8q25 156 112 708q-29 -8 -131.5 -21.5t-140.5 -15.5l-4 4q35 83 67 132q382 97 455 135z" />
    <glyph glyph-name="two.taboldstyle" horiz-adv-x="901" 
d="M37 14l67 113q78 55 138 103.5t133 118t114 141t41 135.5q0 60 -35.5 91.5t-88.5 31.5q-84 0 -183 -70q-41 -30 -70 6t-26 88q73 78 165 116t179 38q133 0 211 -74.5t78 -185.5q0 -39 -7 -75t-23.5 -69.5t-33 -61.5t-46 -59t-51 -52.5t-59.5 -51.5t-60 -46.5t-64.5 -47.5
t-61.5 -45q67 -6 439 0q-11 -57 -45 -99t-62 -51q-70 -18 -207 -18q-376 4 -440 10z" />
    <glyph glyph-name="three.taboldstyle" horiz-adv-x="901" 
d="M12 -18l6 2q37 -22 106 -44t126 -22q120 0 178.5 56t58.5 153q0 84 -57.5 125t-140.5 43q-52 0 -99 -8q-1 52 17.5 85.5t44.5 41.5q128 35 185 89t57 138q0 51 -33 86t-94 35q-88 0 -203 -82q-31 23 -31 63q-3 45 27 78q51 51 126 78t150 27q113 0 189.5 -67.5
t76.5 -170.5q0 -192 -213 -282q224 -72 224 -273q0 -164 -121 -266.5t-318 -102.5q-70 0 -132.5 17.5t-88.5 38.5q-25 21 -37.5 66.5t-3.5 95.5z" />
    <glyph glyph-name="four.taboldstyle" horiz-adv-x="901" 
d="M668 254q88 4 178 14q-3 -23 -15 -54t-26 -50q-20 -25 -62 -35q-41 -8 -92 -8q-16 -132 -37 -277q-5 -32 -13 -43t-36 -18q-82 -23 -196 -19q19 97 59 345q-115 -8 -358 4q-28 3 -54.5 36t-29.5 58q50 98 236 338t276 315q24 12 115 39t120 27q31 0 25 -41
q-1 -9 -19 -139.5t-37.5 -267t-33.5 -224.5zM449 248q59 310 86 465q-66 -74 -180 -234.5t-150 -224.5q26 -6 244 -6z" />
    <glyph glyph-name="five.taboldstyle" horiz-adv-x="901" 
d="M121 342l-8 18q15 92 66 273t85 262q22 3 236.5 16.5t240.5 16.5l2 -4q-3 -29 -18.5 -78t-28.5 -72q-21 -34 -65 -37q-82 -6 -246 -12q-39 -101 -72 -231q122 -32 189 -68q117 -51 171 -120.5t54 -170.5q0 -165 -123 -268t-315 -103q-68 0 -125.5 15.5t-81.5 34.5
q-38 28 -35 96q0 37 14 51q125 -45 201 -45q102 0 171 47.5t69 138.5q0 35 -15 65t-45 53t-62 40.5t-81 33.5t-86.5 26t-91.5 22z" />
    <glyph glyph-name="six.taboldstyle" horiz-adv-x="901" 
d="M344 496l-8 4q-2 26 16.5 74t38.5 61q77 53 176 53q127 0 197 -87t70 -216q0 -179 -114 -294.5t-306 -115.5q-98 0 -171 31.5t-115.5 88.5t-62.5 129.5t-20 162.5q0 126 48.5 255.5t131.5 227.5q61 72 137 128t148 86.5t136 45.5t116 15q102 0 131 -105l-2 -6
q-204 -17 -361 -135q-114 -82 -184 -217.5t-70 -302.5q-1 -47 6 -90t24 -84t51 -65.5t81 -24.5q85 0 131.5 64.5t46.5 164.5q-2 81 -39.5 130.5t-107.5 49.5q-27 0 -65 -8.5t-60 -19.5z" />
    <glyph glyph-name="seven.taboldstyle" horiz-adv-x="901" 
d="M117 -236q-82 0 -99 27q170 172 340 448t246 478q-3 0 -157.5 -1t-221.5 -1q-72 0 -94.5 10.5t-24.5 36.5q0 22 32 85t52 83q46 -27 183 -27h481q5 -71 -63 -250q-86 -234 -250 -500t-269 -343q-59 -46 -155 -46z" />
    <glyph glyph-name="eight.taboldstyle" horiz-adv-x="901" 
d="M502 1145q142 0 232.5 -77.5t90.5 -197.5q0 -31 -8 -60t-17.5 -50t-31.5 -46.5t-35 -39t-44.5 -37.5t-43.5 -32t-47 -32q107 -82 153 -145t46 -139q0 -58 -22.5 -111.5t-67 -100t-123.5 -74.5t-181 -28q-96 0 -169 25t-114.5 67t-62 91t-20.5 102q0 38 9.5 71.5t31 62.5
t40.5 49.5t55 44.5t56 36t60 35q-146 128 -146 270q0 130 95 223t264 93zM487 1020q-66 0 -107.5 -45.5t-41.5 -114.5q0 -56 38.5 -103t110.5 -102q76 54 110 102.5t34 114.5q0 60 -40 104t-104 44zM418 115q68 0 112.5 43.5t44.5 105.5q0 29 -12 55.5t-40.5 54t-52.5 47
t-69 52.5q-30 -21 -47.5 -35t-45.5 -42t-42 -60.5t-14 -69.5q0 -65 46 -108t120 -43z" />
    <glyph glyph-name="nine.taboldstyle" horiz-adv-x="901" 
d="M479 926q76 0 137 -22.5t101.5 -62t67.5 -94t39 -116.5t12 -133q0 -167 -72.5 -318.5t-202.5 -257.5q-102 -82 -215 -121t-196 -39q-40 0 -76 19q-27 14 -45 47.5t-15 52.5q206 29 332 111q50 32 93 76.5t83.5 108.5t64 154t23.5 195q0 44 -5.5 83.5t-19.5 84t-46 71
t-78 26.5q-74 0 -122 -69.5t-48 -180.5q0 -80 38.5 -127t102.5 -47q60 0 100 18v-2q2 -30 -11.5 -75.5t-35.5 -61.5q-55 -43 -147 -43q-124 0 -198 84.5t-74 220.5q0 188 117.5 303t295.5 115z" />
    <glyph glyph-name="a.superior" horiz-adv-x="755" 
d="M213 563q-59 0 -97 52t-38 139q0 178 112 297.5t295 119.5q28 0 62 -3.5t55 -6.5t59.5 -10t47.5 -8q-9 -31 -30.5 -157.5t-35.5 -225.5q-14 -116 -14 -176q-65 -21 -148 -21q-26 0 -22 62q2 15 4 27.5t5.5 32.5t6.5 38q-54 -85 -124 -122.5t-138 -37.5zM313 711
q57 0 119 77t80 187q7 32 12 76q-19 8 -67 8q-62 0 -107 -42t-64.5 -101t-19.5 -123q0 -35 12.5 -58.5t34.5 -23.5z" />
    <glyph glyph-name="b.superior" horiz-adv-x="749" 
d="M360 563q-63 0 -135.5 23.5t-113.5 52.5q2 14 43 277t53 352q24 180 24 196q105 19 166 19q25 0 17 -58q-5 -23 -16.5 -87t-27 -154t-26.5 -148q104 135 240 135q72 0 114.5 -59.5t42.5 -146.5q0 -182 -103 -292t-278 -110zM375 690q47 0 83.5 23t56 60.5t29 79t9.5 85.5
q0 36 -13.5 64t-41.5 28q-59 0 -114.5 -74t-70.5 -172q-2 -11 -5.5 -32.5t-6.5 -38.5q30 -23 74 -23z" />
    <glyph glyph-name="d.superior" horiz-adv-x="786" 
d="M236 563q-65 0 -107.5 53.5t-42.5 153.5q0 174 105.5 287.5t261.5 113.5q64 0 96 -16q12 63 26 165t17 144q111 19 164 19q18 0 21 -14t-3 -46q-13 -95 -54.5 -364t-45.5 -301q-19 -135 -17 -174q-65 -21 -153 -21q-27 0 -21 53q2 31 17 105q-103 -158 -264 -158z
M324 711q61 0 121.5 77t80.5 187q9 45 9 59q-26 15 -76 15q-80 0 -131.5 -74.5t-51.5 -179.5q0 -35 12.5 -59.5t35.5 -24.5z" />
    <glyph glyph-name="e.superior" horiz-adv-x="618" 
d="M430 1171q93 0 144 -42t51 -113q0 -52 -34 -94t-88 -66t-111.5 -37.5t-115.5 -15.5q0 -101 93 -101q113 0 202 78q21 -8 24.5 -54t-7.5 -60q-95 -103 -273 -103q-106 0 -165.5 66t-59.5 170q0 156 96 264t244 108zM414 1061q-44 0 -82 -42t-56 -114q60 7 99.5 19.5
t57.5 29.5t24 31.5t6 32.5q0 17 -13 30t-36 13z" />
    <glyph glyph-name="h.superior" horiz-adv-x="782" 
d="M352 1026h4q59 80 119 111.5t129 31.5q45 0 74 -22.5t37.5 -56.5t10.5 -73t-7 -73q-16 -86 -33 -184q-24 -146 -22 -176q-23 -7 -78.5 -14t-91.5 -7q-10 0 -13.5 15.5t-0.5 41.5t6.5 49.5t9 51t6.5 35.5q4 24 18 99t17 95q12 78 -31 78q-66 0 -120.5 -99t-88.5 -296
q-4 -29 -23 -43q-34 -24 -174 -27q10 63 35.5 234.5t38.5 253.5q53 389 51 413q74 19 168 19q29 0 15 -84q-3 -18 -25.5 -171t-30.5 -202z" />
    <glyph glyph-name="i.superior" horiz-adv-x="401" 
d="M309 1503q89 0 94 -94q3 -51 -30.5 -82t-75.5 -31q-84 0 -90 90q-1 57 33 87t69 30zM182 1139q14 6 83 19t89 13q28 0 2 -143q-11 -72 -31.5 -207t-27.5 -178q-10 -47 -21 -53q-15 -8 -65.5 -17t-110.5 -10q5 47 26.5 171t29.5 175q26 186 26 230z" />
    <glyph glyph-name="l.superior" horiz-adv-x="401" 
d="M412 1425q-44 -312 -113 -778q-7 -39 -16 -53q-9 -9 -65.5 -19.5t-115.5 -11.5q16 93 52.5 350t48.5 353q19 160 22 198q105 19 170 19q15 0 18.5 -13.5t-1.5 -44.5z" />
    <glyph glyph-name="m.superior" horiz-adv-x="1136" 
d="M707 1008h4q105 163 247 163q43 0 71 -21.5t37 -54t11 -71.5t-6 -74q-25 -138 -35 -190q-23 -121 -20 -176q-23 -7 -77 -14t-89 -7q-7 0 -11 7.5t-4.5 22t0.5 29.5t4.5 36.5t6.5 36.5t7 35.5t5 27.5q5 31 17 90.5t16 81.5q8 38 0 62t-31 24q-67 0 -122 -105t-85 -274
q-5 -34 -22 -47q-43 -24 -166 -27q3 18 17.5 92t28 148t21.5 125q14 88 -30 88q-57 0 -117 -97.5t-94 -283.5q-7 -34 -25 -45q-37 -24 -170 -27q43 229 60 344q26 191 24 230q22 7 85.5 20.5t80.5 13.5q10 0 13.5 -8.5t1 -46t-16.5 -108.5h4q114 163 246 163q67 0 92.5 -46
t20.5 -117z" />
    <glyph glyph-name="n.superior" horiz-adv-x="778" 
d="M348 1004h4q39 65 82.5 103t82 51t85.5 13q44 0 71.5 -22t36 -55t10 -72.5t-6.5 -73.5q-12 -80 -33 -188q-23 -141 -21 -176q-23 -7 -76.5 -14t-88.5 -7q-7 0 -11 7.5t-4.5 22t0 29t4 36.5t6 36t6.5 35.5t5 28.5q6 34 19 101t18 93q6 31 -0.5 51.5t-26.5 20.5
q-64 0 -124 -111.5t-89 -267.5q-6 -44 -21 -55q-34 -24 -180 -27l27 148.5t33 195.5q26 187 22 230q132 34 166 34q11 0 16 -4.5t6.5 -21.5t-3 -50t-15.5 -91z" />
    <glyph glyph-name="o.superior" horiz-adv-x="700" 
d="M436 1171q117 0 183.5 -69.5t68.5 -186.5q0 -157 -92.5 -254.5t-247.5 -97.5q-121 0 -189.5 68.5t-68.5 187.5q0 150 97 251t249 101zM424 1057q-61 0 -104.5 -76.5t-43.5 -171.5q0 -129 82 -129q55 0 100.5 71t45.5 183q0 50 -18 86.5t-62 36.5z" />
    <glyph glyph-name="r.superior" horiz-adv-x="552" 
d="M332 973h4q49 101 103 149.5t106 48.5q16 0 33 -7.5t22 -22.5q0 -24 -13.5 -70.5t-27.5 -75.5q-22 11 -49 11q-65 1 -124.5 -103t-86.5 -252q-10 -51 -27 -61q-15 -6 -75 -15.5t-91 -11.5q52 316 60 377q19 156 12 197q3 1 39 11.5t63.5 16.5t45.5 6q10 0 15 -7t6 -29
t-2.5 -60t-12.5 -102z" />
    <glyph glyph-name="s.superior" horiz-adv-x="538" 
d="M362 1171q39 0 90.5 -18t69.5 -47q-4 -40 -23.5 -69t-47.5 -17q-59 22 -91 22q-25 0 -40 -12t-15 -31q0 -14 18 -31t68 -53q66 -44 88.5 -79.5t22.5 -77.5q1 -88 -71.5 -141.5t-176.5 -53.5q-67 0 -119.5 26t-73.5 56q10 47 25 68q8 15 23.5 20t33.5 -4q26 -17 61 -28
t60 -11q60 0 60 43q0 17 -20.5 36.5t-70.5 53.5q-106 72 -106 158q0 80 64.5 135t170.5 55z" />
    <glyph glyph-name="t.superior" horiz-adv-x="495" 
d="M465 756l6 -2q-1 -57 -11 -84t-30 -47q-75 -60 -178 -60q-61 0 -96.5 46.5t-22.5 140.5q38 227 45 272q-18 -1 -44 2t-34 8q-13 13 2 37q34 53 97 66q41 118 69 139q20 11 65.5 20.5t76.5 8.5q-4 -15 -35 -168q133 5 162 10q-13 -89 -54 -109q-25 -12 -127 -12
q-29 -156 -41 -252q-7 -63 33 -63q64 0 117 47z" />
    <glyph glyph-name="zero.superior" 
d="M436 1536q114 0 174 -75t60 -193q0 -107 -34.5 -196.5t-109 -147.5t-176.5 -58q-115 0 -174 73t-59 191q0 60 12 117.5t37.5 110t62.5 92t90 63t117 23.5zM430 1417q-33 0 -59.5 -33t-42 -83.5t-23.5 -103.5t-8 -99q0 -50 18 -81.5t52 -31.5q33 0 59 35.5t40 87.5
t21 101.5t7 86.5q0 50 -15.5 85.5t-48.5 35.5z" />
    <glyph glyph-name="four.superior" 
d="M645 1571l12 -12q-215 -202 -381 -422q61 -9 142 -9l18 119q20 15 76.5 31t91.5 16h4l-18 -164q6 0 18.5 1.5t32.5 4t35 3.5l2 -11q-6 -32 -49 -90q-15 -6 -51 -12q-5 -29 -19 -139q-62 -6 -115 -13.5t-59 -7.5l-8 6q20 109 26 150q-186 0 -278 18q-6 5 -18 35t-11 37
q57 83 168 210.5t176 182.5q24 21 90.5 43t114.5 23z" />
    <glyph glyph-name="five.superior" 
d="M168 1174l-10 18q6 44 43 172t49 145q162 23 371 27q-4 -65 -25 -109q-18 -34 -64 -34q-129 0 -188 -4q-5 -11 -31 -97q108 -19 183 -59q122 -55 122 -168q0 -82 -46.5 -137.5t-113.5 -78t-149 -22.5q-102 0 -155 39q-17 15 -27.5 48.5t-7.5 60.5l2 2q85 -35 168 -35
q145 0 145 98q0 53 -69 82q-53 21 -197 52z" />
    <glyph glyph-name="six.superior" 
d="M670 1481v-4q-164 -30 -248 -97q-56 -43 -87.5 -115t-31.5 -155q0 -66 26 -98.5t62 -32.5q45 0 68.5 33.5t21.5 81.5q-1 45 -23.5 68.5t-56.5 23.5q-20 0 -53 -10q4 50 27 79q13 16 44.5 27.5t69.5 11.5q79 0 121 -49.5t45 -118.5q3 -122 -76 -191t-208 -69
q-111 0 -182.5 66t-71.5 188q0 208 153 338q129 113 312 113q31 0 56 -24.5t32 -65.5z" />
    <glyph glyph-name="seven.superior" 
d="M682 1522l4 -11q-33 -117 -81 -229.5t-95 -190t-78.5 -123.5t-50.5 -67q-37 -37 -98 -45q-85 -9 -125 -6l-2 6q88 92 173.5 232t147.5 288h-239q-56 0 -73.5 11t-8.5 36q13 29 35 63t36 46q31 -10 115 -10h340z" />
    <glyph glyph-name="eight.superior" 
d="M420 1536q93 0 161 -45.5t68 -124.5q0 -52 -27.5 -82.5t-91.5 -64.5q109 -65 109 -154q0 -98 -76 -148.5t-194 -50.5q-119 0 -187.5 47.5t-68.5 126.5q0 50 33 89t114 73q-88 59 -88 144t69 137.5t179 52.5zM416 1434q-33 0 -54.5 -19t-21.5 -47q0 -24 25.5 -47t83.5 -51
q57 34 57 86q0 32 -26.5 55t-63.5 23zM465 1042q0 28 -27.5 52t-89.5 57q-72 -39 -72 -96q0 -33 28 -57.5t73 -24.5q40 0 64 17.5t24 51.5z" />
    <glyph glyph-name="nine.superior" 
d="M117 928v6q59 5 133 28.5t123 59.5q56 42 85 110t31 150q0 37 -7.5 68t-30 55.5t-58.5 24.5q-42 0 -68 -34t-26 -87q0 -45 26.5 -73t65.5 -28q33 0 51 6q4 -52 -28 -92q-29 -32 -105 -32q-81 0 -130.5 53t-49.5 129q0 117 77.5 190.5t207.5 73.5q125 0 192.5 -79.5
t65.5 -205.5q0 -89 -40 -169.5t-112 -137.5q-70 -56 -153.5 -83t-147.5 -27q-40 0 -66 27t-36 67z" />
    <glyph glyph-name="period.superior" horiz-adv-x="331" 
d="M231 1100q45 0 72 -32.5t27 -78.5q0 -56 -33 -89.5t-86 -33.5q-44 0 -72 29t-28 76q0 58 32 93.5t88 35.5z" />
    <glyph glyph-name="comma.superior" horiz-adv-x="331" 
d="M262 1149q30 0 48 -29t18 -67q0 -82 -46.5 -161.5t-105.5 -125.5q-45 -35 -143 -31q108 129 108 291q0 52 -14 84q84 39 135 39z" />
    <glyph glyph-name="dollar.superior" 
d="M532 1642l-20 -104q26 -4 71 -23.5t66 -41.5q-6 -35 -36 -70t-60 -19q-90 37 -131 37q-37 0 -55.5 -15.5t-18.5 -39.5q0 -22 25.5 -40.5t91.5 -54.5l9 -4.5t8.5 -4.5t9.5 -5q137 -74 137 -178q0 -98 -59 -152t-169 -65l-18 -82q-3 -15 -39 -18q-72 -10 -98 -10l22 114
q-116 20 -176 74q-2 43 25.5 80.5t68.5 15.5q37 -19 86 -34t82 -15q78 0 78 55q0 26 -23.5 44.5t-95.5 58.5q-83 44 -116 88t-33 100q0 91 64.5 144.5t148.5 58.5l16 72q5 22 33 28q40 10 106 6z" />
    <glyph glyph-name="cent.superior" 
d="M582 1591l-23 -106q65 -6 107 -37q-2 -39 -24 -71t-58 -19q-34 12 -82 12q-71 0 -120.5 -50t-49.5 -124q0 -72 41 -108.5t106 -36.5q91 0 158 34q0 -95 -41 -120q-31 -28 -123 -41l-18 -97q-3 -15 -10.5 -21t-32.5 -9q-59 -4 -93 -2l27 139q-104 19 -154.5 83t-50.5 150
q0 115 74.5 203t214.5 109l16 73q3 18 11 25t30 10q54 7 95 4z" />
    <glyph glyph-name="hyphen.superior" horiz-adv-x="497" 
d="M510 1280l2 -4q-2 -47 -21 -93t-57 -57q-44 -17 -144 -31t-155 -12l-2 4q3 41 22.5 90t32.5 52q277 40 322 51z" />
    <glyph glyph-name="parenleft.superior" horiz-adv-x="485" 
d="M162 1182q0 197 82.5 359t228.5 267q26 -4 50 -25t32 -44q-243 -230 -246 -559q0 -114 33.5 -232.5t95.5 -193.5q-17 -25 -45 -41.5t-51 -16.5q-58 46 -100.5 134.5t-61 178.5t-18.5 173z" />
    <glyph glyph-name="parenright.superior" horiz-adv-x="485" 
d="M494 1325q0 -197 -81.5 -360.5t-230.5 -268.5q-24 4 -48.5 26t-33.5 46q246 229 246 555q0 116 -32 235t-95 193q15 24 42.5 41.5t51.5 17.5q86 -70 133.5 -212.5t47.5 -272.5z" />
    <glyph glyph-name="zero.inferior" 
d="M303 406q114 0 174 -75.5t60 -193.5q0 -107 -34.5 -196t-109 -147t-176.5 -58q-115 0 -174 73t-59 191q0 60 12 117.5t37.5 110t62.5 92t90 63t117 23.5zM297 287q-33 0 -59.5 -33.5t-42 -84t-23.5 -103.5t-8 -99q0 -50 17.5 -81t51.5 -31q33 0 59 35.5t40 87.5t21 101.5
t7 86.5q0 50 -15 85.5t-48 35.5z" />
    <glyph glyph-name="one.inferior" 
d="M430 406l4 -5q-50 -358 -82 -620q-1 -19 -11 -25.5t-40 -9.5l-145 -10q54 331 75 493q-82 -21 -168 -26l-2 4q3 23 18.5 57t29.5 49q75 14 181 44.5t140 48.5z" />
    <glyph glyph-name="two.inferior" 
d="M35 205h-4q-1 38 10 77t25 52q37 32 92 52t114 20q99 0 158 -53t59 -142q0 -52 -19.5 -98t-66 -91t-71.5 -64t-86 -62q-10 -8 -15 -11q87 -6 269 2q-9 -47 -29 -85.5t-41 -45.5q-49 -12 -192 -12q-197 0 -261 12l-2 4q5 17 19 47t24 43q133 98 189 156q90 93 90 168
q0 41 -25.5 65.5t-66.5 24.5q-42 0 -90 -18t-80 -41z" />
    <glyph glyph-name="three.inferior" 
d="M94 2l-2 4q12 60 37 90q162 28 162 119q0 30 -22 48t-58 18q-32 0 -73.5 -16t-71.5 -42h-5q-14 24 -10 62t25 55q30 24 84.5 45t115.5 21q86 0 140.5 -43t54.5 -109q0 -61 -32.5 -97t-104.5 -67q66 -19 106.5 -59.5t40.5 -102.5q0 -79 -44.5 -133t-109 -76t-141.5 -22
q-111 0 -170 41q-14 11 -25.5 51t-8.5 68l2 2q101 -43 168 -43q65 0 100 27.5t35 78.5q0 38 -30.5 63t-84.5 25q-32 0 -78 -8z" />
    <glyph glyph-name="four.inferior" 
d="M512 440l12 -12q-215 -202 -381 -422q54 -8 142 -8l18 119q20 15 76.5 31t91.5 16h4l-18 -164q8 0 86 8l2 -10q-6 -32 -49 -90q-14 -6 -52 -12q0 -3 -18 -140q-62 -6 -115 -13t-59 -7l-8 6q21 112 26 149q-181 0 -278 19q-6 5 -18 35t-11 37q57 83 168 210.5t176 182.5
q24 21 90 42.5t115 22.5z" />
    <glyph glyph-name="five.inferior" 
d="M35 43l-10 18q6 45 43 173t49 145q162 23 370 27q-4 -67 -24 -109q-18 -35 -64 -35q-129 0 -188 -4q-6 -14 -31 -96q38 -7 92 -24t90 -36q123 -55 123 -168q0 -62 -26 -109t-71 -74t-98.5 -40.5t-113.5 -13.5q-103 0 -156 39q-17 15 -27 48t-7 60l2 2q82 -34 168 -34
q145 0 145 98q0 52 -70 82q-49 19 -196 51z" />
    <glyph glyph-name="six.inferior" 
d="M537 350v-4q-166 -30 -248 -96q-56 -43 -87.5 -115t-31.5 -155q0 -66 26 -99t62 -33q45 0 68.5 33.5t21.5 81.5q-1 45 -23.5 68.5t-56.5 23.5q-20 0 -53 -10q4 51 27 80q13 16 44.5 27.5t69.5 11.5q79 0 121 -49.5t45 -118.5q3 -122 -76 -191t-208 -69q-111 0 -182.5 66
t-71.5 188q0 208 153 338q128 112 312 112q31 0 56 -24.5t32 -65.5z" />
    <glyph glyph-name="seven.inferior" 
d="M549 391l4 -10q-33 -117 -81 -229.5t-95 -190t-78.5 -123.5t-50.5 -67q-37 -37 -98 -45q-90 -10 -125 -7l-2 7q88 92 173.5 232t147.5 288h-240q-56 0 -73 11t-8 36q12 29 34 62.5t37 45.5q31 -10 115 -10h340z" />
    <glyph glyph-name="eight.inferior" 
d="M287 406q93 0 161 -45.5t68 -124.5q0 -52 -27.5 -83t-91.5 -65q109 -65 109 -154q0 -98 -76 -148t-194 -50q-119 0 -187.5 47.5t-68.5 126.5q0 50 33 89t114 73q-88 59 -88 143q0 85 69 138t179 53zM283 303q-33 0 -54.5 -18.5t-21.5 -46.5q0 -25 25.5 -48t82.5 -51
q58 34 58 86q0 32 -26.5 55t-63.5 23zM332 -88q0 28 -27 51.5t-90 56.5q-72 -39 -72 -96q0 -33 28 -57.5t73 -24.5q40 0 64 18t24 52z" />
    <glyph glyph-name="nine.inferior" 
d="M-16 -203v6q59 5 133 28.5t123 59.5q56 42 85 110.5t31 150.5q0 37 -7.5 68t-30 55t-58.5 24q-42 0 -68 -34t-26 -87q0 -45 26.5 -72.5t65.5 -27.5q33 0 51 6q4 -52 -28 -92q-30 -33 -105 -33q-81 0 -130.5 53t-49.5 129q0 117 77.5 191t207.5 74q125 0 192.5 -79.5
t65.5 -205.5q0 -89 -40 -169.5t-112 -137.5q-70 -56 -153.5 -83.5t-147.5 -27.5q-40 0 -66 27t-36 67z" />
    <glyph glyph-name="period.inferior" horiz-adv-x="331" 
d="M98 -31q46 0 72.5 -32t26.5 -78q0 -56 -33 -89.5t-86 -33.5q-45 0 -73 28.5t-28 75.5q0 58 32.5 93.5t88.5 35.5z" />
    <glyph glyph-name="comma.inferior" horiz-adv-x="331" 
d="M129 18q30 0 48 -29t18 -67q0 -82 -46.5 -161.5t-105.5 -125.5q-44 -34 -143 -30q108 129 108 291q0 52 -14 84q82 38 135 38z" />
    <glyph glyph-name="dollar.inferior" 
d="M399 512l-20 -104q26 -4 71 -23.5t66 -42.5q-6 -35 -36 -69.5t-60 -18.5q-90 37 -131 37q-37 0 -55.5 -15.5t-18.5 -39.5q0 -22 24 -40t95 -56q5 -3 8 -4.5t7.5 -4t8.5 -4.5q138 -75 138 -178q0 -98 -59 -152t-169 -65l-18 -82q-3 -16 -39 -19q-72 -10 -98 -10l22 115
q-116 20 -176 74q-2 43 25.5 80.5t68.5 15.5q37 -19 86 -34t82 -15q78 0 78 55q0 14 -5 24t-25 24.5t-33.5 22t-55.5 31.5q-83 44 -116 88t-33 101q0 91 64.5 144.5t148.5 58.5l16 71q6 23 33 29q40 10 106 6z" />
    <glyph glyph-name="cent.inferior" 
d="M449 461l-23 -107q64 -6 106 -37q-2 -39 -23.5 -71t-57.5 -19q-37 13 -82 13q-71 0 -120.5 -50t-49.5 -124q0 -72 41 -109t106 -37q90 0 158 35q0 -96 -41 -121q-31 -28 -123 -41l-18 -96q-3 -15 -11 -21.5t-32 -9.5q-59 -4 -93 -2l27 139q-104 19 -154.5 83.5
t-50.5 150.5q0 115 74.5 202.5t214.5 108.5l16 74q3 18 11 25t30 10q54 7 95 4z" />
    <glyph glyph-name="hyphen.inferior" horiz-adv-x="497" 
d="M377 150l2 -5q-2 -46 -21 -92t-57 -57q-44 -17 -144 -31t-155 -12l-2 4q3 41 22.5 89.5t32.5 51.5q266 39 322 52z" />
    <glyph glyph-name="parenleft.inferior" horiz-adv-x="485" 
d="M29 51q0 197 82.5 359.5t228.5 267.5q26 -4 50 -25t32 -45q-243 -230 -246 -559q0 -114 33.5 -232.5t95.5 -193.5q-17 -24 -44.5 -40.5t-51.5 -16.5q-58 46 -100.5 134t-61 178t-18.5 173z" />
    <glyph glyph-name="parenright.inferior" horiz-adv-x="485" 
d="M360 195q0 -197 -81.5 -360.5t-229.5 -268.5q-24 4 -48.5 26t-33.5 46q246 229 246 555q0 116 -32 235t-95 193q15 24 42.5 41.5t51.5 17.5q86 -70 133 -212.5t47 -272.5z" />
    <glyph glyph-name="zero.numerator" 
d="M399 1233q115 0 174.5 -74.5t59.5 -193.5q0 -79 -20 -150.5t-58.5 -128t-100.5 -90t-139 -33.5q-115 0 -174 73t-59 191q0 60 12 117.5t37.5 110t62 92t89.5 63t116 23.5zM393 1114q-42 0 -73.5 -57.5t-44.5 -127.5t-13 -134q0 -49 17.5 -81t50.5 -32q34 0 60 35.5t40 88
t20.5 101t6.5 86.5q0 50 -15.5 85.5t-48.5 35.5z" />
    <glyph glyph-name="one.numerator" 
d="M526 1233l6 -4q-1 -8 -83 -621q-1 -19 -11 -25.5t-39 -9.5l-145 -10q57 354 74 494q-27 -7 -84 -16t-84 -11l-2 4q3 23 19 57t30 50q75 14 180 44t139 48z" />
    <glyph glyph-name="two.numerator" 
d="M131 1032h-4q0 40 11 78.5t26 50.5q35 32 91 52t116 20q97 0 156 -53t59 -142q0 -52 -20 -98t-64 -89t-72.5 -65t-84.5 -61q-11 -8 -17 -12q88 -6 270 2q-9 -46 -30 -85t-42 -46q-51 -13 -192 -13q-188 0 -260 13l-2 4q5 16 20 46.5t25 43.5q122 92 170 139
q106 103 106 184q0 41 -24.5 66t-67.5 25q-40 0 -88 -18t-82 -42z" />
    <glyph glyph-name="three.numerator" 
d="M190 829l-2 5q5 24 17 52t22 38q160 28 160 118q0 30 -22 48t-58 18q-32 0 -73.5 -16t-71.5 -41h-4q-14 24 -10 61.5t26 54.5q27 23 83 44.5t118 21.5q86 0 140 -43t54 -109q0 -60 -33 -96t-106 -67q68 -19 109 -59.5t41 -102.5q0 -60 -25.5 -106t-68.5 -72.5t-94.5 -40
t-108.5 -13.5q-117 0 -168 41q-15 10 -27 50t-10 69l4 2q101 -43 168 -43q64 0 98.5 28t34.5 79q0 38 -30.5 63t-84.5 25q-26 0 -78 -9z" />
    <glyph glyph-name="four.numerator" 
d="M610 1268l13 -13q-216 -200 -383 -421q61 -9 141 -9l18 119q20 15 76.5 31t91.5 16h6l-20 -164q3 0 86 9l4 -11q-4 -16 -21 -45.5t-28 -44.5q-15 -6 -51 -12q-13 -74 -21 -139q-61 -6 -113.5 -13.5t-58.5 -7.5l-8 6q4 21 13.5 74.5t13.5 75.5q-191 0 -279 18
q-6 4 -18.5 34t-12.5 38q57 83 168 210.5t176 182.5q26 21 92 43t115 23z" />
    <glyph glyph-name="five.numerator" 
d="M133 870l-12 19q8 47 44.5 174t47.5 143q167 23 373 27q-3 -60 -27 -109q-8 -18 -21.5 -26t-41.5 -8q-116 0 -187 -5q-15 -33 -30 -96q106 -20 180 -59q125 -56 125 -168q0 -82 -46.5 -137.5t-114 -78t-149.5 -22.5q-104 0 -157 39q-15 15 -26 49t-9 60l4 2
q85 -35 166 -35q147 0 147 98q0 53 -69 82q-48 19 -197 51z" />
    <glyph glyph-name="six.numerator" 
d="M635 1178v-4q-164 -30 -248 -97q-57 -43 -89 -114.5t-32 -155.5q0 -66 26 -98.5t64 -32.5q43 0 66.5 33.5t23.5 81.5q-3 45 -25 68.5t-54 23.5q-14 0 -56 -11q10 55 27 80q13 16 45.5 27.5t71.5 11.5q79 0 120 -49.5t43 -118.5q3 -122 -75.5 -191t-208.5 -69
q-111 0 -182.5 66t-71.5 188q0 205 153 338q132 113 312 113q31 0 57 -25t33 -65z" />
    <glyph glyph-name="seven.numerator" 
d="M647 1219l4 -11q-33 -117 -82 -229.5t-96 -190t-78.5 -123.5t-50.5 -67q-34 -37 -98 -45q-81 -9 -125 -6l-2 6q89 93 175 233.5t148 286.5h-239q-56 0 -73.5 11t-8.5 36q10 27 32.5 61.5t36.5 47.5q33 -10 117 -10h340z" />
    <glyph glyph-name="eight.numerator" 
d="M385 1233q91 0 159 -45.5t68 -124.5q0 -52 -27 -83t-89 -65q108 -66 108 -153q0 -98 -77 -148.5t-195 -50.5q-119 0 -186.5 47.5t-67.5 126.5q0 51 32 89.5t113 72.5q-86 61 -86 143q0 85 69 138t179 53zM379 1130q-33 0 -54.5 -18.5t-21.5 -46.5q0 -24 25.5 -47
t83.5 -51q57 34 57 86q0 32 -26 54.5t-64 22.5zM430 739q0 28 -28 52t-91 57q-71 -39 -71 -96q0 -33 27.5 -57.5t72.5 -24.5q41 0 65.5 17.5t24.5 51.5z" />
    <glyph glyph-name="nine.numerator" 
d="M80 625l2 6q59 5 133 29t121 59q57 41 86 109.5t31 150.5q2 58 -21 102.5t-74 44.5q-43 0 -69.5 -33.5t-26.5 -86.5q0 -45 27 -73t67 -28q31 0 52 6q0 -58 -31 -92q-30 -33 -105 -33q-80 0 -130 53.5t-50 129.5q0 117 78 190.5t207 73.5q126 0 193 -79t67 -206
q0 -89 -40.5 -169.5t-113.5 -137.5q-69 -56 -152.5 -83.5t-148.5 -27.5q-39 0 -64.5 27t-37.5 68z" />
    <glyph glyph-name="period.numerator" horiz-adv-x="331" 
d="M195 797q45 0 71.5 -32t26.5 -79q0 -57 -32 -90t-85 -33q-46 0 -73 29t-27 76q0 58 32 93.5t87 35.5z" />
    <glyph glyph-name="comma.numerator" horiz-adv-x="331" 
d="M227 846q30 0 48 -29t18 -67q0 -83 -47 -162.5t-107 -124.5q-45 -34 -143 -31q108 126 108 291q0 48 -12 84q80 39 135 39z" />
    <glyph glyph-name="dollar.numerator" 
d="M498 1339l-23 -104q27 -4 72 -24t65 -42q-6 -35 -35 -69.5t-59 -18.5q-5 2 -20.5 8t-22.5 9t-21 7.5t-23.5 6.5t-22 4t-23.5 2q-37 0 -55.5 -15.5t-18.5 -39.5q0 -6 1.5 -11t6 -10.5t8.5 -10t13 -11t15.5 -10.5t20 -12t22.5 -13t27 -14.5t30 -16.5q137 -72 137 -178
q0 -98 -58.5 -152t-168.5 -65l-17 -82q-3 -15 -39 -18q-75 -10 -100 -10l22 114q-116 20 -176 74q-2 43 27 80.5t70 15.5q35 -19 84 -34t81 -15q78 0 78 55q0 26 -23 45t-93 58q-83 44 -116.5 88t-33.5 100q0 91 63.5 144.5t149.5 58.5l16 72q3 21 33 28q37 10 107 6z" />
    <glyph glyph-name="cent.numerator" 
d="M545 1288l-21 -106q66 -6 107 -37q-2 -38 -25 -71t-57 -19q-34 12 -82 12q-73 0 -122.5 -49.5t-49.5 -124.5q0 -72 42 -108.5t107 -36.5q92 0 156 34q1 -48 -10.5 -79t-28.5 -41q-30 -27 -125 -41l-18 -97q-2 -14 -10 -20.5t-33 -9.5q-56 -4 -92 -2l28 139
q-104 19 -154.5 83t-50.5 150q0 115 74 203t215 109l15 73q3 18 11 25t32 10q53 7 92 4z" />
    <glyph glyph-name="hyphen.numerator" horiz-adv-x="497" 
d="M475 977l2 -4q-2 -47 -21 -93t-57 -57q-44 -17 -145 -31t-156 -12l-2 4q4 42 24 90.5t34 51.5q274 40 321 51z" />
    <glyph glyph-name="parenleft.numerator" horiz-adv-x="485" 
d="M127 879q0 198 82 360t229 266q25 -5 50 -25.5t32 -43.5q-246 -229 -246 -559q0 -115 32.5 -233t96.5 -193q-17 -25 -45 -41.5t-51 -16.5q-58 46 -100.5 134.5t-61 178.5t-18.5 173z" />
    <glyph glyph-name="parenright.numerator" horiz-adv-x="485" 
d="M459 1022q0 -196 -82 -360t-230 -269q-24 4 -48.5 26t-32.5 46q245 231 245 555q0 115 -33 234t-96 194q17 25 45 42t52 17q84 -70 132 -213t48 -272z" />
    <glyph glyph-name="zero.denominator" 
d="M338 662q115 0 174 -75t59 -194q0 -107 -34 -196t-107.5 -147t-175.5 -58q-115 0 -174.5 73t-59.5 191q0 75 19.5 146t57.5 130t100.5 94.5t140.5 35.5zM332 543q-42 0 -73.5 -57.5t-44.5 -128t-13 -134.5q0 -50 17.5 -81t49.5 -31q34 0 60 35.5t40 88t20.5 101t6.5 86.5
q0 50 -15 85.5t-48 35.5z" />
    <glyph glyph-name="one.denominator" 
d="M465 662l6 -5q-5 -29 -84 -620q-2 -19 -11 -25.5t-38 -9.5l-145 -10q54 334 73 493q-27 -7 -83.5 -15.5t-84.5 -10.5l-2 4q3 22 19 56t30 50q74 14 180 44.5t140 48.5z" />
    <glyph glyph-name="two.denominator" 
d="M70 461h-4q0 40 10.5 78.5t25.5 50.5q35 32 91 52t116 20q97 0 156 -53t59 -142q0 -52 -19.5 -98t-66 -91t-71.5 -64t-86 -62q-10 -8 -15 -11q88 -6 271 2q-9 -46 -30 -85t-42 -46q-47 -12 -193 -12q-194 0 -260 12l-2 4q5 16 20 46.5t25 43.5q5 4 16 12q52 38 83.5 64
t79.5 71.5t73 90.5t25 86t-24.5 65.5t-67.5 24.5q-40 0 -88.5 -17.5t-81.5 -41.5z" />
    <glyph glyph-name="three.denominator" 
d="M129 258l-2 4q5 24 17 52t22 38q160 28 160 119q0 30 -22 48t-58 18q-32 0 -74 -16.5t-72 -41.5h-4q-14 24 -9.5 62t26.5 55q27 24 82.5 45t117.5 21q86 0 140.5 -43t54.5 -109q0 -60 -33 -96.5t-106 -67.5q68 -19 108.5 -59t40.5 -103q0 -60 -25.5 -106t-68.5 -72.5
t-94.5 -39.5t-108.5 -13q-117 0 -168 41q-15 10 -27 50t-10 69l4 2q101 -43 168 -43q64 0 99 27.5t35 78.5q0 38 -30.5 63t-84.5 25q-32 0 -78 -8z" />
    <glyph glyph-name="four.denominator" 
d="M549 696l12 -12q-214 -198 -383 -422q54 -8 141 -8l19 119q20 15 76.5 31t91.5 16h6l-20 -164q12 0 86 8l4 -10q-4 -15 -21 -45t-29 -45q-15 -6 -51 -12q-8 -49 -20 -140q-60 -6 -112.5 -12.5t-59.5 -7.5l-8 6q4 22 13 74.5t13 74.5q-185 0 -278 19q-6 4 -18.5 34
t-12.5 38q57 83 168 210.5t176 182.5q26 21 92 42.5t115 22.5z" />
    <glyph glyph-name="five.denominator" 
d="M72 299l-13 18q8 47 44.5 174t48.5 144q167 23 372 27q-4 -63 -26 -109q-15 -35 -64 -35q-129 0 -186 -4q-17 -38 -31 -96q103 -19 180 -60q125 -56 125 -168q0 -62 -26 -109t-71 -74t-98.5 -40.5t-113.5 -13.5q-105 0 -158 39q-15 15 -26 48.5t-9 59.5l5 2
q82 -34 165 -34q67 0 107.5 23.5t40.5 74.5q0 52 -70 82q-49 19 -196 51z" />
    <glyph glyph-name="six.denominator" 
d="M573 606v-4q-164 -30 -247 -96q-57 -43 -89 -114.5t-32 -155.5q0 -66 26.5 -99t63.5 -33q43 0 66.5 33.5t23.5 81.5q-3 45 -25 68.5t-55 23.5q-17 0 -55 -10q10 57 26 80q13 16 45.5 27.5t71.5 11.5q79 0 120.5 -49.5t43.5 -118.5q3 -122 -76 -191t-209 -69
q-111 0 -182.5 66t-71.5 188q0 204 154 338q131 112 311 112q31 0 57 -25t33 -65z" />
    <glyph glyph-name="seven.denominator" 
d="M586 647l4 -10q-33 -117 -82 -229.5t-96 -190t-78.5 -123.5t-50.5 -67q-34 -37 -99 -45q-87 -10 -125 -7l-2 7q89 93 176 233.5t148 286.5h-240q-56 0 -73.5 11t-8.5 36q10 26 33 60.5t37 47.5q33 -10 117 -10h340z" />
    <glyph glyph-name="eight.denominator" 
d="M324 662q91 0 159 -45.5t68 -124.5q0 -52 -27 -83t-90 -65q109 -67 109 -154q0 -98 -77.5 -148t-195.5 -50q-119 0 -186.5 47.5t-67.5 126.5q0 50 32.5 89t113.5 73q-86 61 -86 143q0 85 69 138t179 53zM317 559q-33 0 -54 -18.5t-21 -46.5q0 -25 25.5 -48t82.5 -51
q58 34 58 86q0 32 -26.5 55t-64.5 23zM369 168q0 28 -27.5 51t-91.5 57q-72 -39 -72 -96q0 -33 28 -57.5t73 -24.5q41 0 65.5 18t24.5 52z" />
    <glyph glyph-name="nine.denominator" 
d="M18 53l2 6q59 5 133 29t121 59q57 41 86 109.5t31 151.5q2 58 -20.5 102.5t-73.5 44.5q-42 0 -69 -34t-27 -87q0 -45 26.5 -72.5t67.5 -27.5q30 0 51 6q0 -58 -31 -92q-30 -33 -104 -33q-80 0 -130 53t-50 129q0 117 77.5 191t206.5 74q126 0 193 -79t67 -206
q0 -90 -40 -170t-113 -137q-69 -56 -152.5 -83.5t-148.5 -27.5q-39 0 -65 27t-38 67z" />
    <glyph glyph-name="period.denominator" horiz-adv-x="331" 
d="M133 225q45 0 71.5 -32t26.5 -78q0 -57 -31.5 -90t-84.5 -33q-46 0 -73.5 28.5t-27.5 75.5q0 58 32 93.5t87 35.5z" />
    <glyph glyph-name="comma.denominator" horiz-adv-x="331" 
d="M166 274q30 0 47.5 -29t17.5 -67q0 -83 -47 -162.5t-106 -124.5q-43 -34 -144 -30q109 127 109 291q0 48 -12 84q78 38 135 38z" />
    <glyph glyph-name="dollar.denominator" 
d="M436 768l-22 -104q27 -4 72 -24t65 -42q-6 -35 -35 -69.5t-59 -18.5q-5 2 -20.5 8t-22.5 9t-21 7.5t-23.5 6.5t-22 4t-23.5 2q-37 0 -55.5 -15.5t-18.5 -39.5q0 -21 24.5 -39.5t86.5 -52.5q21 -11 32 -17q137 -72 137 -178q0 -98 -58.5 -152t-168.5 -65l-16 -82
q-3 -16 -39 -19q-75 -10 -101 -10l23 115q-116 20 -176 74q-2 43 26.5 80.5t69.5 15.5q34 -19 84 -34t82 -15q78 0 78 55q0 26 -22.5 44t-94.5 58q-83 44 -116 88t-33 101q0 91 63.5 144.5t149.5 58.5l16 71q3 22 33 29q37 10 106 6z" />
    <glyph glyph-name="cent.denominator" 
d="M483 717l-20 -107q65 -6 106 -37q-2 -38 -25 -71t-57 -19q-37 13 -81 13q-73 0 -123 -50t-50 -124q0 -72 42.5 -109t107.5 -37q91 0 156 35q1 -49 -10.5 -80t-28.5 -41q-30 -27 -125 -41l-19 -96q-2 -15 -10 -21.5t-33 -9.5q-56 -4 -92 -2l29 139q-104 19 -154.5 83.5
t-50.5 150.5q0 115 73.5 202.5t215.5 108.5l14 74q3 18 11 25t32 10q53 7 92 4z" />
    <glyph glyph-name="hyphen.denominator" horiz-adv-x="497" 
d="M414 406l2 -5q-2 -46 -21 -92t-57 -57q-44 -17 -145 -31t-156 -12l-2 4q4 42 23.5 90t33.5 51q266 39 322 52z" />
    <glyph glyph-name="parenleft.denominator" horiz-adv-x="485" 
d="M66 307q0 198 82 360.5t229 266.5q25 -5 50 -26t32 -44q-246 -229 -246 -559q0 -115 32.5 -233t96.5 -193q-17 -24 -44.5 -40.5t-51.5 -16.5q-58 46 -100.5 134t-61 178t-18.5 173z" />
    <glyph glyph-name="parenright.denominator" horiz-adv-x="485" 
d="M397 451q0 -196 -82 -360t-229 -269q-25 4 -49.5 26.5t-32.5 45.5q246 232 246 555q0 115 -33 234t-96 194q18 25 45 42t51 17q84 -70 132 -213t48 -272z" />
    <glyph glyph-name="at.cap" horiz-adv-x="1579" 
d="M1178 131h4q15 -18 11 -63.5t-26 -63.5q-64 -58 -169 -90.5t-236 -32.5q-189 0 -336.5 79.5t-231 230.5t-83.5 350q0 236 98.5 420.5t280.5 288.5t419 104q178 0 317.5 -72t219.5 -208.5t80 -315.5q0 -144 -58.5 -262.5t-159 -186t-221.5 -67.5q-192 0 -159 213
q-119 -213 -318 -213q-46 0 -80.5 22t-52.5 58t-26.5 75.5t-8.5 81.5q0 102 31.5 197t90.5 172.5t154.5 124.5t213.5 47q109 0 256 -39q-17 -69 -49 -242.5t-37 -249.5q-6 -62 9 -88t54 -26q77 0 144 104t67 269q0 213 -131.5 347t-341.5 134q-143 0 -261.5 -53.5
t-195.5 -144t-119 -208t-42 -248.5q0 -247 140.5 -402t385.5 -155q205 0 367 113zM913 899q-55 0 -101.5 -27t-76.5 -69.5t-51 -96.5t-30 -106.5t-9 -101.5q0 -45 15.5 -77t39.5 -32q57 0 125 74t115 217q9 22 18 55.5t14 57.5t11 57.5t6 34.5q-28 14 -76 14z" />
    <glyph glyph-name="emdash.cap" horiz-adv-x="1861" 
d="M174 721h1610q-1 -19 -15 -90q-11 -50 -22.5 -65t-30.5 -15h-1620q3 52 17 104q17 66 61 66z" />
    <glyph glyph-name="endash.cap" horiz-adv-x="1095" 
d="M174 721h842q-2 -35 -17 -92q-11 -48 -22.5 -63t-28.5 -15h-852q3 56 17 106q16 64 61 64z" />
    <glyph glyph-name="exclamdown.cap" horiz-adv-x="397" 
d="M242 891q-54 0 -84.5 35.5t-30.5 89.5q0 66 39 108.5t100 42.5q54 0 87.5 -33.5t33.5 -89.5q0 -70 -38 -111.5t-107 -41.5zM41 -98q-28 0 -38.5 12.5t-6.5 46.5q12 85 69 357t76 339q4 17 12 29t14 15.5t17 9.5q72 22 99 22q-4 -58 -17.5 -390t-17.5 -392
q-10 -18 -84.5 -33.5t-122.5 -15.5z" />
    <glyph glyph-name="guillemotleft.cap" horiz-adv-x="1253" 
d="M340 596q42 -63 96.5 -168t57.5 -149q1 -33 -32.5 -60t-64.5 -33q-49 101 -123 202t-155 177q-15 23 -15 53q217 169 373 390q25 -9 54 -34.5t30 -47.5q1 -36 -85 -155.5t-136 -174.5zM754 596q48 -66 109.5 -182t64.5 -166q1 -30 -34 -54t-69 -32q-104 205 -293 401
q-16 24 -16 55q104 74 195 173t194 239q26 -9 56.5 -35t31.5 -49q2 -31 -51.5 -111t-103.5 -141t-84 -98z" />
    <glyph glyph-name="guillemotright.cap" horiz-adv-x="1253" 
d="M518 596q-48 66 -109.5 182.5t-64.5 167.5q-1 29 34 53t71 31q105 -213 290 -401q20 -30 17 -54q-104 -73 -194.5 -172.5t-194.5 -240.5q-26 9 -56.5 35t-31.5 49q-3 44 88.5 166t150.5 184zM932 596q-41 61 -96 168t-58 149q-1 33 31.5 59t64.5 34q48 -100 122.5 -200
t156.5 -179q14 -21 14 -52q-215 -167 -374 -389q-22 7 -51.5 33t-30.5 49q-1 35 86.5 157t134.5 171z" />
    <glyph glyph-name="guilsinglleft.cap" horiz-adv-x="849" 
d="M344 596q49 -67 111 -182.5t65 -165.5q1 -30 -33 -54t-69 -32q-103 204 -297 401q-17 25 -17 55q105 73 198 172.5t200 239.5q26 -9 56 -35t30 -49q2 -31 -53.5 -111.5t-104.5 -139.5t-86 -99z" />
    <glyph glyph-name="guilsinglright.cap" horiz-adv-x="849" 
d="M524 596q-50 69 -112.5 184t-65.5 166q-1 29 34 53t71 31q104 -211 294 -401q20 -30 17 -54q-105 -73 -197.5 -172.5t-197.5 -240.5q-26 9 -56.5 35t-31.5 49q-2 31 52.5 111t107 142.5t85.5 96.5z" />
    <glyph glyph-name="hyphen.cap" horiz-adv-x="595" 
d="M547 745l4 -8q-7 -52 -37 -108t-70 -68q-54 -16 -189.5 -31t-182.5 -12l-6 8q7 61 35 111.5t49 52.5q269 26 397 55z" />
    <glyph glyph-name="questiondown.cap" horiz-adv-x="643" 
d="M406 891q-56 0 -87.5 35.5t-31.5 91.5q0 66 39 107.5t102 41.5q57 0 90 -37t33 -88q0 -66 -38.5 -108.5t-106.5 -42.5zM287 -98q-126 0 -196.5 66.5t-70.5 164.5q0 90 49 150.5t148 119.5q79 49 109 80t30 70q0 45 -50 71t-128 19l-4 4q-4 33 16 72q29 53 121 53
q114 0 187 -59.5t73 -169.5q0 -141 -194 -262q-76 -48 -108.5 -81.5t-32.5 -70.5q0 -30 28 -50t70 -20q51 0 129 33q17 6 33.5 6t29 -17t15.5 -50q2 -22 -4 -45q-46 -40 -114 -62t-136 -22z" />
    <glyph glyph-name="braceleft.cap" horiz-adv-x="688" 
d="M709 1513q7 -17 4 -65q-3 -22 -11 -31.5t-28 -15.5q-85 -19 -123.5 -71.5t-38.5 -147.5q0 -20 2 -68.5t2.5 -77t-1 -71.5t-5.5 -80q-10 -97 -58.5 -157.5t-132.5 -96.5q89 -41 113 -109t8 -164q-8 -48 -39.5 -167t-38.5 -177q-9 -79 19.5 -125.5t107.5 -60.5
q16 -5 22 -12.5t3 -24.5q-5 -34 -37 -74q-162 10 -237 92.5t-60 219.5q5 45 40.5 183t41.5 183q11 83 -17.5 130t-111.5 61q-13 4 -11.5 37.5t13.5 62.5q99 19 139 58.5t50 111.5q5 33 7.5 76.5t3 76.5t1 88t0.5 83q6 193 131 274q86 56 242 59z" />
    <glyph glyph-name="braceright.cap" horiz-adv-x="688" 
d="M238 1513q163 -10 238.5 -92.5t60.5 -216.5q-5 -47 -39.5 -183t-40.5 -175q-10 -78 16.5 -119t108.5 -45q13 -5 9.5 -34.5t-20.5 -57.5q-92 -22 -129 -67t-45 -124q-5 -44 -8 -98t-5 -139.5t-3 -108.5q-6 -193 -131 -276q-92 -60 -244 -60q-8 24 0 74q3 33 37 41
q87 17 125.5 70t36.5 149q-5 207 4 309q10 113 58.5 178t135.5 99q-161 68 -124 252q8 44 34.5 157.5t36.5 170.5q14 81 -15 126t-110 60q-14 5 -18.5 12.5t-3.5 26.5q6 35 35 71z" />
    <glyph glyph-name="bracketleft.cap" horiz-adv-x="688" 
d="M205 539q6 46 22.5 167t30 221t29.5 214t29.5 195t21.5 114q12 8 149.5 21.5t208.5 13.5q13 -34 6 -92q-2 -14 -9 -19t-31 -8q-112 -18 -140 -23q-26 -6 -35 -47q-16 -75 -106 -774q-72 -551 -68 -610q0 -37 39 -43q87 -14 129 -19q26 -3 21 -30q-7 -47 -33 -84
q-76 0 -160 7t-136.5 16t-57.5 14q-2 22 3 79t18.5 165t21 166.5t27 202t20.5 153.5z" />
    <glyph glyph-name="bracketright.cap" horiz-adv-x="688" 
d="M492 672q-22 -193 -65.5 -501.5t-66.5 -412.5q-14 -8 -152 -21.5t-208 -12.5q-16 30 -6 94q0 11 8 15t35 9q46 5 137 23q26 5 35 47q0 3 6 40.5t14.5 99.5t20.5 148t29.5 214.5t35.5 271.5q70 530 70 610q0 35 -39 41q-80 13 -131 19q-23 3 -18 33q7 45 30 84
q71 0 155.5 -7t139 -16t60.5 -14q-1 -53 -14 -167t-38.5 -305t-37.5 -292z" />
    <glyph glyph-name="parenleft.cap" horiz-adv-x="688" 
d="M117 492q1 322 133 590t362 431q43 -9 75.5 -39t27.5 -53q-408 -364 -408 -895q0 -211 50 -410t161 -329q-6 -30 -44.5 -56t-72.5 -28q-71 55 -127.5 152.5t-89.5 208.5t-50 221t-17 207z" />
    <glyph glyph-name="parenright.cap" horiz-adv-x="688" 
d="M596 723q-1 -327 -134 -594.5t-366 -425.5q-41 8 -71 42t-27 58q408 358 408 887q0 134 -18 261t-66.5 260t-124.5 221q4 29 43.5 55t70.5 26q94 -74 162 -220.5t96 -293t27 -276.5z" />
    <glyph glyph-name="periodcentered.cap" horiz-adv-x="395" 
d="M217 766q55 0 87 -36t32 -91q0 -66 -39 -108t-100 -42q-54 0 -87.5 34t-33.5 89q0 71 37 112.5t104 41.5z" />
    <glyph glyph-name="acute.cap" horiz-adv-x="870" 
d="M635 1645q37 -8 62.5 -45.5t37.5 -77.5q8 -26 -28 -37q-53 -16 -353 -125q-17 17 -37 49q-12 22 -9.5 34.5t20.5 26.5q68 58 166 116.5t141 58.5z" />
    <glyph glyph-name="cedilla.cap" horiz-adv-x="870" 
d="M367 8h135l-88 -108q54 -19 86 -59t32 -87q0 -54 -28 -98t-72.5 -71t-93.5 -42t-98 -18q-18 7 -33 32.5t-17 43.5q0 18 19 26q84 18 117.5 40t33.5 54q0 34 -41.5 53.5t-101.5 14.5l4 45z" />
    <glyph glyph-name="dieresis.cap" horiz-adv-x="870" 
d="M332 1593q45 0 73.5 -32.5t28.5 -77.5q-1 -58 -35.5 -91.5t-87.5 -33.5q-46 0 -76.5 29t-29.5 83q2 53 36 88t91 35zM711 1593q46 0 72 -31.5t24 -78.5q0 -56 -34 -90.5t-87 -34.5q-43 0 -73.5 29t-30.5 83q2 53 37 88t92 35z" />
    <glyph glyph-name="grave.cap" horiz-adv-x="870" 
d="M326 1667q28 0 131.5 -68t165.5 -124q34 -27 12 -68q-18 -32 -33 -47q-28 12 -98.5 45t-137.5 62t-122 49q-25 8 -17 38q13 42 41.5 77.5t57.5 35.5z" />
    <glyph glyph-name="macron.cap" horiz-adv-x="870" 
d="M719 1358h-420q-29 0 -29 33q1 28 16 73.5t25 55.5h428q25 0 25 -27q0 -31 -15 -72.5t-30 -62.5z" />
    <glyph glyph-name="tilde.cap" horiz-adv-x="870" 
d="M430 1632q66 0 125 -69q3 -4 9 -11l9 -10.5t7.5 -8.5t7.5 -7.5t6.5 -5t7 -3.5t6.5 -1q31 0 45 96q3 20 19 20t47 -8.5t47 -19.5q-11 -244 -145 -244q-25 0 -49 12t-39 25.5t-41 40.5q-25 27 -36.5 36t-25.5 9q-30 0 -47 -94q-3 -21 -14 -21q-18 0 -53.5 5.5t-47.5 10.5
q7 248 162 248z" />
    <glyph glyph-name="c_t" horiz-adv-x="1425" 
d="M580 926h22q12 145 113 220t268 75q35 0 136 -3.5t159 -3.5q-38 -107 -80 -335q36 1 83.5 1t72.5 0.5t49.5 1.5t36.5 3q-17 -101 -70 -135q-11 -6 -27 -10t-48.5 -5.5t-49 -1.5h-69.5q-15 -86 -42 -270.5t-30 -202.5q-19 -115 47 -115q81 0 190 103l5 -2
q11 -35 -0.5 -89.5t-36.5 -78.5q-50 -49 -118 -76t-138 -27q-207 0 -164 285q12 76 39.5 245t36.5 228h-125q0 41 23 93.5t55 52.5h67q29 132 64 194q-54 4 -97 4q-99 0 -152.5 -50t-70.5 -130q3 -2 9 -5.5t10 -6.5t6 -6q2 -25 -8 -56t-26 -52.5t-30 -20.5q-61 22 -117 22
q-134 0 -219.5 -122t-85.5 -302q0 -198 144 -198q72 0 141.5 36.5t122.5 87.5q12 -8 21.5 -28t9.5 -43q0 -60 -43 -103q-55 -57 -140.5 -91t-189.5 -34q-135 0 -215 82t-80 254q0 170 68.5 310.5t193 222.5t279.5 82z" />
    <glyph glyph-name="s_p" horiz-adv-x="1724" 
d="M1042 662h5q29 46 65 88t85.5 84t113.5 67t131 25q104 0 161.5 -87t57.5 -216q0 -84 -17.5 -170.5t-58 -173t-99.5 -153.5t-150.5 -109t-202.5 -42q-113 0 -185 66q-9 -69 -29 -192.5t-26 -165.5q-12 -82 -51 -93q-81 -24 -185 -28q84 508 191 1239q15 109 49 291
q-11 0 -40 2t-46 2q-190 0 -221 -205q20 -10 39 -29q-2 -45 -33.5 -84.5t-69.5 -25.5q-68 22 -106 22q-55 0 -89 -26t-34 -72q0 -35 31 -66t139 -110q72 -53 103.5 -105t31.5 -121q0 -52 -24.5 -104.5t-69 -96t-115 -71t-153.5 -27.5q-71 0 -132 24t-85 58
q-14 24 -14.5 61.5t11 63.5t29.5 19q47 -28 105.5 -47t107.5 -19q59 0 93 25.5t34 66.5q0 32 -31.5 67t-126.5 103q-76 56 -107.5 108.5t-31.5 117.5q0 127 96.5 215t247.5 88h31q9 149 107.5 231t265.5 82q10 0 77 -2t120.5 -3t105.5 1q-28 -106 -101 -573zM1346 741
q-66 0 -142 -68t-136.5 -183t-80.5 -240q-10 -45 -10 -57q62 -62 141 -62q77 0 139.5 45.5t99.5 116.5t56 150.5t19 156.5q0 65 -23.5 103t-62.5 38z" />
    <glyph glyph-name="aacute.end" horiz-adv-x="1312" 
d="M37 260q0 120 45 257t151 245q159 164 420 164q24 0 52.5 -2.5t64.5 -9t58 -10.5t63.5 -12.5t50.5 -10.5q-15 -63 -49 -292t-51 -384q-3 -33 5.5 -46.5t31.5 -21.5q34 -10 88 -10q41 0 72.5 10t59 35t44.5 72.5t22 117.5q38 7 83 -10t46 -47q2 -43 -5 -84t-33.5 -88
t-70 -81.5t-123 -57.5t-185.5 -23q-89 0 -133.5 7.5t-81.5 27.5q-45 27 -37 127q16 100 16 127q-69 -128 -183.5 -206.5t-234.5 -78.5q-87 0 -136.5 73.5t-49.5 211.5zM334 154q47 0 103 40.5t108.5 110t96.5 174.5t63 223q2 25 10 60q-46 16 -92 16q-152 0 -248 -125
q-56 -77 -85.5 -173t-29.5 -193q0 -61 19.5 -97t54.5 -36zM713 1405q76 0 141 -57q10 -8 9.5 -16.5t-13.5 -24.5q-60 -69 -213 -275q-34 6 -72 31q-21 14 -6 55q101 285 154 287z" />
    <glyph glyph-name="acircumflex.end" horiz-adv-x="1312" 
d="M37 260q0 120 45 257t151 245q159 164 420 164q24 0 52.5 -2.5t64.5 -9t58 -10.5t63.5 -12.5t50.5 -10.5q-15 -63 -49 -292t-51 -384q-3 -33 5.5 -46.5t31.5 -21.5q34 -10 88 -10q41 0 72.5 10t59 35t44.5 72.5t22 117.5q38 7 83 -10t46 -47q2 -43 -5 -84t-33.5 -88
t-70 -81.5t-123 -57.5t-185.5 -23q-89 0 -133.5 7.5t-81.5 27.5q-45 27 -37 127q16 100 16 127q-69 -128 -183.5 -206.5t-234.5 -78.5q-87 0 -136.5 73.5t-49.5 211.5zM334 154q47 0 103 40.5t108.5 110t96.5 174.5t63 223q2 25 10 60q-46 16 -92 16q-152 0 -248 -125
q-56 -77 -85.5 -173t-29.5 -193q0 -61 19.5 -97t54.5 -36zM500 1044q-51 0 -111 27q147 194 201 283q20 27 45 32q44 9 80 9q67 -129 176 -314q-77 -37 -105 -37t-36 19q-70 110 -95 160q-56 -88 -110 -150q-19 -29 -45 -29z" />
    <glyph glyph-name="adieresis.end" horiz-adv-x="1312" 
d="M37 260q0 120 45 257t151 245q159 164 420 164q24 0 52.5 -2.5t64.5 -9t58 -10.5t63.5 -12.5t50.5 -10.5q-15 -63 -49 -292t-51 -384q-3 -33 5.5 -46.5t31.5 -21.5q34 -10 88 -10q41 0 72.5 10t59 35t44.5 72.5t22 117.5q38 7 83 -10t46 -47q2 -43 -5 -84t-33.5 -88
t-70 -81.5t-123 -57.5t-185.5 -23q-89 0 -133.5 7.5t-81.5 27.5q-45 27 -37 127q16 100 16 127q-69 -128 -183.5 -206.5t-234.5 -78.5q-87 0 -136.5 73.5t-49.5 211.5zM334 154q47 0 103 40.5t108.5 110t96.5 174.5t63 223q2 25 10 60q-46 16 -92 16q-152 0 -248 -125
q-56 -77 -85.5 -173t-29.5 -193q0 -61 19.5 -97t54.5 -36zM477 1325q41 0 66.5 -30t25.5 -72q0 -52 -32 -83.5t-82 -31.5q-39 0 -66 27t-27 77q0 48 31.5 80.5t83.5 32.5zM825 1325q43 0 69 -29.5t26 -72.5q0 -53 -31.5 -84t-81.5 -31q-39 0 -66.5 26.5t-27.5 77.5
q0 48 30 80.5t82 32.5z" />
    <glyph glyph-name="agrave.end" horiz-adv-x="1312" 
d="M37 260q0 120 45 257t151 245q159 164 420 164q24 0 52.5 -2.5t64.5 -9t58 -10.5t63.5 -12.5t50.5 -10.5q-15 -63 -49 -292t-51 -384q-3 -33 5.5 -46.5t31.5 -21.5q34 -10 88 -10q41 0 72.5 10t59 35t44.5 72.5t22 117.5q38 7 83 -10t46 -47q2 -43 -5 -84t-33.5 -88
t-70 -81.5t-123 -57.5t-185.5 -23q-89 0 -133.5 7.5t-81.5 27.5q-45 27 -37 127q16 100 16 127q-69 -128 -183.5 -206.5t-234.5 -78.5q-87 0 -136.5 73.5t-49.5 211.5zM334 154q47 0 103 40.5t108.5 110t96.5 174.5t63 223q2 25 10 60q-46 16 -92 16q-152 0 -248 -125
q-56 -77 -85.5 -173t-29.5 -193q0 -61 19.5 -97t54.5 -36zM635 1411q28 -4 74.5 -111t68.5 -196q8 -34 -16 -47q-30 -19 -70 -23q-109 181 -213 295q-7 5 -5 17t13 22q29 21 70 34t78 9z" />
    <glyph glyph-name="aring.end" horiz-adv-x="1312" 
d="M37 260q0 120 45 257t151 245q159 164 420 164q24 0 52.5 -2.5t64.5 -9t58 -10.5t63.5 -12.5t50.5 -10.5q-15 -63 -49 -292t-51 -384q-3 -33 5.5 -46.5t31.5 -21.5q34 -10 88 -10q41 0 72.5 10t59 35t44.5 72.5t22 117.5q38 7 83 -10t46 -47q2 -43 -5 -84t-33.5 -88
t-70 -81.5t-123 -57.5t-185.5 -23q-89 0 -133.5 7.5t-81.5 27.5q-45 27 -37 127q16 100 16 127q-69 -128 -183.5 -206.5t-234.5 -78.5q-87 0 -136.5 73.5t-49.5 211.5zM334 154q47 0 103 40.5t108.5 110t96.5 174.5t63 223q2 25 10 60q-46 16 -92 16q-152 0 -248 -125
q-56 -77 -85.5 -173t-29.5 -193q0 -61 19.5 -97t54.5 -36zM651 1384q77 0 125.5 -47t48.5 -120q0 -85 -57.5 -139t-144.5 -54q-72 0 -121 43.5t-49 124.5q0 84 55 138t143 54zM647 1290q-35 0 -57.5 -28.5t-22.5 -63.5q0 -36 18.5 -57t49.5 -21q35 0 56.5 25.5t21.5 62.5
q0 36 -16 59t-50 23z" />
    <glyph glyph-name="atilde.end" horiz-adv-x="1312" 
d="M37 260q0 120 45 257t151 245q159 164 420 164q24 0 52.5 -2.5t64.5 -9t58 -10.5t63.5 -12.5t50.5 -10.5q-15 -63 -49 -292t-51 -384q-3 -33 5.5 -46.5t31.5 -21.5q34 -10 88 -10q41 0 72.5 10t59 35t44.5 72.5t22 117.5q38 7 83 -10t46 -47q2 -43 -5 -84t-33.5 -88
t-70 -81.5t-123 -57.5t-185.5 -23q-89 0 -133.5 7.5t-81.5 27.5q-45 27 -37 127q16 100 16 127q-69 -128 -183.5 -206.5t-234.5 -78.5q-87 0 -136.5 73.5t-49.5 211.5zM334 154q47 0 103 40.5t108.5 110t96.5 174.5t63 223q2 25 10 60q-46 16 -92 16q-152 0 -248 -125
q-56 -77 -85.5 -173t-29.5 -193q0 -61 19.5 -97t54.5 -36zM561 1370q63 0 123 -70q35 -47 55 -47q29 0 43 97q3 20 21 20q15 0 46.5 -9t45.5 -20q-4 -128 -40 -187.5t-103 -59.5q-36 0 -64.5 20t-64.5 60q-39 45 -62 45q-31 -3 -47 -95q-3 -20 -14 -20q-18 0 -54.5 5.5
t-48.5 10.5q11 250 164 250z" />
    <glyph glyph-name="eacute.end" horiz-adv-x="1202" 
d="M547 926q100 0 162.5 -54t62.5 -147q0 -83 -51 -139q206 -15 223 -15q111 0 148.5 54t37.5 190q29 0 55.5 -4.5t50 -19t24.5 -37.5q3 -52 -5.5 -98t-32.5 -89.5t-62.5 -74.5t-100 -49.5t-141.5 -18.5q-19 0 -182.5 10t-223.5 10q-193 0 -246 -32q-6 -48 -6 -74
q0 -88 36.5 -141.5t111.5 -53.5q145 0 290 138q10 -8 18.5 -30.5t8.5 -47.5q0 -48 -31 -84q-126 -144 -344 -144q-152 0 -230.5 86.5t-78.5 251.5q0 115 35 224.5t98.5 196.5t160.5 139.5t212 52.5zM502 797q-67 0 -132.5 -70t-84.5 -178q74 41 235 41q62 40 62 115
q0 92 -80 92zM608 1405q40 0 79 -17t63 -40q11 -9 10.5 -16.5t-12.5 -24.5q-29 -32 -63 -74.5t-54.5 -70.5t-54.5 -74.5t-41 -55.5q-40 7 -72 31q-21 14 -6 55q73 207 115 261q20 25 36 26z" />
    <glyph glyph-name="ecircumflex.end" horiz-adv-x="1202" 
d="M547 926q100 0 162.5 -54t62.5 -147q0 -83 -51 -139q206 -15 223 -15q111 0 148.5 54t37.5 190q29 0 55.5 -4.5t50 -19t24.5 -37.5q3 -52 -5.5 -98t-32.5 -89.5t-62.5 -74.5t-100 -49.5t-141.5 -18.5q-19 0 -182.5 10t-223.5 10q-193 0 -246 -32q-6 -48 -6 -74
q0 -88 36.5 -141.5t111.5 -53.5q145 0 290 138q10 -8 18.5 -30.5t8.5 -47.5q0 -48 -31 -84q-126 -144 -344 -144q-152 0 -230.5 86.5t-78.5 251.5q0 115 35 224.5t98.5 196.5t160.5 139.5t212 52.5zM502 797q-67 0 -132.5 -70t-84.5 -178q74 41 235 41q62 40 62 115
q0 92 -80 92zM373 1044q-49 0 -109 27q147 194 201 283q16 26 43 32q46 9 82 9q67 -129 176 -314q-77 -37 -107 -37q-28 0 -36 19q-10 16 -29 46.5t-35.5 58.5t-30.5 55q-62 -97 -108 -150q-19 -29 -47 -29z" />
    <glyph glyph-name="edieresis.end" horiz-adv-x="1202" 
d="M547 926q100 0 162.5 -54t62.5 -147q0 -83 -51 -139q206 -15 223 -15q111 0 148.5 54t37.5 190q29 0 55.5 -4.5t50 -19t24.5 -37.5q3 -52 -5.5 -98t-32.5 -89.5t-62.5 -74.5t-100 -49.5t-141.5 -18.5q-19 0 -182.5 10t-223.5 10q-193 0 -246 -32q-6 -48 -6 -74
q0 -88 36.5 -141.5t111.5 -53.5q145 0 290 138q10 -8 18.5 -30.5t8.5 -47.5q0 -48 -31 -84q-126 -144 -344 -144q-152 0 -230.5 86.5t-78.5 251.5q0 115 35 224.5t98.5 196.5t160.5 139.5t212 52.5zM502 797q-67 0 -132.5 -70t-84.5 -178q74 41 235 41q62 40 62 115
q0 92 -80 92zM367 1325q43 0 68.5 -30t25.5 -72q0 -52 -32.5 -83.5t-82.5 -31.5q-39 0 -65.5 27t-26.5 77q0 47 31 80t82 33zM717 1325q42 0 68 -30t26 -72q0 -53 -31.5 -84t-81.5 -31q-39 0 -66.5 26.5t-27.5 77.5q0 48 30.5 80.5t82.5 32.5z" />
    <glyph glyph-name="egrave.end" horiz-adv-x="1202" 
d="M547 926q100 0 162.5 -54t62.5 -147q0 -83 -51 -139q206 -15 223 -15q111 0 148.5 54t37.5 190q29 0 55.5 -4.5t50 -19t24.5 -37.5q3 -52 -5.5 -98t-32.5 -89.5t-62.5 -74.5t-100 -49.5t-141.5 -18.5q-19 0 -182.5 10t-223.5 10q-193 0 -246 -32q-6 -48 -6 -74
q0 -88 36.5 -141.5t111.5 -53.5q145 0 290 138q10 -8 18.5 -30.5t8.5 -47.5q0 -48 -31 -84q-126 -144 -344 -144q-152 0 -230.5 86.5t-78.5 251.5q0 115 35 224.5t98.5 196.5t160.5 139.5t212 52.5zM502 797q-67 0 -132.5 -70t-84.5 -178q74 41 235 41q62 40 62 115
q0 92 -80 92zM518 1411q28 -4 76 -113t68 -194q8 -33 -17 -47q-31 -20 -70 -23q-38 66 -97 149t-116 146q-7 5 -4.5 17t15.5 22q27 21 67.5 34t77.5 9z" />
    </font>
</defs>
</svg>
