<?xml version="1.0" standalone="no"?>
<!DOCTYPE svg PUBLIC "-//W3C//DTD SVG 1.1//EN" "http://www.w3.org/Graphics/SVG/1.1/DTD/svg11.dtd" >
<svg xmlns="http://www.w3.org/2000/svg" xmlns:xlink="http://www.w3.org/1999/xlink" version="1.1">
<metadata>
Created by FontForge 20170731 at Fri Jan 15 15:03:24 2021
 By Aleksey,,,
(c) 1996, 2001 Adobe Systems Incorporated. All rights reserved.
</metadata>
<defs>
<font id="CronosPro-SemiboldSubh" horiz-adv-x="632" >
  <font-face 
    font-family="Cronos Pro Light Subhead"
    font-weight="600"
    font-stretch="normal"
    units-per-em="2048"
    panose-1="2 12 6 2 3 6 3 2 3 4"
    ascent="1536"
    descent="-512"
    x-height="913"
    cap-height="1286"
    bbox="-389 -512 2271.97 1812.15"
    underline-thickness="102"
    underline-position="-307"
    unicode-range="U+0020-E006"
  />
<missing-glyph horiz-adv-x="1024" 
d="M0 0v1434h1024v-1434h-1024zM512 809l348 522h-696zM573 717l349 -522v1044zM164 102h696l-348 523zM102 1239v-1044l349 522z" />
    <glyph glyph-name="fi" unicode="fi" horiz-adv-x="1073" 
d="M948 780v-731q0 -30 -12 -41t-47 -14q-70 -6 -189 -6q7 287 7 319v447q-54 -6 -322 -9q0 -98 4 -397t4 -348q-79 -12 -225 -12q-17 0 -23 4t-6 20q3 77 4 175.5t1 172t-0.5 196.5t-0.5 189q-118 0 -118 62q30 33 51.5 49.5t66.5 44.5q0 274 183 414q116 88 288 88
q137 0 215 -62q22 -29 13 -73q-14 -60 -56 -80q-83 49 -178 49q-104 0 -163 -80.5t-56 -255.5q189 0 330 2q50 0 116 8.5t76 8.5q22 0 29.5 -26.5t7.5 -113.5z" />
    <glyph glyph-name="fl" unicode="fl" horiz-adv-x="1073" 
d="M707 14v748q-69 -17 -322 -17q0 -99 4 -396.5t4 -344.5q-85 -16 -225 -16q-16 0 -22.5 5.5t-6.5 22.5q3 75 4 172t1 170.5t-0.5 197t-0.5 189.5q-49 0 -83.5 18t-34.5 46q13 18 27.5 31t23 19t32.5 20.5t35 21.5q0 143 40.5 237.5t121.5 164.5q56 50 129.5 75t147.5 25
q91 0 166 -33q104 33 161 33q17 0 24.5 -7.5t11 -33t3.5 -82.5v-1010q0 -156 8 -266q-28 -7 -102 -11.5t-121 -4.5q-14 0 -20 5.5t-6 20.5zM707 901v275q0 35 -13 45q-46 32 -116 32q-92 0 -142 -90t-49 -262q3 0 43.5 -0.5t84.5 -0.5h100t92 1z" />
    <glyph glyph-name="f_f" unicode="ff" horiz-adv-x="1144" 
d="M721 750h-336q0 -98 4 -399.5t4 -350.5q-79 -12 -225 -12q-17 0 -23 5.5t-6 22.5q4 145 4 734q-118 0 -118 65q15 17 29.5 29t24 18t30 18t34.5 21q3 227 168 363q121 98 312 98q72 0 136.5 -19.5t104.5 -50.5q100 111 258 111q54 0 97.5 -15t58.5 -34q5 -43 -27.5 -88.5
t-70.5 -34.5q-34 10 -72 10q-62 0 -102.5 -84t-34.5 -256q194 0 239 4q-8 -59 -22.5 -85t-38.5 -44q-39 -26 -186 -26q0 -98 4 -400t4 -350q-79 -12 -226 -12q-16 0 -22 6t-6 24q9 264 4 732zM391 901h330q0 74 15 148t38 114q-49 49 -160 49q-113 0 -168 -84.5t-55 -226.5z
" />
    <glyph glyph-name="f_f_i" unicode="ffi" horiz-adv-x="1662" 
d="M721 750h-336q0 -98 4 -399.5t4 -350.5q-79 -12 -225 -12q-18 0 -23.5 4t-5.5 20q4 147 4 738q-62 3 -90 19t-28 50q42 51 118 82q0 227 172 365q119 96 310 96q154 0 249 -74q121 115 310 115q75 0 144.5 -23.5t84.5 -54.5q5 -40 -28.5 -86t-71.5 -29q-67 31 -142 31
q-43 0 -77.5 -14.5t-65 -50t-47 -105.5t-16.5 -170q209 0 346 2q46 0 112.5 9.5t77.5 9.5q24 0 31.5 -21.5t7.5 -103.5v-748q0 -28 -12 -38t-47 -15q-63 -8 -191 -8q6 246 6 319v447q-25 -4 -333 -4q0 -98 4 -399.5t4 -350.5q-79 -12 -226 -12q-17 0 -22.5 4t-5.5 20
q9 272 4 738zM389 901h332q4 168 53 256q-53 53 -162 53q-114 0 -169.5 -85t-53.5 -224z" />
    <glyph glyph-name="f_f_l" unicode="ffl" horiz-adv-x="1665" 
d="M721 750h-336q0 -98 5 -399.5t5 -350.5q-79 -12 -227 -12q-17 0 -23 4t-6 20q3 77 4 176t1 173.5t-0.5 198t-0.5 188.5q-118 3 -118 69q39 48 118 82q0 227 170 365q121 98 322 98q69 0 134.5 -19t102.5 -49q115 109 287 109q53 0 106 -11.5t83 -29.5q112 41 153 41
q16 0 23 -7.5t10.5 -35.5t3.5 -90v-1000q0 -172 10 -270q-52 -12 -223 -12q-29 0 -29 22v756q-60 -16 -333 -16q0 -98 4 -399.5t4 -350.5q-79 -12 -226 -12q-28 0 -28 24q9 274 4 738zM1290 901v268q0 35 -8 41q-45 39 -123 39q-196 0 -196 -348q3 0 44.5 -0.5t87 -0.5
h102.5t93 1zM389 901h332q3 153 51 262q-21 21 -65.5 35t-92.5 14q-112 0 -168.5 -84.5t-56.5 -226.5z" />
    <glyph glyph-name="f_j" unicode="fj" horiz-adv-x="1073" 
d="M707 254v496q-34 -2 -322 -2q0 -99 5 -399t5 -349q-79 -12 -227 -12q-17 0 -23 4t-6 20q3 77 4 175.5t1 172.5t-0.5 198t-0.5 190q-118 0 -118 59q21 24 40.5 40.5t30.5 24t47 29.5q0 273 183 414q117 88 288 88q65 0 125 -20t95 -46q28 -30 10 -85t-53 -66
q-100 53 -185 53q-222 0 -219 -338q191 0 332 2q49 1 114.5 9t77.5 8q22 0 29.5 -26.5t7.5 -113.5v-604q0 -170 -23 -280.5t-79 -186.5q-55 -72 -126.5 -109.5t-125.5 -37.5q-36 0 -64.5 29t-37.5 73l4 6q52 19 86.5 45t60 67t39 106t19.5 151.5t6 214.5z" />
    <glyph glyph-name="f_f_j" unicode="ffj" horiz-adv-x="1662" 
d="M1296 258v496q-35 -4 -333 -4q0 -98 4 -399.5t4 -350.5q-79 -12 -226 -12q-17 0 -22.5 4t-5.5 20q9 273 4 738h-336q0 -98 4 -399.5t4 -350.5q-79 -12 -225 -12q-18 0 -23.5 4t-5.5 20q4 147 4 738q-62 3 -90 19t-28 50q40 51 118 82q7 235 170 363q119 98 316 98
q147 0 245 -76q126 117 314 117q70 0 140 -25t85 -55q5 -43 -29.5 -88t-72.5 -29q-75 35 -140 35q-206 0 -206 -340q209 0 346 2q46 0 113.5 9.5t76.5 9.5q24 0 31.5 -21.5t7.5 -103.5l-2 -621q0 -170 -23 -280.5t-79 -186.5q-55 -72 -126.5 -109.5t-125.5 -37.5
q-36 0 -65 30t-38 74l2 4q86 31 130 89t63.5 173t19.5 326zM389 901h332q0 154 53 252q-23 23 -69.5 40t-96.5 17q-77 0 -128 -43t-71.5 -110t-19.5 -156z" />
    <glyph glyph-name="T_h" unicode="Th" horiz-adv-x="2048" 
d="M1352 1253v-450q137 123 286 123q137 0 211 -97.5t74 -255.5v-284q0 -183 6 -285q-115 -16 -209 -16q-21 0 -30 9.5t-9 31.5v534q0 87 -43.5 136t-111.5 49q-45 0 -92.5 -20t-81.5 -54v-621q0 -29 -8 -40t-37 -15q-87 -10 -203 -10q6 159 6 370v762h-405v-866
q0 -127 6 -250q-91 -16 -215 -16q-23 0 -33 7.5t-10 29.5v1095h-383q-27 0 -35 13t2 47q8 27 21.5 51t20 32t23.5 27q41 -10 299 -10h705q0 34 -4 74q31 12 105.5 24.5t107.5 12.5q16 0 23 -8t10.5 -37t3.5 -93z" />
    <glyph glyph-name=".notdef" horiz-adv-x="1024" 
d="M0 0v1434h1024v-1434h-1024zM512 809l348 522h-696zM573 717l349 -522v1044zM164 102h696l-348 523zM102 1239v-1044l349 522z" />
    <glyph glyph-name=".null" horiz-adv-x="0" 
 />
    <glyph glyph-name="nonmarkingreturn" horiz-adv-x="682" 
 />
    <glyph glyph-name="space" unicode=" " horiz-adv-x="395" 
 />
    <glyph glyph-name="space" unicode="&#xa0;" horiz-adv-x="395" 
 />
    <glyph glyph-name="exclam" unicode="!" horiz-adv-x="442" 
d="M322 1243q26 0 35.5 -9.5t9.5 -45.5q0 -80 -25 -349t-37 -350q-6 -38 -45 -53q-86 -22 -98 -22q-62 682 -62 774q4 13 89 34t133 21zM229 264q58 0 92.5 -41t34.5 -100q0 -66 -38.5 -106t-102.5 -40q-51 0 -92 36.5t-41 103.5q0 64 38.5 105.5t108.5 41.5z" />
    <glyph glyph-name="quotedbl" unicode="&#x22;" horiz-adv-x="663" 
d="M229 1399q38 0 49.5 -25.5t8.5 -85.5q-3 -71 -23 -164.5t-41 -142.5q-13 -19 -51.5 -37.5t-75.5 -19.5q-4 272 -33 430q28 16 80 30.5t86 14.5zM543 1399q28 0 41.5 -13t15.5 -38t0 -60q-3 -73 -22 -166.5t-41 -140.5q-13 -19 -51.5 -37.5t-75.5 -19.5q-5 294 -33 430
q30 16 81 30.5t85 14.5z" />
    <glyph glyph-name="numbersign" unicode="#" horiz-adv-x="983" 
d="M164 973h155l56 233q72 25 119 25q22 0 14 -33l-49 -225h170l53 233q50 25 117 25q3 0 5 -0.5t3.5 -1.5t2.5 -2.5t1.5 -3.5t1 -3.5t0.5 -5v-5v-5.5v-6l-47 -225h102q43 0 33 -43q-15 -76 -35 -115h-133l-51 -237h123q41 0 33 -37q-13 -81 -35 -121h-158l-57 -287
q-6 -8 -44.5 -17.5t-66.5 -9.5t-20 33l59 281h-176l-59 -283q-3 -18 -10 -24.5t-21 -6.5q-12 0 -105 39l64 275l-123 2q-23 0 -29.5 8t-1.5 31q9 64 33 117h150l53 237h-129q-25 0 -32 7t-3 32q12 71 37 119zM596 815h-170l-51 -237h170z" />
    <glyph glyph-name="dollar" unicode="$" horiz-adv-x="983" 
d="M641 1346l-23 -168q56 -3 123.5 -26.5t106.5 -57.5q0 -39 -25 -78.5t-63 -40.5q-122 61 -215 61q-87 0 -127.5 -40t-40.5 -89q0 -60 49 -104t188 -123q125 -70 169 -106q103 -95 106 -226q0 -67 -21 -122.5t-54.5 -92t-78.5 -64t-89 -41.5t-91 -20l-16 -151
q-3 -33 -50 -39q-75 -10 -120 -8l20 190q-74 6 -144 33.5t-112 62.5q-21 23 -18.5 78t28.5 76q10 16 27 6q54 -42 140.5 -72t160.5 -30q91 0 137.5 39.5t46.5 101.5q0 61 -53 105.5t-192 119.5q-135 74 -196.5 150t-61.5 186q0 63 21.5 116.5t55 88.5t75.5 60.5t80.5 37.5
t72.5 15l16 110q6 41 41 49q56 13 127 13z" />
    <glyph glyph-name="percent" unicode="%" horiz-adv-x="1425" 
d="M1145 1200q-52 -85 -185.5 -306.5t-279.5 -461.5t-287 -467q-11 -18 -20.5 -24t-15.5 -4.5t-17 8.5q-46 32 -61 69q199 320 759 1252q11 23 43 4q49 -24 64 -70zM358 1233q132 0 206.5 -90t74.5 -248q0 -88 -30.5 -163.5t-97 -126t-157.5 -50.5q-131 0 -212 85t-81 251
q0 57 17 114.5t51 109.5t93.5 85t135.5 33zM348 1120q-51 0 -79.5 -58.5t-28.5 -168.5q0 -104 28.5 -164.5t85.5 -60.5q54 0 80.5 61t26.5 162q0 63 -9.5 111.5t-35.5 83t-68 34.5zM1083 653q133 0 207 -89t74 -251q0 -88 -31 -163t-97.5 -125t-156.5 -50q-131 0 -212 83
t-81 251q0 58 17 115.5t51 110t93.5 85.5t135.5 33zM1071 541q-49 0 -77.5 -61t-28.5 -167t28.5 -165.5t85.5 -59.5q107 0 107 223q0 230 -115 230z" />
    <glyph glyph-name="ampersand" unicode="&#x26;" horiz-adv-x="1355" 
d="M1296 16l-2 -6q-88 -35 -225 -35q-47 0 -84 37q-5 5 -143 131q-155 -168 -367 -168q-179 0 -286 95.5t-107 259.5q0 58 19 107t62.5 91t67.5 60t78 54q4 3 6.5 4.5t6 4t6.5 4.5q-123 126 -123 281q0 136 94 228.5t242 92.5q139 0 228 -72.5t89 -213.5q0 -26 -4.5 -50.5
t-15.5 -46.5t-20 -39t-29.5 -37.5t-31 -31.5t-37 -30t-35 -25t-37.5 -25t-34 -22q49 -45 145 -135t113 -105q102 209 181 350q43 68 86 68q93 0 149 -49v-7q-90 -93 -303 -475q94 -83 162.5 -148.5t106.5 -104t42 -42.5zM412 969q0 -109 118 -221q132 91 129 219
q0 73 -35 114t-89 41t-88.5 -39t-34.5 -114zM547 150q55 0 107 23.5t87 68.5q-23 23 -98.5 95.5t-138.5 135t-90 94.5q-40 -28 -69.5 -79t-29.5 -113q0 -91 62.5 -158t169.5 -67z" />
    <glyph glyph-name="quotesingle" unicode="'" horiz-adv-x="348" 
d="M229 1399q37 0 49 -25.5t9 -85.5q-3 -71 -23 -165.5t-41 -143.5q-14 -17 -53 -35.5t-76 -19.5q-5 284 -31 430q28 16 80 30.5t86 14.5z" />
    <glyph glyph-name="parenleft" unicode="(" horiz-adv-x="684" 
d="M102 502q0 303 110 542.5t304 389.5q35 -10 59 -52t15 -75q-146 -148 -224.5 -350t-78.5 -431q0 -240 80.5 -445t222.5 -333q-6 -54 -38.5 -91t-55.5 -34q-123 70 -215 220.5t-135.5 321t-43.5 337.5z" />
    <glyph glyph-name="parenright" unicode=")" horiz-adv-x="684" 
d="M596 557q0 -290 -105 -533t-305 -401q-33 13 -58 49.5t-19 77.5q146 148 224.5 349t78.5 431q0 240 -80.5 445.5t-222.5 333.5q6 54 37.5 91t56.5 34q158 -92 275.5 -337t117.5 -540z" />
    <glyph glyph-name="asterisk" unicode="*" horiz-adv-x="757" 
d="M352 1092l-10 264q45 14 109 6q29 -4 42.5 -17t8.5 -32l-72 -219l201 149q50 -44 61 -110q10 -53 -33 -64l-196 -47l199 -92q48 -23 28 -72q-13 -29 -39 -56t-49 -38l-188 192l18 -258q-54 -12 -131 2q-49 9 -27 72l64 193l-205 -158q-22 11 -41.5 45.5t-25.5 67.5
q-11 39 16 51l219 61l-188 88q-51 21 -29 66q27 52 92 96z" />
    <glyph glyph-name="plus" unicode="+" horiz-adv-x="1169" 
d="M500 436h-375q2 87 15.5 121.5t49.5 34.5h310v192q0 112 -6 168l124 11q32 3 41 -11t9 -61v-299h374q0 -86 -14 -121t-53 -35h-307v-354q0 -26 -19.5 -40.5t-75.5 -18.5l-73 -5v418z" />
    <glyph glyph-name="comma" unicode="," horiz-adv-x="403" 
d="M256 305q37 0 56.5 -38.5t19.5 -90.5q0 -92 -57.5 -190.5t-131.5 -151.5q-67 -47 -186 -43q141 175 141 373q0 44 -12 90q104 51 170 51z" />
    <glyph glyph-name="hyphen" unicode="-" horiz-adv-x="624" 
d="M555 629l2 -6q-8 -70 -36 -126.5t-68 -64.5q-68 -26 -196.5 -51.5t-186.5 -24.5l-7 6q10 73 33.5 123.5t42.5 53.5q332 65 416 90z" />
    <glyph glyph-name="period" unicode="." horiz-adv-x="403" 
d="M209 268q59 0 94 -41.5t35 -101.5q0 -68 -38.5 -108t-102.5 -40q-51 0 -91 37t-40 105q0 64 37.5 106.5t105.5 42.5z" />
    <glyph glyph-name="slash" unicode="/" horiz-adv-x="761" 
d="M688 1313l-412 -1432q-13 -41 -30.5 -53.5t-61.5 -15.5l-104 -5l422 1446q8 30 22 42.5t51 13.5z" />
    <glyph glyph-name="zero" unicode="0" horiz-adv-x="983" 
d="M508 1233q76 0 138.5 -23.5t105.5 -61t75.5 -91t51 -108t30 -118t15.5 -114.5t4 -103q0 -314 -116 -476.5t-327 -162.5q-67 0 -127 18.5t-116.5 64t-97 114.5t-65 178.5t-24.5 247.5q0 91 14 177.5t48 170.5t84.5 147t129.5 101.5t177 38.5zM489 1092q-39 0 -71.5 -26.5
t-58 -81.5t-40 -149t-14.5 -219q0 -118 12.5 -209t32.5 -144.5t47 -87.5t52 -46t53 -12q176 0 176 501q0 235 -50.5 354.5t-138.5 119.5z" />
    <glyph glyph-name="one" unicode="1" horiz-adv-x="983" 
d="M670 1233l22 -12q0 -65 3 -575t3 -597q0 -29 -11.5 -39.5t-41.5 -13.5q-91 -8 -203 -8q4 218 4 1013q-50 -17 -142.5 -41t-143.5 -32l-4 6l49 133q126 38 263 87t202 79z" />
    <glyph glyph-name="two" unicode="2" horiz-adv-x="983" 
d="M86 31l37 86q244 255 345 411t101 308q0 93 -48.5 150.5t-139.5 57.5q-60 0 -116.5 -26.5t-88.5 -54.5q-30 -23 -48.5 -20t-33.5 30q-5 7 -8.5 17t-5 18t-3.5 20t-3 16q67 92 172.5 140.5t220.5 48.5q88 0 157 -30t111 -81t64 -115t22 -135q0 -83 -24.5 -151.5
t-75.5 -149.5q-96 -160 -340 -395q93 -9 534 0q-9 -51 -41 -98.5t-59 -57.5q-43 -26 -201 -26q-149 0 -222 0.5t-161.5 5.5t-136.5 14z" />
    <glyph glyph-name="three" unicode="3" horiz-adv-x="983" 
d="M90 141l4 4q49 -19 120.5 -34t131.5 -15q285 0 285 238q0 97 -66 150t-194 53q-25 0 -70 -4.5t-53 -4.5l-6 4q4 33 26.5 79.5t40.5 60.5q129 25 191.5 77.5t62.5 141.5q0 74 -44 118t-120 44q-95 0 -190 -70q-59 -38 -82 4q-20 38 -16 84q45 64 144.5 113t203.5 49
q84 0 149 -21.5t101.5 -53t59.5 -72t30.5 -72.5t7.5 -62q0 -183 -215 -278q151 -30 227 -112.5t76 -203.5q0 -131 -68.5 -227t-184 -144t-263.5 -48q-84 0 -146.5 17t-85.5 38q-27 22 -43.5 63.5t-13.5 83.5z" />
    <glyph glyph-name="four" unicode="4" horiz-adv-x="983" 
d="M811 1272l6 -17q-362 -428 -557 -774q150 -19 297 -16l8 278q29 19 105.5 40t120.5 24l8 -6v-338q61 0 147 8l2 -6q-19 -87 -61 -135q-26 -11 -88 -21v-260q0 -23 -14 -33.5t-44 -15.5q-73 -12 -198 -12q12 196 12 319q-113 0 -254.5 9t-202.5 20q-14 9 -37 47t-24 63
q78 144 260 401t260 337q51 32 123.5 56t130.5 32z" />
    <glyph glyph-name="five" unicode="5" horiz-adv-x="983" 
d="M129 578l-14 20q24 150 70 353t67 245q61 -3 294 13t277 26l2 -6q-22 -122 -75 -164q-33 -26 -114 -37.5t-261 -19.5q-13 -39 -60 -252q164 -21 295 -60q151 -47 220 -123.5t69 -210.5q0 -128 -71.5 -226t-187.5 -147.5t-255 -49.5q-160 0 -209 43q-25 19 -39 57t-16 78
l6 6q96 -31 207 -31q142 0 227.5 59t85.5 179q0 133 -174 186q-132 42 -344 62z" />
    <glyph glyph-name="six" unicode="6" horiz-adv-x="983" 
d="M913 1169l-4 -4q-151 -22 -261.5 -74.5t-190.5 -144.5q-73 -85 -110.5 -204.5t-37.5 -245.5q0 -186 61.5 -282.5t153.5 -96.5q77 0 122.5 62.5t45.5 162.5q0 65 -18.5 112.5t-49.5 71.5t-61.5 34.5t-62.5 10.5q-72 0 -131 -30q0 26 13 66t30 57q32 28 90.5 48.5
t113.5 20.5q82 0 145 -30t98.5 -80t53 -106.5t17.5 -117.5q0 -189 -122 -306.5t-312 -117.5q-92 0 -170.5 30.5t-139.5 91t-96 160t-35 228.5q0 307 203 533q62 69 141 122t151.5 80t130.5 39.5t99 12.5q49 0 81.5 -22t51.5 -81z" />
    <glyph glyph-name="seven" unicode="7" horiz-adv-x="983" 
d="M913 1208l7 -8q-2 -123 -103.5 -383t-216.5 -481.5t-170 -284.5q-39 -49 -127 -67q-84 -12 -137 -9l-2 7q138 177 293 483t229 553h-469q-96 0 -125.5 15t-19.5 50q6 31 36 75.5t60 68.5q31 -19 174 -19h571z" />
    <glyph glyph-name="eight" unicode="8" horiz-adv-x="983" 
d="M504 1233q168 0 263 -88.5t95 -212.5q0 -94 -52.5 -158t-150.5 -121q66 -37 107.5 -66.5t77.5 -69t52.5 -87t16.5 -108.5q0 -152 -121 -249.5t-307 -97.5q-95 0 -170 21t-120 54t-74 77t-40 85t-11 83q0 54 18.5 98.5t57 81t75.5 61.5t94 56q-198 110 -198 303
q0 63 25.5 123t73 108t122.5 77.5t166 29.5zM489 1096q-69 0 -112 -44t-43 -112q0 -70 49.5 -119.5t165.5 -103.5q104 84 104 201q0 77 -44.5 127.5t-119.5 50.5zM498 115q77 0 125.5 47.5t48.5 122.5q0 64 -54.5 118.5t-185.5 116.5q-133 -83 -133 -209q0 -84 56 -140
t143 -56z" />
    <glyph glyph-name="nine" unicode="9" horiz-adv-x="983" 
d="M119 45l4 4q248 45 373 170q168 163 168 502q0 164 -49.5 267.5t-143.5 103.5q-79 0 -124.5 -67.5t-45.5 -168.5q0 -116 62.5 -177t142.5 -61q41 0 96 19q0 -30 -14 -71t-35 -60q-48 -45 -168 -45q-146 0 -236 98t-90 256q0 109 50.5 203.5t151.5 154.5t233 60
q107 0 191 -43t134 -117t75.5 -165.5t25.5 -194.5q0 -361 -246 -588q-75 -69 -163.5 -113.5t-149.5 -58.5t-109 -14q-54 0 -80 18q-42 31 -53 88z" />
    <glyph glyph-name="colon" unicode=":" horiz-adv-x="403" 
d="M207 858q60 0 95.5 -41t35.5 -100q0 -68 -38 -109t-101 -41q-52 0 -92.5 37.5t-40.5 106.5q0 65 36.5 106t104.5 41zM209 268q59 0 95 -42t36 -101q0 -68 -38.5 -108t-102.5 -40q-51 0 -92 37.5t-41 104.5q0 65 38 107t105 42z" />
    <glyph glyph-name="semicolon" unicode=";" horiz-adv-x="403" 
d="M209 858q59 0 94 -41t35 -100q0 -68 -38 -109t-101 -41q-52 0 -92.5 37.5t-40.5 104.5q0 66 37 107.5t106 41.5zM256 305q37 0 56.5 -38.5t19.5 -90.5q0 -92 -57.5 -190.5t-131.5 -151.5q-67 -47 -186 -43q66 81 103.5 178.5t37.5 194.5q0 44 -12 90q104 51 170 51z" />
    <glyph glyph-name="less" unicode="&#x3c;" horiz-adv-x="1169" 
d="M993 788l-631 -323v-6l631 -324q0 -19 -8.5 -60.5t-17.5 -64.5q-16 -28 -54 -10l-706 375q-16 9 -23.5 18t-7.5 29q0 65 25 113l714 389q39 22 56 -21q9 -21 15.5 -57.5t6.5 -57.5z" />
    <glyph glyph-name="equal" unicode="=" horiz-adv-x="1169" 
d="M977 621h-850q2 85 16 119t50 34h849q-2 -78 -15 -115.5t-50 -37.5zM977 221h-850q2 84 16 119t50 35h849q-2 -78 -15 -116t-50 -38z" />
    <glyph glyph-name="greater" unicode="&#x3e;" horiz-adv-x="1169" 
d="M176 133l631 324v6l-631 321q0 22 9.5 65.5t19.5 61.5q13 29 51 11l707 -375q30 -17 30 -47q0 -70 -24 -113l-713 -389q-41 -21 -57 18q-17 42 -23 117z" />
    <glyph glyph-name="question" unicode="?" horiz-adv-x="729" 
d="M381 1243q132 0 209.5 -72t77.5 -190q0 -65 -32.5 -126.5t-100.5 -139.5q-65 -74 -93 -123.5t-28 -95.5q0 -43 20 -97q-7 -8 -28.5 -16t-43.5 -8q-59 0 -99 45.5t-40 126.5q0 101 96 221q39 47 55 67t34 57t18 69q0 44 -28 69t-72 25q-96 0 -193 -66h-6q-31 25 -41.5 70
t8.5 74q59 59 136.5 84.5t150.5 25.5zM365 264q59 0 96 -41t37 -100q0 -66 -39.5 -106t-104.5 -40q-52 0 -93.5 36.5t-41.5 103.5q0 64 39 105.5t107 41.5z" />
    <glyph glyph-name="at" unicode="@" horiz-adv-x="1574" 
d="M1135 -20l6 -3q18 -20 12.5 -67.5t-29.5 -67.5q-133 -121 -403 -121q-184 0 -327 76t-226.5 226.5t-83.5 355.5q0 180 59.5 332.5t165 258t255 165t325.5 59.5q177 0 316 -73t217.5 -206.5t78.5 -304.5q0 -225 -135 -376.5t-324 -151.5q-94 0 -131.5 49.5t-15.5 167.5
q-71 -113 -154.5 -165t-167.5 -52q-72 0 -115.5 64.5t-43.5 179.5q0 148 58.5 268t173 193t265.5 73q53 0 95 -5.5t94.5 -17t70.5 -14.5q-17 -58 -53.5 -237t-48.5 -264q-8 -58 4.5 -82.5t50.5 -24.5q33 0 70 25t72.5 72t58.5 127t23 177q0 198 -133.5 325.5t-329.5 127.5
q-142 0 -262 -54.5t-199 -146.5t-122.5 -212.5t-43.5 -252.5q0 -247 142 -394.5t376 -147.5q198 0 359 119zM674 238q51 0 117 65.5t108 173.5q11 27 24 68t20 69t17.5 69t10.5 42q-32 14 -86 14q-86 0 -150 -62t-92.5 -146t-28.5 -171q0 -65 17.5 -93.5t42.5 -28.5z" />
    <glyph glyph-name="A" unicode="A" horiz-adv-x="1288" 
d="M852 365h-465q-119 -300 -141 -351q-13 -26 -53 -26q-86 0 -166 26l-2 9q132 303 505 1196l-16 43q49 11 115.5 17.5t91.5 6.5q31 0 49 -37q45 -108 320 -807q146 -363 174 -422l-2 -8q-29 -11 -104 -17.5t-120 -6.5q-24 0 -38.5 12.5t-28.5 52.5q-98 262 -119 312z
M442 522h365q-106 286 -182 482q-17 -44 -183 -482z" />
    <glyph glyph-name="B" unicode="B" horiz-adv-x="1087" 
d="M141 16v979q0 168 -6 258q43 10 159.5 23.5t203.5 13.5q79 0 144.5 -11.5t110.5 -30t79 -45t53.5 -54t32 -60.5t16.5 -60.5t4 -57.5q0 -90 -51 -159.5t-131 -111.5q129 -36 196.5 -118.5t67.5 -190.5q0 -196 -150 -303.5t-395 -107.5q-196 0 -334 36zM387 1137v-414
q71 13 215 10q41 22 68.5 76t27.5 129q0 98 -58 152.5t-155 54.5q-58 0 -98 -8zM387 584v-449q41 -12 107 -12q116 0 185 66t69 184q0 103 -70.5 160t-194.5 57q-67 0 -96 -6z" />
    <glyph glyph-name="B" unicode="&#xe000;" horiz-adv-x="1087" 
d="M141 16v979q0 168 -6 258q43 10 159.5 23.5t203.5 13.5q79 0 144.5 -11.5t110.5 -30t79 -45t53.5 -54t32 -60.5t16.5 -60.5t4 -57.5q0 -90 -51 -159.5t-131 -111.5q129 -36 196.5 -118.5t67.5 -190.5q0 -196 -150 -303.5t-395 -107.5q-196 0 -334 36zM387 1137v-414
q71 13 215 10q41 22 68.5 76t27.5 129q0 98 -58 152.5t-155 54.5q-58 0 -98 -8zM387 584v-449q41 -12 107 -12q116 0 185 66t69 184q0 103 -70.5 160t-194.5 57q-67 0 -96 -6z" />
    <glyph glyph-name="C" unicode="C" horiz-adv-x="1200" 
d="M1141 195l6 -5q-3 -43 -22.5 -86.5t-47.5 -66.5q-40 -28 -119.5 -48t-173.5 -20q-343 0 -530.5 180t-187.5 480q0 205 96.5 361.5t260.5 238.5t368 82q133 0 238 -34.5t136 -68.5q3 -43 -24.5 -84t-65.5 -41q-139 60 -284 60q-94 0 -176 -31.5t-145 -92t-99.5 -157
t-36.5 -217.5q0 -221 134 -360.5t374 -139.5q157 0 299 50z" />
    <glyph glyph-name="D" unicode="D" horiz-adv-x="1343" 
d="M141 18v1000q0 129 -4 231q37 12 171 26.5t247 14.5q128 0 234 -22t179.5 -58t130 -87.5t90.5 -106.5t55 -120t28.5 -121.5t7.5 -117.5q0 -161 -55.5 -290t-153.5 -213t-231.5 -129t-290.5 -45q-209 0 -408 38zM391 1128v-981q65 -16 162 -16q64 0 123 12.5t122 48.5
t109 92t75.5 151.5t29.5 219.5q0 233 -127 358.5t-359 125.5q-74 0 -135 -11z" />
    <glyph glyph-name="E" unicode="E" horiz-adv-x="944" 
d="M141 47v946q0 172 -6 258q102 26 225 29h494q-14 -102 -59 -147q-34 -13 -189 -13h-215v-379h443q-11 -93 -43.5 -127t-90.5 -34h-309v-418q70 -15 193 -15q217 0 325 11l4 -4q-27 -114 -106 -156q-48 -10 -279 -10q-256 0 -358 20z" />
    <glyph glyph-name="F" unicode="F" horiz-adv-x="911" 
d="M141 27v1005q0 109 -6 217q28 8 103.5 18t138.5 13h514q-15 -98 -68 -147q-29 -13 -157 -13h-275v-422h459q-7 -55 -19.5 -88t-33.5 -48t-41 -19t-54 -4h-311q0 -307 6 -535q-53 -16 -213 -16q-23 0 -33 8t-10 31z" />
    <glyph glyph-name="G" unicode="G" horiz-adv-x="1312" 
d="M961 145v273q0 72 -9 182q18 3 68.5 12t87 14t61.5 5q23 0 33 -12.5t10 -43.5v-462q-62 -53 -157 -101q-159 -43 -283 -43q-109 0 -205.5 19t-190 66t-161 120.5t-108.5 190.5t-41 266q0 154 56 283t153.5 215t229 134t281.5 48q154 0 267.5 -38t158.5 -83
q2 -47 -30.5 -87.5t-75.5 -37.5q-148 74 -322 74q-95 0 -175.5 -31t-143 -90t-98 -154.5t-35.5 -216.5q0 -106 27.5 -194.5t74.5 -149t110 -102t132.5 -61t144.5 -19.5q90 0 140 24z" />
    <glyph glyph-name="H" unicode="H" horiz-adv-x="1333" 
d="M391 745h551v476q0 32 11.5 43t39.5 14q22 2 207 8q-6 -117 -6 -368v-662q0 -129 6 -252q-28 -7 -100 -11.5t-115 -4.5q-23 0 -33 8t-10 31v569q-62 -6 -233 -6h-318v-539q0 -31 -12.5 -41.5t-48.5 -13.5q-112 -12 -195 -8q6 123 6 374v648q0 202 -6 260q82 16 213 16
q28 0 35.5 -20t7.5 -90v-431z" />
    <glyph glyph-name="I" unicode="I" horiz-adv-x="530" 
d="M141 29v981q0 202 -6 260q26 4 104 10t111 6q27 0 34 -19.5t7 -90.5v-920q0 -129 6 -252q-22 -7 -95.5 -11.5t-117.5 -4.5q-24 0 -33.5 8t-9.5 33z" />
    <glyph glyph-name="J" unicode="J" horiz-adv-x="530" 
d="M141 307v705q0 202 -6 258q136 16 215 16q26 0 33.5 -20t7.5 -88v-867q0 -201 -27.5 -305.5t-97.5 -175.5q-45 -45 -109.5 -72.5t-119.5 -27.5q-40 0 -71.5 32.5t-37.5 77.5l2 6q53 11 85.5 26.5t59 44.5t40 80t20 124.5t6.5 185.5z" />
    <glyph glyph-name="K" unicode="K" horiz-adv-x="1181" 
d="M141 27v983q0 202 -6 260q27 4 105.5 10t109.5 6q27 0 34 -19.5t7 -88.5v-525q336 378 549 643q53 0 133 -14q48 -9 51.5 -33t-30.5 -65q-54 -63 -226 -255.5t-225 -252.5q81 -117 259 -337.5t276 -322.5v-6q-16 -9 -75.5 -17.5t-119.5 -8.5q-50 0 -82.5 18t-81.5 76
q-80 94 -240.5 298t-187.5 249v-369q0 -129 6 -252q-22 -7 -95.5 -11.5t-117.5 -4.5q-24 0 -33.5 7.5t-9.5 31.5z" />
    <glyph glyph-name="L" unicode="L" horiz-adv-x="899" 
d="M141 47v959q0 200 -6 264q115 16 215 16q26 0 33.5 -22t7.5 -97v-1003q60 -17 187 -17q199 0 307 11l2 -4q-7 -51 -34.5 -92.5t-66.5 -63.5q-48 -10 -256 -10q-258 0 -360 20z" />
    <glyph glyph-name="M" unicode="M" horiz-adv-x="1681" 
d="M1182 1227l-2 30q21 11 95 20t116 9q16 0 25.5 -13t13.5 -48l108 -754q42 -289 74 -465q-24 -7 -94.5 -12.5t-106.5 -5.5q-50 0 -55 49q-14 107 -49 430l-62 524q-25 -80 -71.5 -214.5t-121 -346t-122.5 -350.5q-11 -30 -26 -44.5t-46 -21.5q-86 -14 -125 -14
q-33 108 -325 985q-24 -197 -125 -967q-3 -17 -11 -23.5t-26 -6.5q-141 0 -174 18q8 44 80.5 491.5t121.5 721.5l-8 38q118 29 217 29q23 -6 39.5 -34.5t46.5 -110.5l283 -776q197 538 330 862z" />
    <glyph glyph-name="N" unicode="N" horiz-adv-x="1345" 
d="M145 1210l-41 52v8q31 4 125.5 10t124.5 6q26 0 58 -37q89 -124 387 -579q21 -34 63.5 -102t63.5 -103t48 -83t44 -85q-8 131 -8 350v572q0 34 9 45t34 14q106 8 155 8q-6 -132 -6 -377v-901q-15 -7 -82.5 -20t-107.5 -13q-32 0 -51 27q-118 167 -371 553
q-112 176 -262 455q10 -211 10 -422v-537q0 -31 -9 -40.5t-36 -14.5q-64 -11 -154 -8q6 123 6 372v850z" />
    <glyph glyph-name="O" unicode="O" horiz-adv-x="1447" 
d="M725 1311q158 0 285.5 -54t207.5 -146t123 -210t43 -250q0 -140 -43 -262.5t-123.5 -216.5t-207 -148.5t-283.5 -54.5q-138 0 -251 39t-187.5 103.5t-126 151.5t-74 179t-22.5 189q0 194 77.5 347t228.5 243t353 90zM709 1159q-165 0 -270 -131t-105 -375
q0 -250 118 -391t291 -141t273 135t100 377q0 234 -111.5 380t-295.5 146z" />
    <glyph glyph-name="P" unicode="P" horiz-adv-x="1044" 
d="M141 25v964q0 183 -8 273q133 28 330 28q526 0 526 -416q0 -70 -19.5 -131t-53 -104t-74 -76.5t-85.5 -53.5t-85.5 -30t-75.5 -10q-73 0 -100 16q-22 12 -42 50t-20 81q21 -6 62 -6q43 0 81.5 13t73.5 42t55.5 84t20.5 130q0 71 -22 123.5t-59.5 81t-80.5 42t-92 13.5
q-39 0 -82 -6v-885q0 -121 6 -244q-23 -7 -93.5 -11.5t-119.5 -4.5q-23 0 -33 7.5t-10 29.5z" />
    <glyph glyph-name="Q" unicode="Q" horiz-adv-x="1447" 
d="M725 1311q128 0 236.5 -35.5t185.5 -97.5t131 -145.5t80 -180t26 -201.5q0 -217 -99 -384.5t-281 -241.5q50 -26 182 -125q199 -150 342 -174v-5q-22 -52 -77 -80t-114 -28q-84 0 -183.5 50.5t-238.5 164.5q-90 74 -150.5 104.5t-141.5 40.5q-266 36 -411.5 215
t-145.5 443q0 145 45.5 269.5t129 215.5t208.5 143t276 52zM711 1159q-165 0 -271 -131.5t-106 -376.5q0 -124 33 -225.5t89 -167.5t130.5 -101.5t158.5 -35.5q174 0 272.5 135t98.5 373t-108 384t-297 146z" />
    <glyph glyph-name="R" unicode="R" horiz-adv-x="1105" 
d="M385 526v-479q0 -28 -9.5 -38t-35.5 -13q-71 -8 -207 -8q6 123 6 374v687q0 149 -4 206q43 10 166.5 22.5t190.5 12.5q243 0 360 -87.5t117 -278.5q0 -54 -17.5 -102.5t-43.5 -82.5t-61 -63t-65 -46t-61 -30q53 -41 180 -262q136 -246 219 -326v-8q-12 -8 -61 -14t-98 -6
q-61 0 -105 21t-84 73q-12 17 -22 32.5t-22.5 36.5t-20 34.5t-23 43.5t-23.5 45t-29.5 57t-31.5 62q-48 85 -85 111t-89 26h-41zM385 1141v-475q43 -4 110 1.5t89 14.5q46 19 86.5 73t40.5 148q0 122 -67 183t-169 61q-55 0 -90 -6z" />
    <glyph glyph-name="S" unicode="S" horiz-adv-x="903" 
d="M504 1311q84 0 167 -29t117 -65q2 -39 -21.5 -82t-66.5 -50q-39 21 -98.5 37.5t-105.5 16.5q-86 0 -137.5 -38.5t-51.5 -105.5q0 -70 51.5 -120t204.5 -142q61 -36 97.5 -60t77 -59.5t61.5 -70t35 -82t14 -105.5q0 -122 -65.5 -212t-167.5 -132.5t-224 -42.5
q-99 0 -176.5 22.5t-120.5 55.5q-47 31 -47 68q0 29 17 74t30 55q58 -39 140 -65.5t151 -26.5q98 0 154.5 40.5t56.5 114.5q0 68 -52 121.5t-210 144.5q-66 37 -114.5 77.5t-77 76.5t-46 75.5t-23 72.5t-5.5 71q0 45 12.5 91.5t44 96.5t79.5 88.5t125.5 63.5t174.5 25z" />
    <glyph glyph-name="T" unicode="T" horiz-adv-x="1128" 
d="M436 25v1095h-366q-54 0 -33 60q18 58 63 110q41 -10 295 -10h723q-5 -73 -34.5 -112t-65.5 -48h-330v-866q0 -127 6 -250q-91 -16 -215 -16q-23 0 -33 7.5t-10 29.5z" />
    <glyph glyph-name="U" unicode="U" horiz-adv-x="1341" 
d="M383 1169v-571q0 -111 18.5 -194.5t47.5 -132t71.5 -78t82.5 -39t89 -9.5q54 0 96 10t84 40t69 80.5t43.5 135.5t16.5 201v615q0 27 10 37.5t33 13.5q71 8 170 8q-6 -123 -6 -373v-292q0 -118 -17.5 -214t-47 -162.5t-72.5 -117t-89 -80t-103 -48t-107 -24.5t-108 -6
q-264 0 -398.5 147.5t-134.5 469.5v420q0 200 -6 264q27 4 105.5 10t109.5 6q28 0 35.5 -21.5t7.5 -95.5z" />
    <glyph glyph-name="V" unicode="V" horiz-adv-x="1247" 
d="M31 1241q133 45 233 45q23 0 38.5 -25t45.5 -108q23 -65 135.5 -372.5t175.5 -495.5q78 224 361 1005q120 -4 174 -26q20 -8 22.5 -26.5t-10.5 -61.5q-136 -363 -446 -1108q-21 -56 -49 -70q-48 -23 -185 -23q-308 842 -495 1266z" />
    <glyph glyph-name="W" unicode="W" horiz-adv-x="1781" 
d="M975 1286q19 0 29.5 -16.5t19.5 -48.5q122 -432 242 -928q63 215 129.5 440.5t106 358.5t57.5 194q65 0 131 -10q42 -6 53.5 -23.5t-0.5 -60.5q-108 -355 -381 -1133q-19 -50 -47 -61q-20 -9 -77 -16t-103 -7l-93 360q-93 360 -147 564q-19 -72 -236 -819
q-18 -69 -55 -84q-61 -21 -164 -21q-42 133 -121.5 401.5t-147.5 482t-132 382.5q28 14 98 29.5t115 15.5q30 0 45.5 -25t40.5 -110q162 -587 227 -842q16 64 51.5 194.5t94.5 342.5t92 332q-5 47 -12 69q103 39 184 39z" />
    <glyph glyph-name="X" unicode="X" horiz-adv-x="1177" 
d="M49 1241v6q168 39 238 39q17 0 31.5 -14t37.5 -49q52 -80 258 -389q41 61 141 207.5t140 205.5q29 39 53 39q25 0 83 -12.5t95 -28.5v-4q-246 -347 -407 -561q106 -162 209 -318t155 -235t72 -111v-6q-23 -11 -92 -22t-145 -11q-40 0 -68 43q-82 125 -287 453
q-43 -72 -103 -162.5t-119 -177t-75 -110.5q-18 -35 -57 -35q-42 0 -104 7t-85 15l-2 6q334 468 439 621q-99 154 -227.5 344.5t-180.5 259.5z" />
    <glyph glyph-name="Y" unicode="Y" horiz-adv-x="1146" 
d="M459 25v481q0 59 -17 92q-156 270 -413 647v6q132 35 219 35q28 0 46 -15.5t54 -76.5q31 -51 124.5 -212.5t141.5 -240.5q60 91 177.5 287t150.5 258q106 0 164 -20q24 -11 23.5 -30t-21.5 -54q-30 -49 -200.5 -305t-176.5 -265q-22 -40 -22 -86v-276q0 -117 6 -246
q-75 -16 -221 -16q-22 0 -28.5 7t-6.5 30z" />
    <glyph glyph-name="Z" unicode="Z" horiz-adv-x="1107" 
d="M1083 152l2 -5q-18 -56 -56.5 -99t-65.5 -52q-80 -8 -328 -8q-413 0 -557 16q-28 25 -31 51q177 249 385.5 584t284.5 483h-522q-87 0 -109.5 17t-9.5 55q17 46 67 102q63 -16 170 -16h705q-7 -68 -43 -164q-39 -84 -220.5 -392t-344.5 -566q78 -11 331.5 -12.5
t341.5 6.5z" />
    <glyph glyph-name="bracketleft" unicode="[" horiz-adv-x="679" 
d="M188 434q0 160 6.5 480.5t12.5 433.5q6 6 148 20t212 14q21 -35 21 -106q0 -12 -7.5 -16t-31.5 -7q-88 -14 -141 -24q-26 -6 -29 -45q-12 -85 -17 -764q-2 -534 7 -596q6 -37 45 -43q99 -15 131 -19q26 -3 24 -32q-3 -66 -20 -97q-80 0 -165.5 7t-137.5 16t-56 14
q-5 53 -5.5 167t1.5 305t2 292z" />
    <glyph glyph-name="backslash" unicode="\" horiz-adv-x="690" 
d="M252 1313l362 -1432q9 -41 1 -53.5t-40 -15.5l-131 -5l-354 1444q-10 28 -2.5 42.5t43.5 15.5z" />
    <glyph glyph-name="bracketright" unicode="]" horiz-adv-x="679" 
d="M494 582q0 -529 -21 -914q-6 -6 -147.5 -20.5t-210.5 -14.5q-21 35 -21 107q0 12 6.5 15.5t32.5 8.5q51 6 139 23q25 6 31 45q9 131 14 764q2 540 -6 596q-6 37 -45 43q-40 6 -129 18q-27 3 -24 33q3 65 20 96q80 0 165 -7t137 -15.5t57 -13.5q5 -53 5.5 -167t-1.5 -305
t-2 -292z" />
    <glyph glyph-name="asciicircum" unicode="^" horiz-adv-x="1169" 
d="M150 446l335 746q8 19 16.5 25.5t33.5 7.5q87 11 137 8l348 -787q-13 -9 -57.5 -21.5t-79.5 -12.5q-11 0 -19.5 4t-16 14.5t-9 13.5l-7.5 15l-249 594l-256 -609q-12 -32 -35 -32q-20 0 -71.5 12t-69.5 22z" />
    <glyph glyph-name="underscore" unicode="_" horiz-adv-x="1024" 
d="M1024 -154v-102h-1024v102h1024z" />
    <glyph glyph-name="grave" unicode="`" horiz-adv-x="819" 
d="M326 1393q28 -1 80 -106t75 -189q10 -32 -12 -51q-40 -24 -72 -27q-100 151 -223 274q-8 5 -6.5 17.5t14.5 23.5q27 24 67.5 41.5t76.5 16.5z" />
    <glyph glyph-name="a" unicode="a" horiz-adv-x="913" 
d="M877 150v-7q0 -79 -42.5 -123.5t-127.5 -44.5q-118 0 -162 117q-44 -49 -109.5 -83t-132.5 -34q-104 0 -178 71t-74 181q0 44 15.5 81.5t38 64.5t60.5 51t68 38t78 28.5t72.5 20.5t67.5 15q39 6 94 17v43q0 71 -45 116.5t-121 45.5q-89 0 -199 -68q-51 -11 -75.5 26
t-24.5 85q78 56 177.5 95.5t191.5 39.5q141 0 235 -90.5t94 -251.5q0 -37 -4 -172t-4 -207q0 -24 20 -41t56 -17q16 0 31 3zM283 266q0 -57 36.5 -90t90.5 -33q62 0 114 52q17 20 17 67v162q-127 -17 -192.5 -59.5t-65.5 -98.5z" />
    <glyph glyph-name="b" unicode="b" horiz-adv-x="1048" 
d="M369 1255v-405q46 28 116 52t119 24q180 0 284.5 -120t104.5 -310q0 -115 -43 -213.5t-117.5 -165.5t-174.5 -104.5t-212 -37.5q-148 0 -270 50q-29 13 -40 25t-11 36v1047q0 135 -8 221q35 12 107.5 24.5t103.5 12.5q17 0 25 -8t12 -37t4 -91zM369 721v-590
q40 -12 94 -12q51 0 98 19.5t88 58t65.5 106t24.5 154.5q0 131 -67.5 212t-186.5 81q-60 0 -116 -29z" />
    <glyph glyph-name="c" unicode="c" horiz-adv-x="858" 
d="M819 193l4 -5q-2 -46 -20 -91.5t-47 -69.5q-82 -52 -226 -52q-135 0 -240 49t-169 153.5t-64 252.5q0 218 144.5 357t361.5 139q91 0 161 -21.5t105 -56.5q4 -36 -16.5 -77t-60.5 -46q-84 37 -177 37q-118 0 -194 -77.5t-76 -219.5q0 -82 26 -144.5t70 -97.5t94.5 -52
t106.5 -17q124 0 217 39z" />
    <glyph glyph-name="d" unicode="d" horiz-adv-x="1067" 
d="M692 907v236q0 125 -8 211q30 12 105.5 24.5t107.5 12.5q17 0 24.5 -8t11 -36.5t3.5 -91.5v-1032q0 -60 17 -83t63 -34v-6q-8 -43 -45 -84t-76 -41q-142 0 -176 111q-61 -47 -132.5 -79t-129.5 -32q-178 0 -289 122t-111 323q0 147 68 263.5t185 179.5t261 63
q73 0 121 -19zM692 193v569q-51 22 -112 22q-38 0 -75 -10.5t-73 -35t-63 -61.5t-43.5 -93.5t-16.5 -126.5q0 -144 73 -223.5t179 -79.5q80 0 131 39z" />
    <glyph glyph-name="e" unicode="e" horiz-adv-x="894" 
d="M801 197l4 -2q0 -58 -35 -113t-65 -70q-25 -12 -82.5 -24.5t-106.5 -12.5q-223 0 -342 120t-119 345q0 127 50.5 236t152.5 179.5t236 70.5q92 0 162.5 -31t110.5 -82.5t60 -110.5t21 -124q0 -47 -8 -66q-13 -42 -166 -80q-35 -8 -165.5 -10t-211.5 2q6 -135 86.5 -203.5
t196.5 -68.5q111 0 221 45zM471 793q-66 0 -115 -61t-55 -175q137 -6 293 0q12 1 19.5 14t7.5 29q2 85 -36 139t-114 54z" />
    <glyph glyph-name="f" unicode="f" horiz-adv-x="569" 
d="M541 1403q93 0 141 -45q13 -40 -15 -91.5t-67 -41.5q-32 12 -55 12q-164 0 -152 -336q195 0 244 6q-10 -91 -62 -129q-38 -28 -190 -28q0 -95 5 -396t5 -350q-106 -16 -225 -16q-16 0 -23.5 6t-7.5 24q4 147 4 732q-62 5 -90 21t-28 48q40 42 118 82q0 151 37 246
t107 160q103 96 254 96z" />
    <glyph glyph-name="g" unicode="g" horiz-adv-x="907" 
d="M440 926q84 0 172 -25q98 -24 140 -24q96 0 166 24q8 -24 8 -49q0 -109 -105 -119q-7 0 -29 -1t-30 -1q26 -67 26 -123q0 -99 -49.5 -171t-129 -106t-179.5 -34q-42 0 -74 8q-32 -32 -32 -49q0 -54 96 -59q123 -9 237 -15q135 -9 199 -75t64 -166q0 -87 -41.5 -160
t-111 -120t-158.5 -73t-185 -26q-181 0 -290 76t-109 192q0 58 50 105t138 88q-50 21 -86 66.5t-37 107.5q0 19 16 26q99 62 140 107q-185 76 -185 268q0 146 107.5 237t271.5 91zM430 803q-64 0 -101.5 -55t-37.5 -134q0 -88 40 -141t109 -53q62 0 100 52.5t38 133.5
q0 51 -12 92.5t-47 73t-89 31.5zM236 -135q0 -67 71.5 -108.5t175.5 -41.5q98 0 166 39t68 105q0 98 -150 116q-106 17 -200 13q-35 0 -62 -17q-31 -15 -50 -44t-19 -62z" />
    <glyph glyph-name="h" unicode="h" horiz-adv-x="1064" 
d="M369 1255v-450q73 60 138.5 90.5t143.5 30.5q142 0 215.5 -98.5t73.5 -262.5v-276q0 -183 6 -285q-120 -16 -209 -16q-23 0 -32 9.5t-9 31.5v528q0 89 -42.5 140t-112.5 51q-89 0 -172 -72v-623q0 -29 -8.5 -40t-38.5 -15q-88 -10 -203 -10q6 159 6 370v775q0 135 -8 221
q30 12 104.5 24.5t108.5 12.5q17 0 24.5 -8t11 -36.5t3.5 -91.5z" />
    <glyph glyph-name="i" unicode="i" horiz-adv-x="491" 
d="M252 1348q57 0 90 -36t33 -93q0 -59 -36.5 -98.5t-94.5 -39.5q-51 0 -88 32.5t-37 96.5q0 68 43 103t90 35zM369 784v-735q0 -27 -12.5 -37.5t-47.5 -15.5q-52 -8 -190 -8q6 252 6 323v348q0 148 -8 230q30 9 103.5 16.5t109.5 7.5q17 0 24.5 -7.5t11 -34.5t3.5 -87z" />
    <glyph glyph-name="j" unicode="j" horiz-adv-x="491" 
d="M252 1348q57 0 90 -37t33 -94q0 -59 -36.5 -98.5t-94.5 -39.5q-51 0 -88 33.5t-37 97.5q0 67 43 102.5t90 35.5zM-90 -334v4q46 17 74.5 32t55.5 41.5t41 61t25 91t15 130.5t4 181v457q0 147 -8 225q30 9 103.5 16.5t109.5 7.5q17 0 24.5 -7.5t11 -34t3.5 -85.5v-606
q0 -168 -24 -282t-81 -191q-53 -72 -124.5 -108.5t-125.5 -36.5q-36 0 -66 30.5t-38 73.5z" />
    <glyph glyph-name="k" unicode="k" horiz-adv-x="954" 
d="M369 1255v-782q84 94 219.5 251t167.5 202q60 4 133 -15q25 -7 34 -18t3 -29t-29 -47q-27 -34 -65.5 -77.5t-67 -74t-79.5 -85t-73 -78.5q44 -74 169 -246t190 -240v-6q-54 -26 -180 -26q-52 0 -85 19t-69 71q-9 11 -48 61t-60 78.5t-54.5 74t-59.5 85.5t-46 76v-400
q0 -29 -13 -39.5t-49 -13.5q-88 -10 -188 -8q6 126 6 377v768q0 141 -8 227q31 12 103.5 21.5t109.5 9.5q17 0 24.5 -8t11 -36.5t3.5 -91.5z" />
    <glyph glyph-name="l" unicode="l" horiz-adv-x="491" 
d="M125 10v1127q0 135 -8 217q27 13 102 25t111 12q17 0 24.5 -8t11 -36t3.5 -90v-987q0 -93 6 -270q-27 -7 -107.5 -11.5t-113.5 -4.5q-29 0 -29 26z" />
    <glyph glyph-name="m" unicode="m" horiz-adv-x="1628" 
d="M377 668v-615q0 -29 -8.5 -40t-38.5 -15q-85 -10 -201 -10q6 159 6 372v347q0 44 -8.5 67t-30.5 35v12q14 42 55.5 73.5t86.5 31.5q33 0 56.5 -11.5t37.5 -33.5t21 -43t12 -50q162 138 292 138q173 0 246 -150q68 64 149.5 107t161.5 43q66 0 118 -23t83 -58.5t51.5 -84
t28.5 -94t8 -93.5v-282q0 -147 8 -287q-10 -1 -52.5 -5.5t-81.5 -7.5t-77 -3q-21 0 -29.5 9t-8.5 30v534q0 87 -41.5 137t-112.5 50q-86 0 -168 -78v-619q0 -29 -7.5 -39t-37.5 -14q-90 -10 -203 -10q6 159 6 372v201q0 89 -39 138t-110 49q-92 0 -172 -80z" />
    <glyph glyph-name="n" unicode="n" horiz-adv-x="1075" 
d="M707 25l2 534q0 89 -44.5 139t-111.5 50q-53 0 -93 -20.5t-83 -57.5v-619q0 -30 -8 -39.5t-39 -13.5q-85 -10 -201 -10q6 159 6 372v340q0 47 -8 71t-31 36v12q12 43 53.5 75t90.5 32q101 0 125 -135q154 135 282 135q74 0 129.5 -23t88 -59t52.5 -87t26.5 -98t6.5 -102
v-266q0 -182 6 -287q-8 -1 -50 -5.5t-81 -7.5t-77 -3q-41 0 -41 37z" />
    <glyph glyph-name="o" unicode="o" horiz-adv-x="1026" 
d="M524 926q111 0 198 -38t140.5 -103t81 -147t27.5 -175q0 -217 -128.5 -352.5t-340.5 -135.5q-200 0 -323.5 126t-123.5 343q0 208 133 345t336 137zM504 784q-94 0 -144.5 -85.5t-50.5 -227.5q0 -174 61.5 -264t155.5 -90q91 0 141 86.5t50 236.5q0 153 -55 248.5
t-158 95.5z" />
    <glyph glyph-name="p" unicode="p" horiz-adv-x="1071" 
d="M377 12v-379q0 -30 -8 -41.5t-39 -15.5q-85 -10 -201 -10q6 117 6 332v811q0 85 -39 98v12q16 45 55 76t93 31q96 0 116 -119q87 61 155 90t136 29q159 0 261 -118.5t102 -311.5q0 -149 -65.5 -268.5t-178 -186t-248.5 -66.5q-85 0 -145 37zM377 686v-536q59 -23 119 -23
q49 0 93.5 18.5t84 56t63 105t23.5 156.5q0 122 -60 201t-153 79t-170 -57z" />
    <glyph glyph-name="q" unicode="q" horiz-adv-x="1048" 
d="M797 895l127 8h6q0 -3 -3 -160.5t-3 -330.5v-774q0 -33 -22 -45.5t-95 -18.5q-79 -8 -133 -8q6 135 6 360v117q-43 -25 -99 -46.5t-94 -21.5q-193 0 -312.5 121t-119.5 326q0 147 69 262.5t189 178.5t269 63q106 0 215 -31zM682 172v594q-41 18 -104 18
q-52 0 -98.5 -18.5t-85.5 -56t-62 -102t-23 -148.5q0 -137 75 -222t200 -85q58 0 98 20z" />
    <glyph glyph-name="r" unicode="r" horiz-adv-x="718" 
d="M88 811v8q6 35 51 71t90 36q128 0 131 -209q89 209 252 209q36 0 67 -14t46 -33q0 -37 -15.5 -85t-39.5 -79q-28 -35 -70 -21q-41 15 -78 15q-34 0 -69.5 -25.5t-57.5 -85.5q-18 -50 -18 -100v-445q0 -26 -8 -38.5t-37 -16.5q-88 -10 -203 -10q6 159 6 372v347
q0 84 -47 104z" />
    <glyph glyph-name="s" unicode="s" horiz-adv-x="720" 
d="M406 926q138 0 225 -70q5 -39 -16.5 -80t-63.5 -45q-72 35 -150 35q-49 0 -78.5 -24.5t-29.5 -61.5q0 -29 19.5 -50.5t58.5 -45.5q21 -12 79.5 -40.5t84.5 -43.5q143 -77 143 -224q0 -74 -30 -132.5t-81 -94.5t-115.5 -55t-136.5 -19q-134 0 -223 60q-39 26 -39 59
q0 30 16.5 65t39.5 50q109 -72 223 -72q58 0 89.5 25t31.5 63q0 31 -19.5 54.5t-64.5 46.5q-128 67 -150 80q-65 37 -104 96.5t-39 134.5q0 133 96.5 211t233.5 78z" />
    <glyph glyph-name="t" unicode="t" horiz-adv-x="706" 
d="M662 182l6 -4q7 -39 -0.5 -77t-32.5 -60q-37 -31 -97 -48.5t-128 -17.5q-74 0 -128.5 22.5t-85 62t-45 86.5t-14.5 102v497q-50 0 -82 19t-32 37q30 62 227 237q31 26 61 39.5t86 20.5q-10 -102 -10 -197h301q-7 -40 -17.5 -68t-19 -42t-23.5 -22t-23 -9.5t-25 -3.5
q-94 -8 -199 -8q-6 -130 -5 -263t7 -200q7 -71 44 -104.5t93 -33.5q80 0 142 35z" />
    <glyph glyph-name="u" unicode="u" horiz-adv-x="1064" 
d="M125 317v345q0 149 -8 227q31 10 100.5 17t112.5 7q23 0 30 -21.5t7 -107.5q2 -133 2 -438q0 -58 15.5 -97.5t42 -58.5t52.5 -26.5t56 -7.5q86 0 153 63v602q0 43 7.5 58.5t33.5 21.5q132 12 207 12q0 -4 -3 -132.5t-3 -235.5v-320q0 -61 18 -84.5t62 -31.5v-11
q-8 -46 -45.5 -84.5t-75.5 -38.5q-78 0 -118 33.5t-56 97.5q-64 -61 -156 -102q-71 -29 -129 -29q-154 0 -229.5 92t-75.5 250z" />
    <glyph glyph-name="v" unicode="v" horiz-adv-x="907" 
d="M225 926q40 0 56 -47q135 -388 204 -619q197 549 234 666q72 0 145 -31q21 -10 26 -29t-1 -43t-23 -65q-38 -96 -140 -346t-146 -363q-17 -41 -62 -53q-89 -21 -158 -21q-43 126 -233 635q-63 166 -107 267q34 18 100 33.5t105 15.5z" />
    <glyph glyph-name="w" unicode="w" horiz-adv-x="1361" 
d="M231 926q20 0 31.5 -10.5t18.5 -36.5q15 -52 161 -619q50 170 99.5 329t66.5 218q-1 5 -14 59q28 10 88.5 23.5t87.5 13.5q22 0 31.5 -14.5t19.5 -52.5q18 -70 72 -268.5t80 -297.5q119 381 194 656q95 0 158 -25q21 -8 22.5 -31.5t-16.5 -76.5q-37 -110 -78 -226.5
t-97.5 -273.5t-82.5 -232q-11 -34 -22.5 -47t-40.5 -20q-74 -19 -162 -19q-29 117 -83.5 311.5t-76.5 276.5q-23 -74 -80 -250t-82 -254q-11 -32 -22 -45.5t-35 -19.5q-74 -19 -156 -19q-64 215 -190 611q-75 218 -105 291q41 15 108.5 32t104.5 17z" />
    <glyph glyph-name="x" unicode="x" horiz-adv-x="888" 
d="M39 881v6q27 11 99 25t114 14q29 0 55 -37q7 -10 168 -264q146 223 168 258q16 25 27 34t30 9q34 0 80.5 -11.5t73.5 -25.5v-4q-23 -31 -74 -105t-112.5 -164.5t-89.5 -130.5q45 -71 153 -237.5t152 -235.5v-4q-82 -20 -215 -20q-41 0 -62 35q-22 36 -87 133t-95 147
q-49 -76 -184 -283q-17 -32 -56 -32q-106 0 -164 18v4q53 81 151 218.5t151 217.5q-18 27 -137 212.5t-146 222.5z" />
    <glyph glyph-name="y" unicode="y" horiz-adv-x="884" 
d="M100 -348v6q52 55 131.5 166.5t135.5 216.5q-27 43 -48 94q-2 6 -49.5 129.5t-84.5 218.5t-85.5 212.5t-76.5 174.5q43 22 105 39t99 17q25 0 37 -13.5t23 -42.5q79 -197 207 -585q51 129 111.5 329t82.5 312q55 -2 133 -23q34 -9 42 -29.5t-3 -56.5q-94 -389 -254 -717
q-102 -215 -206 -367.5t-142 -152.5q-49 0 -93.5 23t-64.5 49z" />
    <glyph glyph-name="z" unicode="z" horiz-adv-x="813" 
d="M47 14l-20 35q8 13 79 122.5t129.5 201.5t126 203t97.5 169h-291q-72 0 -101 16t-18 50q10 38 28 68t32 39q30 -17 170 -17h479q-6 -71 -31 -129q-20 -49 -139 -254.5t-217 -361.5q61 -9 223 -8.5t217 8.5q-9 -49 -27.5 -85.5t-40.5 -50.5q-26 -17 -70.5 -22.5
t-189.5 -5.5q-326 0 -436 22z" />
    <glyph glyph-name="braceleft" unicode="{" horiz-adv-x="679" 
d="M588 -254q0 -70 -25 -111q-344 6 -344 287q0 53 21.5 201t21.5 196q0 88 -32.5 128t-114.5 49q-14 2 -24 37t-7 73q105 22 141.5 63t36.5 111q0 40 -18.5 156.5t-18.5 179.5q0 167 117 252q83 61 231 64q13 -26 13 -91q0 -19 -7 -28t-24 -15q-76 -27 -109.5 -63.5
t-33.5 -110.5q0 -51 20.5 -159.5t20.5 -159.5q3 -172 -162 -234q51 -19 84.5 -47.5t49.5 -65t22 -70.5t6 -77q0 -71 -21.5 -200.5t-21.5 -178.5q0 -127 149 -157q17 -4 23 -10.5t6 -18.5z" />
    <glyph glyph-name="bar" unicode="|" horiz-adv-x="610" 
d="M399 1536v-2048h-188v2048h188z" />
    <glyph glyph-name="braceright" unicode="}" horiz-adv-x="679" 
d="M94 1325q0 28 7 61t16 48q344 -6 344 -287q0 -52 -20.5 -193t-20.5 -186q0 -81 32 -120t113 -48q14 -2 24 -37t7 -71q-105 -22 -140.5 -63.5t-35.5 -111.5q0 -40 17.5 -168.5t17.5 -193.5q0 -169 -111 -248q-91 -66 -238 -69q-12 24 -12 90q0 20 6.5 28.5t24.5 14.5
q76 27 109.5 63.5t33.5 110.5q0 48 -20.5 164t-20.5 180q0 175 162 237q-50 19 -83.5 47.5t-50 63t-22.5 66.5t-6 71q0 68 21.5 191t21.5 176q0 123 -149 155q-27 5 -27 29z" />
    <glyph glyph-name="asciitilde" unicode="~" horiz-adv-x="1169" 
d="M397 719q64 0 118.5 -29.5t125.5 -103.5q60 -63 98 -90t68 -27q41 0 65.5 44t32.5 167q2 31 33 31q38 0 73.5 -13.5t49.5 -31.5q-2 -91 -18.5 -158.5t-40.5 -107.5t-59 -64.5t-68.5 -32.5t-73.5 -8q-72 0 -130 39t-130 115q-52 53 -86 75.5t-64 22.5q-43 0 -73 -42
t-48 -169q-5 -37 -41 -37q-19 0 -63 14.5t-57 26.5q8 84 26 149t43 105t51.5 66.5t59 38.5t56.5 16t52 4z" />
    <glyph glyph-name="exclamdown" unicode="&#xa1;" horiz-adv-x="442" 
d="M219 641q-58 0 -93.5 41t-35.5 98q0 66 38.5 106t102.5 40q53 0 93.5 -36.5t40.5 -103.5q0 -66 -38.5 -105.5t-107.5 -39.5zM133 -340q-25 0 -37 12.5t-12 48.5q0 82 24 348t35 347q2 13 6.5 22.5t12 15.5t12 8.5t14.5 6.5q90 23 97 23q12 -107 37 -394t26 -389
q-6 -17 -83.5 -33t-131.5 -16z" />
    <glyph glyph-name="cent" unicode="&#xa2;" horiz-adv-x="983" 
d="M696 1190l-20 -158q57 -6 109 -24t81 -43q4 -32 -18.5 -71.5t-63.5 -47.5q-65 35 -145 35q-70 0 -122.5 -23.5t-81 -63t-41.5 -83.5t-13 -93q0 -71 25 -125.5t66.5 -84.5t88.5 -45t98 -15q114 0 207 41q0 -123 -71 -160q-68 -41 -168 -41l-15 -125q-3 -31 -17.5 -44.5
t-53.5 -16.5l-103 -6l25 203q-37 7 -74 20t-87 43.5t-86.5 71t-62.5 109.5t-26 153q0 89 28 162t69 118t96.5 78.5t101.5 49t94 24.5l10 102q5 28 20 39t66 15z" />
    <glyph glyph-name="sterling" unicode="&#xa3;" horiz-adv-x="983" 
d="M57 27v28q50 43 84.5 107.5t50 135.5t21.5 128t6 113q-53 0 -80.5 5.5t-44.5 22.5q7 53 37 77.5t96 47.5q19 553 410 553q113 0 190 -63q6 -29 -15.5 -76t-57.5 -51q-50 24 -95 24q-37 0 -65 -10.5t-47.5 -34t-32 -53.5t-20.5 -77t-12 -95.5t-7 -118.5q283 0 340 6
q-23 -152 -106 -157q-12 -1 -40.5 -1t-90 0.5t-113.5 0.5q-11 -256 -150 -381q67 -25 169 -44.5t190 -19.5q139 0 231 25l4 -4q-4 -57 -26.5 -93.5t-59.5 -66.5q-55 -35 -186 -35q-190 0 -580 107z" />
    <glyph glyph-name="currency" unicode="&#xa4;" horiz-adv-x="983" 
d="M479 995q57 1 115.5 -13.5t89.5 -37.5q76 80 121 139q78 -36 78 -98q0 -27 -97 -132q-2 -2 -2.5 -3t-2 -2.5l-3 -3l-2.5 -2.5q62 -94 62 -221q0 -66 -26 -139.5t-67 -116.5q20 -22 58.5 -62.5t56 -60.5t23.5 -31q-8 -29 -40 -63.5t-52 -34.5q-5 0 -12.5 5t-18 15t-21 21
t-25.5 28t-25.5 29.5t-27.5 33t-26 31.5q-90 -57 -197 -57q-44 0 -87.5 10t-65.5 25q-32 -50 -90 -113q-25 -27 -46.5 -33t-48.5 7q-56 29 -59 61q99 114 125 150q-103 98 -103 272q0 136 99 254q-9 10 -36 37t-46 47q-41 47 -10 88q28 47 77 57q12 -12 59.5 -63t74.5 -78
q87 55 198 55zM449 872q-88 0 -146.5 -72.5t-58.5 -191.5q0 -122 59 -193t150 -71q97 0 150.5 72.5t53.5 195.5t-56 191.5t-152 68.5z" />
    <glyph glyph-name="yen" unicode="&#xa5;" horiz-adv-x="983" 
d="M604 678h236q-2 -46 -19 -85.5t-49 -39.5h-197v-135h236q0 -39 -17.5 -82t-41.5 -43h-177v-293q-10 -1 -50.5 -5.5t-78 -7.5t-71.5 -3q-23 0 -32 7.5t-9 31.5v270h-240q0 30 8.5 74.5t16.5 50.5h215v135h-250q0 29 8.5 74t16.5 51h200q-277 472 -293 496v6q39 10 115 18
t115 8q22 0 35 -20q146 -278 213 -410q25 47 110 217.5t109 210.5q79 6 155 -6q45 -8 33 -33q-32 -49 -141 -230t-156 -257z" />
    <glyph glyph-name="brokenbar" unicode="&#xa6;" horiz-adv-x="610" 
d="M399 1382v-716h-188v716h188zM399 358v-716h-188v716h188z" />
    <glyph glyph-name="section" unicode="&#xa7;" horiz-adv-x="903" 
d="M74 727q0 67 20 127.5t55.5 108t68.5 79.5t75 64q91 121 248 121q91 0 151 -47q14 -18 1 -54.5t-36 -52.5q-64 33 -120 33q-53 0 -84 -24.5t-31 -67.5q0 -36 31 -83t57 -73t89 -85q15 -14 22 -21q54 -53 84 -88t61 -83t44 -102t13 -121q0 -120 -66 -232t-161 -187
q-40 -60 -110 -94.5t-154 -34.5t-125 26q-26 19 -35 57t6 72q66 -28 156 -28q57 0 98 31.5t41 84.5q0 13 -4 28t-13.5 32.5t-17.5 31.5t-24.5 35t-26 33t-31 35t-29 31.5t-30.5 32.5t-27 28q-50 55 -76 87t-58.5 83t-47 104t-14.5 113zM682 285q0 94 -43.5 166t-128.5 159
q-8 8 -41 41.5t-46 47t-41.5 45t-41.5 52t-31 50t-26.5 57t-10.5 55.5q-55 -82 -55 -163q0 -85 47.5 -161.5t136.5 -170.5q57 -60 85 -91.5t64.5 -80.5t53 -92.5t19.5 -89.5q27 38 43 88.5t16 87.5z" />
    <glyph glyph-name="dieresis" unicode="&#xa8;" horiz-adv-x="819" 
d="M227 1323q48 0 79.5 -35t31.5 -82q0 -58 -32.5 -91.5t-86.5 -33.5q-45 0 -80 31.5t-35 87.5q0 54 32.5 88.5t90.5 34.5zM604 1323q50 0 81.5 -34t31.5 -83q0 -58 -33 -91.5t-88 -33.5q-44 0 -78.5 31.5t-34.5 87.5q0 55 31.5 89t89.5 34z" />
    <glyph glyph-name="copyright" unicode="&#xa9;" horiz-adv-x="1417" 
d="M713 1290q180 0 324.5 -84.5t225 -231t80.5 -327.5q0 -186 -84.5 -334t-228 -228.5t-317.5 -80.5q-179 0 -325 80.5t-231 228t-85 334.5t85 334.5t231 228t325 80.5zM715 1192q-147 0 -265 -71.5t-183.5 -196t-65.5 -277.5q0 -151 65.5 -275.5t184 -197t266.5 -72.5
q143 0 258 72.5t178.5 198t63.5 278.5q0 147 -61 269.5t-177 197t-264 74.5zM950 457l6 -6q-2 -27 -14 -59t-31 -46q-58 -35 -159 -35q-171 0 -267 91.5t-96 244.5q0 152 107.5 245t263.5 93q75 0 132 -19.5t71 -39.5q0 -13 -6.5 -32.5t-12.5 -27.5q-8 -12 -24 -17t-31 1
q-69 24 -139 24q-86 0 -147.5 -59t-61.5 -160q0 -100 65.5 -163.5t184.5 -63.5q88 0 159 29z" />
    <glyph glyph-name="ordfeminine" unicode="&#xaa;" horiz-adv-x="694" 
d="M664 696v-24q-1 -51 -37 -80t-95 -29q-101 0 -129 72q-29 -29 -74.5 -50.5t-95.5 -21.5q-80 0 -132 43.5t-52 118.5q0 39 19.5 71t46.5 52t69.5 37t73.5 24.5t74 16.5q13 3 69 12v20q0 37 -25 58.5t-69 21.5q-55 0 -131 -39q-78 -37 -96 45l-8 33q44 35 122 64.5
t152 29.5q109 0 173.5 -56t64.5 -161q0 -22 -3 -106t-3 -125q7 -14 21.5 -23.5t27.5 -9.5q25 0 37 6zM233 752q0 -27 21 -45.5t51 -18.5q54 0 80 37q14 20 14 45v78q-80 -7 -123 -33.5t-43 -62.5z" />
    <glyph glyph-name="guillemotleft" unicode="&#xab;" horiz-adv-x="1212" 
d="M899 133q0 -26 -32 -53.5t-60 -34.5q-116 201 -309 387q-21 24 -21 53q93 70 174.5 166t177.5 234q25 -7 55 -34.5t31 -55.5q0 -37 -75.5 -149.5t-130.5 -180.5q43 -53 116.5 -174.5t73.5 -157.5zM504 778q0 -30 -74 -148t-113 -165q53 -74 110.5 -172t57.5 -141
q1 -24 -29.5 -51.5t-56.5 -32.5q-111 205 -295 368q-14 20 -14 49q185 154 332 375q24 -5 53 -32t29 -50z" />
    <glyph glyph-name="logicalnot" unicode="&#xac;" horiz-adv-x="1169" 
d="M874 154v452h-747q2 76 16.5 115t49.5 39h825l24 -27v-518q0 -21 -12.5 -35t-35.5 -19t-42 -6.5t-45.5 -1t-32.5 0.5z" />
    <glyph glyph-name="uni00AD" unicode="&#xad;" horiz-adv-x="624" 
d="M555 629l2 -6q-8 -70 -36 -126.5t-68 -64.5q-68 -26 -196.5 -51.5t-186.5 -24.5l-7 6q10 73 33.5 123.5t42.5 53.5q332 65 416 90z" />
    <glyph glyph-name="registered" unicode="&#xae;" horiz-adv-x="628" 
d="M313 1311q116 0 189 -74t73 -186q0 -109 -73.5 -184.5t-188.5 -75.5q-116 0 -187 75t-71 185q0 114 71 187t187 73zM313 1257q-85 0 -137.5 -58t-52.5 -146q0 -91 54 -150t138 -59q82 0 136.5 58.5t54.5 150.5q0 89 -54 146.5t-139 57.5zM281 1022v-72q0 -21 -19 -24
q-33 0 -47 -2v254q47 6 92 6q107 0 107 -78q0 -40 -54 -62q6 -8 36 -55t40 -57v-6q-32 -4 -47 -4q-23 0 -39 22q-18 25 -37 62q-11 19 -32 16zM281 1139v-76q24 0 38 4q27 12 27 35q0 17 -11 28t-30 11q-16 0 -24 -2z" />
    <glyph glyph-name="macron" unicode="&#xaf;" horiz-adv-x="819" 
d="M606 1110h-405q-27 0 -27 31q0 29 12.5 73t22.5 54h414q24 0 24 -25q0 -31 -13.5 -73t-27.5 -60z" />
    <glyph glyph-name="degree" unicode="&#xb0;" horiz-adv-x="604" 
d="M309 1233q107 0 171.5 -71.5t64.5 -166.5q0 -109 -69.5 -177t-186.5 -68q-90 0 -160 62.5t-70 172.5q0 108 70 178t180 70zM303 1116q-50 0 -78 -37t-28 -90q0 -57 31.5 -90t74.5 -33q54 0 80.5 36t26.5 89q0 49 -28.5 87t-78.5 38z" />
    <glyph glyph-name="plusminus" unicode="&#xb1;" horiz-adv-x="1169" 
d="M500 629h-375q2 85 16 119t49 34h310v197q0 83 -6 135l127 10q30 3 38.5 -12.5t8.5 -58.5v-271h372q-2 -87 -14.5 -120t-50.5 -33h-307v-326q0 -26 -19.5 -40t-75.5 -17l-73 -4v387zM977 0h-850q1 87 16 120.5t50 33.5h849q-2 -85 -14.5 -119.5t-50.5 -34.5z" />
    <glyph glyph-name="twosuperior" unicode="&#xb2;" 
d="M70 1335l-7 4q0 61 23 109q38 40 98 64t123 24q108 0 169 -56.5t61 -150.5q0 -26 -7 -52t-14.5 -45.5t-26.5 -44t-30 -38t-38.5 -37.5t-37 -32t-41 -32.5t-37.5 -29.5q84 -6 277 2q-10 -42 -29 -79t-41 -50q-58 -17 -180 -17q-223 0 -271 13l-8 12q35 71 43 92
q40 31 63.5 50.5t61 54.5t59 63t38 64t16.5 69q0 47 -28.5 74t-74.5 27q-93 0 -161 -58z" />
    <glyph glyph-name="threesuperior" unicode="&#xb3;" 
d="M156 1133l-6 8q3 6 16 42t20 48q88 13 124 38t36 68q0 33 -26.5 53.5t-65.5 20.5q-33 0 -74 -16.5t-71 -42.5q-25 25 -25 59q0 29 27 51q25 25 81 49.5t123 24.5q98 0 152.5 -49t54.5 -111q0 -57 -28.5 -89t-83.5 -60q157 -30 157 -168q0 -103 -95 -168.5t-228 -65.5
q-88 0 -133 27q-18 15 -29.5 44.5t-11.5 59.5l4 5q57 -21 129 -21q85 0 125.5 30.5t40.5 78.5q0 90 -125 90q-38 0 -88 -6z" />
    <glyph glyph-name="acute" unicode="&#xb4;" horiz-adv-x="819" 
d="M498 1391q38 0 76 -17.5t63 -40.5q11 -9 10 -16.5t-16 -24.5q-77 -87 -225 -276q-32 6 -70 31q-18 18 -2 57q32 90 81.5 188t82.5 99z" />
    <glyph glyph-name="mu" unicode="&#xb5;" horiz-adv-x="1062" 
d="M332 49l10 -495q-68 -3 -149 4q-62 4 -75.5 20.5t-11.5 71.5l21 649v352q0 173 -8 230q36 9 106 18.5t107 9.5q17 0 24.5 -7.5t11 -35.5t3.5 -90v-430q0 -54 14.5 -91.5t38.5 -55t47 -24.5t49 -7q104 0 162 82v561q0 43 7.5 58.5t33.5 21.5q145 16 209 18q0 -10 -3 -139
t-3 -233v-304q0 -61 22.5 -87.5t75.5 -34.5v-9q-10 -48 -42.5 -87.5t-90.5 -39.5q-77 0 -117 33.5t-61 95.5q-42 -44 -69.5 -67.5t-71 -41.5t-95.5 -18q-45 0 -85.5 20.5t-59.5 51.5z" />
    <glyph glyph-name="paragraph" unicode="&#xb6;" horiz-adv-x="1030" 
d="M602 346l-104 -35q-40 -12 -76 -12q-134 0 -234 106.5t-100 264.5q0 196 122.5 310t315.5 114h199h238l4 -9l-58 -106l-131 -12v-611q0 -241 -27.5 -353t-111.5 -185q-95 -84 -248 -84q-89 0 -155.5 34t-73.5 68q-7 22 7 61.5t24 49.5q98 -72 200 -72q114 0 161.5 91.5
t47.5 275.5v104z" />
    <glyph glyph-name="periodcentered" unicode="&#xb7;" horiz-adv-x="403" 
d="M211 629q58 0 93.5 -42t35.5 -100q0 -68 -38.5 -108.5t-102.5 -40.5q-53 0 -93 36.5t-40 104.5q0 66 38 108t107 42z" />
    <glyph glyph-name="cedilla" unicode="&#xb8;" horiz-adv-x="819" 
d="M385 8h137l-78 -108q60 -19 95.5 -62t35.5 -100q0 -87 -83.5 -147t-186.5 -66q-24 5 -41.5 30.5t-17.5 43.5q0 19 20 26q133 31 133 92q0 35 -41 55t-102 15v47z" />
    <glyph glyph-name="onesuperior" unicode="&#xb9;" 
d="M465 1536l8 -4q-2 -36 -3.5 -264t-0.5 -357q0 -19 -9 -25t-40 -9l-144 -11q1 9 7 492q-27 -8 -86.5 -17.5t-85.5 -11.5l-5 4l37 109q67 14 175.5 45.5t146.5 48.5z" />
    <glyph glyph-name="ordmasculine" unicode="&#xba;" horiz-adv-x="747" 
d="M385 1171q147 0 232 -86t85 -213q0 -144 -94 -226.5t-241 -82.5q-139 0 -229.5 81t-90.5 214q0 145 96.5 229t241.5 84zM373 1051q-56 0 -89.5 -48.5t-33.5 -132.5q0 -88 37.5 -137t87.5 -49q57 0 91 47.5t34 136.5q0 75 -31.5 129t-95.5 54z" />
    <glyph glyph-name="guillemotright" unicode="&#xbb;" horiz-adv-x="1206" 
d="M313 797q0 26 31.5 52.5t61.5 35.5q120 -209 311 -391q18 -24 18 -54q-168 -129 -350 -401q-26 7 -56.5 34.5t-33.5 55.5q0 40 78 154t131 178q-43 53 -117 175.5t-74 160.5zM696 145q0 31 76.5 151.5t114.5 164.5q-49 70 -108.5 172t-59.5 143q-3 24 27.5 51.5
t56.5 32.5q56 -101 134 -197t163 -169q16 -24 16 -54q-185 -155 -336 -377q-23 7 -53.5 34t-30.5 48z" />
    <glyph glyph-name="onequarter" unicode="&#xbc;" horiz-adv-x="1390" 
d="M1102 1204q-433 -727 -748 -1239q-10 -18 -18.5 -24t-15 -4.5t-17.5 8.5q-49 30 -65 69q91 147 219 360t303 507t231 387q9 14 19.5 15t27.5 -9q51 -28 64 -70zM442 1233l9 -4q-2 -38 -4 -266t-1 -355q0 -19 -9 -25.5t-40 -9.5l-143 -10q1 13 2 99t2 212.5t2 180.5
q-27 -8 -86.5 -17.5t-85.5 -11.5l-4 4l37 109q67 14 175 45.5t146 48.5zM1208 690l2 -4q-205 -215 -340 -428q58 -6 140 -6l4 123q16 13 74.5 30t95.5 17h6v-168q32 0 88 6l2 -4q-1 -17 -16.5 -53.5t-26.5 -48.5q-16 -5 -47 -11v-137q-42 -4 -82.5 -9t-60.5 -7t-35 -2l-6 6
q4 82 4 145q-171 0 -267 15q-7 4 -25 33.5t-18 37.5q60 99 151.5 222t147.5 176q21 19 95 42t114 25z" />
    <glyph glyph-name="onehalf" unicode="&#xbd;" horiz-adv-x="1390" 
d="M1079 1204q-463 -778 -747 -1239q-10 -18 -18.5 -24t-15 -4.5t-17.5 8.5q-51 31 -66 69q92 148 754 1254q9 14 19.5 15t27.5 -9q47 -26 63 -70zM440 1233l9 -4q-2 -38 -4 -266t-1 -355q0 -19 -9.5 -25.5t-39.5 -9.5l-143 -10q1 13 2 99t2 212.5t2 180.5
q-27 -8 -86.5 -17.5t-85.5 -11.5l-4 4l35 109q67 13 176 45t147 49zM795 455l-4 4q0 62 22 108q39 40 98 64t123 24q108 0 168 -56t60 -150q0 -26 -7 -52t-14.5 -45.5t-27 -44.5t-29.5 -37.5t-38.5 -38t-37 -32.5t-41.5 -33t-37 -29q85 -6 279 2q-10 -42 -29.5 -79
t-42.5 -50q-52 -16 -178 -16q-226 0 -273 12l-6 12q7 15 21.5 47t21.5 46q40 31 63.5 50.5t61 54.5t59 63t38 64t16.5 69q0 46 -29 73t-76 27q-42 0 -86.5 -15.5t-74.5 -41.5z" />
    <glyph glyph-name="threequarters" unicode="&#xbe;" horiz-adv-x="1390" 
d="M1155 1204q-471 -790 -745 -1239q-16 -25 -28.5 -28t-23.5 8q-49 30 -65 69q187 302 754 1254q15 24 45 6q50 -26 63 -70zM178 829l-6 9q1 2 15 40t22 50q87 13 123.5 38.5t36.5 67.5q0 33 -27.5 53.5t-65.5 20.5q-32 0 -73.5 -16.5t-73.5 -42.5q-25 29 -25 59
q0 27 27 51q25 25 82.5 49.5t122.5 24.5q98 0 152.5 -49t54.5 -111q0 -57 -28.5 -88.5t-82.5 -60.5q77 -15 117.5 -58t40.5 -110q0 -103 -96.5 -168.5t-229.5 -65.5q-40 0 -68.5 5t-37.5 9t-27 13q-16 16 -28.5 45.5t-12.5 58.5l6 4q54 -20 127 -20q87 0 127.5 30t40.5 78
q0 91 -127 91q-32 0 -86 -7zM1233 690l2 -4q-205 -215 -340 -428q61 -6 139 -6l4 123q16 13 74.5 30t95.5 17h6v-168q34 0 89 6l4 -4q-2 -18 -17.5 -54t-27.5 -48q-10 -4 -48 -11v-137q-41 -4 -81.5 -9t-61 -7t-35.5 -2l-6 6q4 82 4 145q-172 0 -264 15q-7 4 -25 33.5
t-18 37.5q58 99 149.5 222t149.5 176q19 19 93 42t114 25z" />
    <glyph glyph-name="questiondown" unicode="&#xbf;" horiz-adv-x="729" 
d="M373 641q-56 0 -92.5 42.5t-36.5 98.5q0 66 40 106t103 40q52 0 92.5 -37.5t40.5 -104.5q0 -66 -39 -105.5t-108 -39.5zM360 -338q-134 0 -210 71.5t-76 190.5q0 118 133 264q64 74 92.5 125t28.5 97q0 42 -21 94q6 9 30.5 16.5t47.5 7.5q57 0 95 -45t38 -127
q0 -102 -96 -221q-3 -4 -22.5 -27t-24 -28.5t-19 -24.5t-18.5 -28t-12 -25t-10.5 -29.5t-2.5 -27.5q0 -45 31 -70t76 -25q98 0 186 64h10q29 -25 38.5 -68.5t-7.5 -74.5q-58 -57 -135.5 -83t-151.5 -26z" />
    <glyph glyph-name="Agrave" unicode="&#xc0;" horiz-adv-x="1288" 
d="M852 365h-465q-119 -300 -141 -351q-13 -26 -53 -26q-86 0 -166 26l-2 9q132 303 505 1196l-16 43q49 11 115.5 17.5t91.5 6.5q31 0 49 -37q45 -108 320 -807q146 -363 174 -422l-2 -8q-29 -11 -104 -17.5t-120 -6.5q-24 0 -38.5 12.5t-28.5 52.5q-98 262 -119 312z
M442 522h365q-106 286 -182 482q-17 -44 -183 -482zM473 1675q29 0 129 -68.5t162 -125.5q33 -27 8 -68q-17 -26 -35 -49q-8 4 -92.5 44.5t-145.5 67.5t-116 46q-13 4 -15.5 13t3.5 26q15 43 44 78.5t58 35.5z" />
    <glyph glyph-name="Aacute" unicode="&#xc1;" horiz-adv-x="1288" 
d="M852 365h-465q-119 -300 -141 -351q-13 -26 -53 -26q-86 0 -166 26l-2 9q132 303 505 1196l-16 43q49 11 115.5 17.5t91.5 6.5q31 0 49 -37q45 -108 320 -807q146 -363 174 -422l-2 -8q-29 -11 -104 -17.5t-120 -6.5q-24 0 -38.5 12.5t-28.5 52.5q-98 262 -119 312z
M442 522h365q-106 286 -182 482q-17 -44 -183 -482zM856 1649q36 -7 60 -46.5t32 -78.5q8 -25 -28 -37q-58 -17 -126.5 -41t-142.5 -51.5t-94 -34.5q-12 13 -35 51q-19 40 13 62q73 59 174.5 117.5t146.5 58.5z" />
    <glyph glyph-name="Acircumflex" unicode="&#xc2;" horiz-adv-x="1288" 
d="M852 365h-465q-119 -300 -141 -351q-13 -26 -53 -26q-86 0 -166 26l-2 9q132 303 505 1196l-16 43q49 11 115.5 17.5t91.5 6.5q31 0 49 -37q45 -108 320 -807q146 -363 174 -422l-2 -8q-29 -11 -104 -17.5t-120 -6.5q-24 0 -38.5 12.5t-28.5 52.5q-98 262 -119 312z
M442 522h365q-106 286 -182 482q-17 -44 -183 -482zM481 1358q-33 0 -66.5 22.5t-41.5 44.5q117 77 217 199q16 18 39 25q33 8 78 8q105 -125 237 -232q-13 -21 -44 -44t-56 -23q-30 0 -51 12q-35 22 -136 113q-66 -63 -139 -111q-28 -14 -37 -14z" />
    <glyph glyph-name="Atilde" unicode="&#xc3;" horiz-adv-x="1288" 
d="M852 365h-465q-119 -300 -141 -351q-13 -26 -53 -26q-86 0 -166 26l-2 9q132 303 505 1196l-16 43q49 11 115.5 17.5t91.5 6.5q31 0 49 -37q45 -108 320 -807q146 -363 174 -422l-2 -8q-29 -11 -104 -17.5t-120 -6.5q-24 0 -38.5 12.5t-28.5 52.5q-98 262 -119 312z
M442 522h365q-106 286 -182 482q-17 -44 -183 -482zM569 1642q65 0 121 -69q35 -47 51 -47q34 0 50 96q6 20 20 20q15 0 46.5 -8.5t47.5 -19.5q-23 -246 -160 -246q-35 0 -61.5 19.5t-60.5 58.5q-37 40 -48 44q-6 3 -12 3q-32 -3 -53 -96q-4 -21 -16 -21q-18 0 -53 6t-48 11
q22 249 176 249z" />
    <glyph glyph-name="Adieresis" unicode="&#xc4;" horiz-adv-x="1288" 
d="M852 365h-465q-119 -300 -141 -351q-13 -26 -53 -26q-86 0 -166 26l-2 9q132 303 505 1196l-16 43q49 11 115.5 17.5t91.5 6.5q31 0 49 -37q45 -108 320 -807q146 -363 174 -422l-2 -8q-29 -11 -104 -17.5t-120 -6.5q-24 0 -38.5 12.5t-28.5 52.5q-98 262 -119 312z
M442 522h365q-106 286 -182 482q-17 -44 -183 -482zM461 1606q46 0 76 -33t30 -78q0 -58 -30.5 -90.5t-83.5 -32.5q-47 0 -80 29t-33 84q0 54 32 87.5t89 33.5zM850 1606q46 0 76 -32t30 -79q0 -58 -30.5 -90.5t-83.5 -32.5q-43 0 -76 29.5t-33 83.5t30.5 87.5t86.5 33.5z
" />
    <glyph glyph-name="Aring" unicode="&#xc5;" horiz-adv-x="1288" 
d="M852 365h-465q-119 -300 -141 -351q-13 -26 -53 -26q-86 0 -166 26l-2 9q132 303 505 1196l-16 43q49 11 115.5 17.5t91.5 6.5q31 0 49 -37q45 -108 320 -807q146 -363 174 -422l-2 -8q-29 -11 -104 -17.5t-120 -6.5q-24 0 -38.5 12.5t-28.5 52.5q-98 262 -119 312z
M442 522h365q-106 286 -182 482q-17 -44 -183 -482zM662 1743q81 0 134.5 -54.5t53.5 -134.5q0 -87 -57.5 -142.5t-149.5 -55.5q-77 0 -133.5 50t-56.5 138q0 83 56.5 141t152.5 58zM649 1642q-34 0 -55 -29.5t-21 -66.5q0 -41 23.5 -65.5t56.5 -24.5q39 0 57.5 25.5
t18.5 64.5q0 42 -20 69t-60 27z" />
    <glyph glyph-name="AE" unicode="&#xc6;" horiz-adv-x="1605" 
d="M827 496h-366q-199 -402 -246 -488q-15 -31 -49 -31q-22 0 -41 2.5t-35.5 8.5t-24.5 9t-23.5 11.5t-16.5 9.5v17q47 91 289 563.5t311 603.5q11 22 22 60q140 16 203 18h657q-12 -88 -59 -135q-22 -19 -162 -19h-252l29 -477h410q-15 -54 -30 -86.5t-34 -47.5t-36 -19
t-46 -4h-254l23 -336q70 -13 215 -13q179 0 262 9l4 -5q-16 -60 -44 -92t-73 -55q-48 -10 -217 -10q-270 0 -364 20l-29 41zM821 649l-22 479q-32 0 -58 -51q-21 -43 -105.5 -209t-109.5 -219h295z" />
    <glyph glyph-name="Ccedilla" unicode="&#xc7;" horiz-adv-x="1200" 
d="M582 -166l102 139q-296 27 -457 203.5t-161 452.5q0 205 96.5 361.5t260.5 238.5t368 82q133 0 238 -34.5t136 -68.5q3 -43 -24.5 -84t-65.5 -41q-139 60 -284 60q-94 0 -176 -31.5t-145 -92t-99.5 -157t-36.5 -217.5q0 -221 134 -360.5t374 -139.5q157 0 299 50l6 -5
q-3 -43 -22.5 -86.5t-47.5 -66.5q-36 -25 -104.5 -44.5t-151.5 -23.5l-51 -69q60 -19 95.5 -62t35.5 -100q0 -87 -83.5 -147t-186.5 -66q-24 5 -42 30.5t-18 43.5q0 19 21 26q133 31 133 92q0 35 -41 55t-102 15v47z" />
    <glyph glyph-name="Egrave" unicode="&#xc8;" horiz-adv-x="944" 
d="M141 47v946q0 172 -6 258q102 26 225 29h494q-14 -102 -59 -147q-34 -13 -189 -13h-215v-379h443q-11 -93 -43.5 -127t-90.5 -34h-309v-418q70 -15 193 -15q217 0 325 11l4 -4q-27 -114 -106 -156q-48 -10 -279 -10q-256 0 -358 20zM326 1671q28 0 128.5 -69t159.5 -125
q33 -27 11 -68q-17 -26 -35 -49q-246 120 -354 158q-25 8 -15 38q15 42 45.5 78.5t59.5 36.5z" />
    <glyph glyph-name="Eacute" unicode="&#xc9;" horiz-adv-x="944" 
d="M141 47v946q0 172 -6 258q102 26 225 29h494q-14 -102 -59 -147q-34 -13 -189 -13h-215v-379h443q-11 -93 -43.5 -127t-90.5 -34h-309v-418q70 -15 193 -15q217 0 325 11l4 -4q-27 -114 -106 -156q-48 -10 -279 -10q-256 0 -358 20zM705 1649q34 -7 58 -45.5t34 -79.5
q7 -25 -29 -37q-59 -17 -127.5 -41t-141 -51.5t-93.5 -34.5q-19 22 -37 51q-19 39 14 62q70 58 173 117t149 59z" />
    <glyph glyph-name="Ecircumflex" unicode="&#xca;" horiz-adv-x="944" 
d="M141 47v946q0 172 -6 258q102 26 225 29h494q-14 -102 -59 -147q-34 -13 -189 -13h-215v-379h443q-11 -93 -43.5 -127t-90.5 -34h-309v-418q70 -15 193 -15q217 0 325 11l4 -4q-27 -114 -106 -156q-48 -10 -279 -10q-256 0 -358 20zM330 1364q-33 0 -67 22t-44 44
q127 85 219 200q17 17 39 25q25 6 78 6q108 -126 238 -231q-12 -20 -44 -43t-57 -23q-30 0 -51 12q-39 25 -135 111q-70 -63 -139 -109q-28 -14 -37 -14z" />
    <glyph glyph-name="Edieresis" unicode="&#xcb;" horiz-adv-x="944" 
d="M141 47v946q0 172 -6 258q102 26 225 29h494q-14 -102 -59 -147q-34 -13 -189 -13h-215v-379h443q-11 -93 -43.5 -127t-90.5 -34h-309v-418q70 -15 193 -15q217 0 325 11l4 -4q-27 -114 -106 -156q-48 -10 -279 -10q-256 0 -358 20zM311 1612q45 0 76 -33t31 -78
q0 -58 -32 -90.5t-85 -32.5q-45 0 -78 29t-33 84q0 54 32 87.5t89 33.5zM700 1612q47 0 77 -32t30 -79q0 -58 -31.5 -90.5t-85.5 -32.5q-42 0 -75 29.5t-33 83.5t30.5 87.5t87.5 33.5z" />
    <glyph glyph-name="Igrave" unicode="&#xcc;" horiz-adv-x="530" 
d="M141 29v981q0 202 -6 260q26 4 104 10t111 6q27 0 34 -19.5t7 -90.5v-920q0 -129 6 -252q-22 -7 -95.5 -11.5t-117.5 -4.5q-24 0 -33.5 8t-9.5 33zM100 1671q28 0 129 -69t160 -125q33 -27 8 -68q-10 -18 -35 -49q-247 121 -352 158q-14 5 -17 13t3 25q15 43 45 79t59 36
z" />
    <glyph glyph-name="Iacute" unicode="&#xcd;" horiz-adv-x="530" 
d="M141 29v981q0 202 -6 260q26 4 104 10t111 6q27 0 34 -19.5t7 -90.5v-920q0 -129 6 -252q-22 -7 -95.5 -11.5t-117.5 -4.5q-24 0 -33.5 8t-9.5 33zM455 1649q36 -7 60 -46.5t32 -78.5q7 -25 -29 -37q-58 -17 -126.5 -41t-141.5 -51.5t-94 -34.5q-12 13 -35 51
q-19 40 12 62q73 59 174.5 117.5t147.5 58.5z" />
    <glyph glyph-name="Icircumflex" unicode="&#xce;" horiz-adv-x="530" 
d="M141 29v981q0 202 -6 260q26 4 104 10t111 6q27 0 34 -19.5t7 -90.5v-920q0 -129 6 -252q-22 -7 -95.5 -11.5t-117.5 -4.5q-24 0 -33.5 8t-9.5 33zM92 1356q-33 0 -66.5 21.5t-43.5 43.5q125 84 219 201q16 19 39 25q33 8 77 8q108 -129 238 -234q-12 -20 -43.5 -42.5
t-56.5 -22.5q-30 0 -54 12q-37 24 -133 113q-66 -63 -139 -111q-28 -14 -37 -14z" />
    <glyph glyph-name="Idieresis" unicode="&#xcf;" horiz-adv-x="530" 
d="M141 29v981q0 202 -6 260q26 4 104 10t111 6q27 0 34 -19.5t7 -90.5v-920q0 -129 6 -252q-22 -7 -95.5 -11.5t-117.5 -4.5q-24 0 -33.5 8t-9.5 33zM80 1608q45 0 75.5 -33t30.5 -78q0 -58 -31.5 -90.5t-84.5 -32.5q-45 0 -78 29t-33 84q0 54 31.5 87.5t89.5 33.5z
M469 1608q46 0 76 -32t30 -79q0 -58 -31 -90.5t-85 -32.5q-43 0 -76 29.5t-33 83.5t31 87.5t88 33.5z" />
    <glyph glyph-name="Eth" unicode="&#xd0;" horiz-adv-x="1378" 
d="M172 588h-168q4 50 14.5 81.5t27 44.5t30 17t35.5 4h61v281q0 129 -4 235q222 39 422 39q128 0 234.5 -22t180 -58t130 -88.5t90 -107.5t54.5 -120t28.5 -121.5t7.5 -117.5q0 -322 -223 -512q-78 -66 -182.5 -105t-176.5 -48.5t-143 -9.5q-119 0 -199 9t-219 34v565z
M424 1126v-391h340q-7 -51 -20.5 -82t-35.5 -44.5t-41 -17t-51 -3.5h-192v-438q69 -19 168 -19q64 0 124 14t121.5 51.5t107 94.5t74 150t28.5 212q0 228 -124.5 357t-349.5 129q-79 0 -149 -13z" />
    <glyph glyph-name="Ntilde" unicode="&#xd1;" horiz-adv-x="1345" 
d="M145 1210l-41 52v8q31 4 125.5 10t124.5 6q26 0 58 -37q89 -124 387 -579q21 -34 63.5 -102t63.5 -103t48 -83t44 -85q-8 131 -8 350v572q0 34 9 45t34 14q106 8 155 8q-6 -132 -6 -377v-901q-15 -7 -82.5 -20t-107.5 -13q-32 0 -51 27q-118 167 -371 553
q-112 176 -262 455q10 -211 10 -422v-537q0 -31 -9 -40.5t-36 -14.5q-64 -11 -154 -8q6 123 6 372v850zM608 1630q65 0 119 -71q36 -48 53 -48q30 0 49 97q3 22 21 22q13 0 44.5 -10t47.5 -21q-23 -245 -158 -245q-36 0 -64 19.5t-61 58.5q-33 38 -44 43q-7 4 -15 4
q-32 -3 -53 -97q-3 -20 -17 -20q-18 0 -52.5 5.5t-45.5 10.5q19 252 176 252z" />
    <glyph glyph-name="Ograve" unicode="&#xd2;" horiz-adv-x="1447" 
d="M725 1311q158 0 285.5 -54t207.5 -146t123 -210t43 -250q0 -140 -43 -262.5t-123.5 -216.5t-207 -148.5t-283.5 -54.5q-138 0 -251 39t-187.5 103.5t-126 151.5t-74 179t-22.5 189q0 194 77.5 347t228.5 243t353 90zM709 1159q-165 0 -270 -131t-105 -375
q0 -250 118 -391t291 -141t273 135t100 377q0 234 -111.5 380t-295.5 146zM584 1698q28 0 127 -68t161 -125q33 -30 9 -69q-8 -14 -35 -47q-13 6 -72.5 34t-94.5 44t-89.5 39.5t-97.5 39.5q-24 9 -13 39q15 43 45 78t60 35z" />
    <glyph glyph-name="Oacute" unicode="&#xd3;" horiz-adv-x="1447" 
d="M725 1311q158 0 285.5 -54t207.5 -146t123 -210t43 -250q0 -140 -43 -262.5t-123.5 -216.5t-207 -148.5t-283.5 -54.5q-138 0 -251 39t-187.5 103.5t-126 151.5t-74 179t-22.5 189q0 194 77.5 347t228.5 243t353 90zM709 1159q-165 0 -270 -131t-105 -375
q0 -250 118 -391t291 -141t273 135t100 377q0 234 -111.5 380t-295.5 146zM915 1673q36 -8 60.5 -47.5t32.5 -77.5q7 -25 -29 -37q-58 -17 -126.5 -41t-142.5 -51.5t-94 -34.5q-11 12 -34 52q-10 22 -7.5 34.5t19.5 26.5q73 59 174.5 117.5t146.5 58.5z" />
    <glyph glyph-name="Ocircumflex" unicode="&#xd4;" horiz-adv-x="1447" 
d="M725 1311q158 0 285.5 -54t207.5 -146t123 -210t43 -250q0 -140 -43 -262.5t-123.5 -216.5t-207 -148.5t-283.5 -54.5q-138 0 -251 39t-187.5 103.5t-126 151.5t-74 179t-22.5 189q0 194 77.5 347t228.5 243t353 90zM709 1159q-165 0 -270 -131t-105 -375
q0 -250 118 -391t291 -141t273 135t100 377q0 234 -111.5 380t-295.5 146zM551 1395q-33 0 -67 21.5t-44 43.5q118 79 219 201q16 19 39 25q25 6 78 6q115 -135 236 -232q-10 -19 -42.5 -42t-56.5 -23q-29 0 -53 12q-37 24 -133 113q-66 -63 -139 -111q-28 -14 -37 -14z" />
    <glyph glyph-name="Otilde" unicode="&#xd5;" horiz-adv-x="1447" 
d="M725 1311q158 0 285.5 -54t207.5 -146t123 -210t43 -250q0 -140 -43 -262.5t-123.5 -216.5t-207 -148.5t-283.5 -54.5q-138 0 -251 39t-187.5 103.5t-126 151.5t-74 179t-22.5 189q0 194 77.5 347t228.5 243t353 90zM709 1159q-165 0 -270 -131t-105 -375
q0 -250 118 -391t291 -141t273 135t100 377q0 234 -111.5 380t-295.5 146zM643 1669q62 0 121 -72q31 -47 51 -47q30 0 49 97q6 22 21 22q13 0 44.5 -10t47.5 -21q-20 -245 -158 -245q-36 0 -62.5 18.5t-62.5 58.5q-3 4 -8.5 10t-8 8.5t-6.5 7.5t-6 7t-5.5 5t-6 4.5t-6 3
t-6.5 2t-6 0.5q-30 -3 -51 -97q-3 -20 -17 -20q-19 0 -54 5.5t-46 10.5q19 252 176 252z" />
    <glyph glyph-name="Odieresis" unicode="&#xd6;" horiz-adv-x="1447" 
d="M725 1311q158 0 285.5 -54t207.5 -146t123 -210t43 -250q0 -140 -43 -262.5t-123.5 -216.5t-207 -148.5t-283.5 -54.5q-138 0 -251 39t-187.5 103.5t-126 151.5t-74 179t-22.5 189q0 194 77.5 347t228.5 243t353 90zM709 1159q-165 0 -270 -131t-105 -375
q0 -250 118 -391t291 -141t273 135t100 377q0 234 -111.5 380t-295.5 146zM539 1640q45 0 74.5 -32.5t29.5 -77.5q0 -58 -31 -90.5t-84 -32.5q-45 0 -77.5 29t-32.5 84q0 54 31.5 87t89.5 33zM928 1640q46 0 75 -31.5t29 -78.5q0 -58 -30 -90.5t-84 -32.5q-43 0 -76 29.5
t-33 83.5t31 87t88 33z" />
    <glyph glyph-name="multiply" unicode="&#xd7;" horiz-adv-x="1169" 
d="M1022 823l-324 -329l291 -293q44 -40 15 -82q-33 -53 -103 -78l-321 334l-318 -334q-55 13 -98 76q-25 42 8 78l293 299l-295 297q-29 29 -6 71q16 25 42.5 47.5t55.5 30.5l320 -328l286 297q35 35 74 13q30 -17 54 -50.5t26 -48.5z" />
    <glyph glyph-name="Oslash" unicode="&#xd8;" horiz-adv-x="1468" 
d="M1305 1270l-103 -133q103 -92 153 -221t50 -265q0 -110 -25.5 -210t-79.5 -186.5t-132 -150t-189 -99.5t-244 -36q-101 0 -197 23.5t-163 68.5l-117 -153q-34 -45 -65 -2q-43 50 -50 78l123 159q-103 94 -151.5 224.5t-48.5 259.5q0 199 84.5 354.5t238 242.5t350.5 87
q211 0 357 -94l86 114q21 29 34.5 33t30.5 -10q50 -39 58 -84zM406 324l573 743q-98 92 -260 92q-58 0 -114.5 -19.5t-109 -61.5t-92 -102t-63 -147.5t-23.5 -191.5q0 -88 23.5 -173.5t65.5 -139.5zM1067 961l-571 -744q46 -43 111.5 -69.5t135.5 -26.5q185 0 296.5 134
t111.5 384q0 93 -22.5 180t-61.5 142z" />
    <glyph glyph-name="Ugrave" unicode="&#xd9;" horiz-adv-x="1341" 
d="M383 1169v-571q0 -111 18.5 -194.5t47.5 -132t71.5 -78t82.5 -39t89 -9.5q54 0 96 10t84 40t69 80.5t43.5 135.5t16.5 201v615q0 27 10 37.5t33 13.5q71 8 170 8q-6 -123 -6 -373v-292q0 -118 -17.5 -214t-47 -162.5t-72.5 -117t-89 -80t-103 -48t-107 -24.5t-108 -6
q-264 0 -398.5 147.5t-134.5 469.5v420q0 200 -6 264q27 4 105.5 10t109.5 6q28 0 35.5 -21.5t7.5 -95.5zM514 1655q28 0 129 -69.5t160 -125.5q32 -26 10 -67q-20 -31 -35 -50q-246 120 -354 158q-25 8 -14 39q15 43 45 79t59 36z" />
    <glyph glyph-name="Uacute" unicode="&#xda;" horiz-adv-x="1341" 
d="M383 1169v-571q0 -111 18.5 -194.5t47.5 -132t71.5 -78t82.5 -39t89 -9.5q54 0 96 10t84 40t69 80.5t43.5 135.5t16.5 201v615q0 27 10 37.5t33 13.5q71 8 170 8q-6 -123 -6 -373v-292q0 -118 -17.5 -214t-47 -162.5t-72.5 -117t-89 -80t-103 -48t-107 -24.5t-108 -6
q-264 0 -398.5 147.5t-134.5 469.5v420q0 200 -6 264q27 4 105.5 10t109.5 6q28 0 35.5 -21.5t7.5 -95.5zM848 1636q34 -7 58 -45.5t34 -79.5q7 -24 -29 -36q-59 -17 -127.5 -41t-141 -51.5t-93.5 -34.5q-19 22 -37 51q-19 38 14 61q70 58 173 117t149 59z" />
    <glyph glyph-name="Ucircumflex" unicode="&#xdb;" horiz-adv-x="1341" 
d="M383 1169v-571q0 -111 18.5 -194.5t47.5 -132t71.5 -78t82.5 -39t89 -9.5q54 0 96 10t84 40t69 80.5t43.5 135.5t16.5 201v615q0 27 10 37.5t33 13.5q71 8 170 8q-6 -123 -6 -373v-292q0 -118 -17.5 -214t-47 -162.5t-72.5 -117t-89 -80t-103 -48t-107 -24.5t-108 -6
q-264 0 -398.5 147.5t-134.5 469.5v420q0 200 -6 264q27 4 105.5 10t109.5 6q28 0 35.5 -21.5t7.5 -95.5zM496 1374q-33 0 -67 22t-42 44q126 87 217 200q17 17 39 23q33 8 78 8q102 -122 237 -231q-12 -20 -43.5 -43t-56.5 -23q-30 0 -51 12q-31 18 -135 111
q-75 -68 -140 -108q-20 -15 -36 -15z" />
    <glyph glyph-name="Udieresis" unicode="&#xdc;" horiz-adv-x="1341" 
d="M383 1169v-571q0 -111 18.5 -194.5t47.5 -132t71.5 -78t82.5 -39t89 -9.5q54 0 96 10t84 40t69 80.5t43.5 135.5t16.5 201v615q0 27 10 37.5t33 13.5q71 8 170 8q-6 -123 -6 -373v-292q0 -118 -17.5 -214t-47 -162.5t-72.5 -117t-89 -80t-103 -48t-107 -24.5t-108 -6
q-264 0 -398.5 147.5t-134.5 469.5v420q0 200 -6 264q27 4 105.5 10t109.5 6q28 0 35.5 -21.5t7.5 -95.5zM489 1620q46 0 76.5 -33t30.5 -78q0 -58 -31 -90.5t-84 -32.5q-47 0 -79.5 29t-32.5 84q0 54 31.5 87.5t88.5 33.5zM879 1620q46 0 76 -32t30 -79q0 -58 -31 -90.5
t-84 -32.5q-43 0 -75.5 29.5t-32.5 83.5t30.5 87.5t86.5 33.5z" />
    <glyph glyph-name="Yacute" unicode="&#xdd;" horiz-adv-x="1146" 
d="M459 25v481q0 59 -17 92q-156 270 -413 647v6q132 35 219 35q28 0 46 -15.5t54 -76.5q31 -51 124.5 -212.5t141.5 -240.5q60 91 177.5 287t150.5 258q106 0 164 -20q24 -11 23.5 -30t-21.5 -54q-30 -49 -200.5 -305t-176.5 -265q-22 -40 -22 -86v-276q0 -117 6 -246
q-75 -16 -221 -16q-22 0 -28.5 7t-6.5 30zM809 1616q35 -8 59.5 -46.5t34.5 -78.5q5 -26 -31 -37q-58 -17 -126.5 -41t-141.5 -51.5t-94 -34.5q-19 22 -35 51q-20 41 14 62q69 57 172.5 116.5t147.5 59.5z" />
    <glyph glyph-name="Thorn" unicode="&#xde;" horiz-adv-x="1015" 
d="M141 25v985q0 202 -6 260q28 4 105.5 10t109.5 6q26 0 33.5 -21t7.5 -91v-150q62 8 117 8q238 0 350 -112q100 -102 100 -273q0 -77 -20 -141t-54 -106t-74 -73t-84 -47.5t-80 -24t-66 -7.5q-49 0 -84 14q-30 12 -48.5 48.5t-15.5 78.5q25 -2 49 -2q36 0 71.5 13t68.5 40
t54 76t21 113q0 131 -62.5 191.5t-168.5 60.5q-40 0 -74 -7v-618q0 -129 6 -252q-75 -16 -219 -16q-23 0 -30 7t-7 30z" />
    <glyph glyph-name="germandbls" unicode="&#xdf;" horiz-adv-x="1120" 
d="M614 1403q89 0 159.5 -27.5t114 -75t66.5 -108.5t23 -131q0 -62 -12 -92q-115 -54 -160 -105t-45 -112q0 -31 18 -59.5t43 -45.5q31 -22 127 -98q59 -44 90 -102.5t31 -122.5q0 -68 -22 -125.5t-60 -98t-87.5 -69.5t-104 -42.5t-111.5 -13.5q-92 0 -168 35q-38 44 -24 84
q7 41 40 70q72 -31 150 -31q63 0 108.5 32.5t45.5 94.5q0 67 -78 127q-21 17 -65 49.5t-58 42.5q-105 76 -105 197q0 87 54.5 160t167.5 139q12 40 12 74q0 92 -44.5 151.5t-121.5 59.5q-99 0 -155.5 -99t-57.5 -332q0 -527 10 -825q-109 -16 -227 -16q-29 0 -29 26
q3 77 4 173t1 167.5t-0.5 190.5t-0.5 182q-58 1 -88 20t-30 48q26 33 51.5 54t66.5 46q0 119 48 230.5t137 181.5q116 96 286 96z" />
    <glyph glyph-name="agrave" unicode="&#xe0;" horiz-adv-x="913" 
d="M877 150v-7q0 -79 -42.5 -123.5t-127.5 -44.5q-118 0 -162 117q-44 -49 -109.5 -83t-132.5 -34q-104 0 -178 71t-74 181q0 44 15.5 81.5t38 64.5t60.5 51t68 38t78 28.5t72.5 20.5t67.5 15q39 6 94 17v43q0 71 -45 116.5t-121 45.5q-89 0 -199 -68q-51 -11 -75.5 26
t-24.5 85q78 56 177.5 95.5t191.5 39.5q141 0 235 -90.5t94 -251.5q0 -37 -4 -172t-4 -207q0 -24 20 -41t56 -17q16 0 31 3zM283 266q0 -57 36.5 -90t90.5 -33q62 0 114 52q17 20 17 67v162q-127 -17 -192.5 -59.5t-65.5 -98.5zM367 1393q28 -1 79 -105.5t74 -189.5
q12 -30 -12 -51q-34 -24 -70 -27q-109 158 -225 274q-8 5 -6.5 17.5t14.5 23.5q28 24 68.5 41.5t77.5 16.5z" />
    <glyph glyph-name="aacute" unicode="&#xe1;" horiz-adv-x="913" 
d="M877 150v-7q0 -79 -42.5 -123.5t-127.5 -44.5q-118 0 -162 117q-44 -49 -109.5 -83t-132.5 -34q-104 0 -178 71t-74 181q0 44 15.5 81.5t38 64.5t60.5 51t68 38t78 28.5t72.5 20.5t67.5 15q39 6 94 17v43q0 71 -45 116.5t-121 45.5q-89 0 -199 -68q-51 -11 -75.5 26
t-24.5 85q78 56 177.5 95.5t191.5 39.5q141 0 235 -90.5t94 -251.5q0 -37 -4 -172t-4 -207q0 -24 20 -41t56 -17q16 0 31 3zM283 266q0 -57 36.5 -90t90.5 -33q62 0 114 52q17 20 17 67v162q-127 -17 -192.5 -59.5t-65.5 -98.5zM508 1391q38 0 76 -17.5t63 -40.5
q11 -9 10 -16.5t-16 -24.5q-77 -87 -225 -276q-32 6 -70 31q-18 18 -2 57q32 90 81.5 188t82.5 99z" />
    <glyph glyph-name="acircumflex" unicode="&#xe2;" horiz-adv-x="913" 
d="M877 150v-7q0 -79 -42.5 -123.5t-127.5 -44.5q-118 0 -162 117q-44 -49 -109.5 -83t-132.5 -34q-104 0 -178 71t-74 181q0 44 15.5 81.5t38 64.5t60.5 51t68 38t78 28.5t72.5 20.5t67.5 15q39 6 94 17v43q0 71 -45 116.5t-121 45.5q-89 0 -199 -68q-51 -11 -75.5 26
t-24.5 85q78 56 177.5 95.5t191.5 39.5q141 0 235 -90.5t94 -251.5q0 -37 -4 -172t-4 -207q0 -24 20 -41t56 -17q16 0 31 3zM283 266q0 -57 36.5 -90t90.5 -33q62 0 114 52q17 20 17 67v162q-127 -17 -192.5 -59.5t-65.5 -98.5zM299 1040q-38 0 -113 27q9 14 33 48.5
t34.5 49.5t30 44t31 48t26.5 45t28 50q12 24 41 30q43 9 84 9q80 -138 196 -314q-71 -37 -112 -37q-28 0 -39 19q-14 22 -48.5 74t-54.5 84q-52 -90 -98 -150q-24 -27 -39 -27z" />
    <glyph glyph-name="atilde" unicode="&#xe3;" horiz-adv-x="913" 
d="M877 150v-7q0 -79 -42.5 -123.5t-127.5 -44.5q-118 0 -162 117q-44 -49 -109.5 -83t-132.5 -34q-104 0 -178 71t-74 181q0 44 15.5 81.5t38 64.5t60.5 51t68 38t78 28.5t72.5 20.5t67.5 15q39 6 94 17v43q0 71 -45 116.5t-121 45.5q-89 0 -199 -68q-51 -11 -75.5 26
t-24.5 85q78 56 177.5 95.5t191.5 39.5q141 0 235 -90.5t94 -251.5q0 -37 -4 -172t-4 -207q0 -24 20 -41t56 -17q16 0 31 3zM283 266q0 -57 36.5 -90t90.5 -33q62 0 114 52q17 20 17 67v162q-127 -17 -192.5 -59.5t-65.5 -98.5zM362 1350q65 0 121 -70q35 -47 54 -47
q33 0 49 96q6 21 20 21q15 0 46.5 -9t45.5 -20q-20 -248 -159 -248q-35 0 -62 19.5t-63 58.5q-23 26 -34 35.5t-24 9.5q-32 -3 -53 -94q-3 -21 -18 -21q-18 0 -53 6t-46 11q18 252 176 252z" />
    <glyph glyph-name="adieresis" unicode="&#xe4;" horiz-adv-x="913" 
d="M877 150v-7q0 -79 -42.5 -123.5t-127.5 -44.5q-118 0 -162 117q-44 -49 -109.5 -83t-132.5 -34q-104 0 -178 71t-74 181q0 44 15.5 81.5t38 64.5t60.5 51t68 38t78 28.5t72.5 20.5t67.5 15q39 6 94 17v43q0 71 -45 116.5t-121 45.5q-89 0 -199 -68q-51 -11 -75.5 26
t-24.5 85q78 56 177.5 95.5t191.5 39.5q141 0 235 -90.5t94 -251.5q0 -37 -4 -172t-4 -207q0 -24 20 -41t56 -17q16 0 31 3zM283 266q0 -57 36.5 -90t90.5 -33q62 0 114 52q17 20 17 67v162q-127 -17 -192.5 -59.5t-65.5 -98.5zM252 1323q48 0 79 -35t31 -82
q0 -58 -32 -91.5t-86 -33.5q-45 0 -80 31.5t-35 87.5q0 54 32.5 88.5t90.5 34.5zM629 1323q50 0 81 -34t31 -83q0 -58 -32.5 -91.5t-87.5 -33.5q-44 0 -78.5 31.5t-34.5 87.5q0 55 31.5 89t89.5 34z" />
    <glyph glyph-name="aring" unicode="&#xe5;" horiz-adv-x="913" 
d="M877 150v-7q0 -79 -42.5 -123.5t-127.5 -44.5q-118 0 -162 117q-44 -49 -109.5 -83t-132.5 -34q-104 0 -178 71t-74 181q0 44 15.5 81.5t38 64.5t60.5 51t68 38t78 28.5t72.5 20.5t67.5 15q39 6 94 17v43q0 71 -45 116.5t-121 45.5q-89 0 -199 -68q-51 -11 -75.5 26
t-24.5 85q78 56 177.5 95.5t191.5 39.5q141 0 235 -90.5t94 -251.5q0 -37 -4 -172t-4 -207q0 -24 20 -41t56 -17q16 0 31 3zM283 266q0 -57 36.5 -90t90.5 -33q62 0 114 52q17 20 17 67v162q-127 -17 -192.5 -59.5t-65.5 -98.5zM453 1405q86 0 141 -55.5t55 -141.5
q0 -83 -56.5 -138.5t-143.5 -55.5q-83 0 -141 51t-58 143q0 82 55.5 139.5t147.5 57.5zM449 1303q-35 0 -56.5 -28t-21.5 -63q0 -45 24.5 -71.5t59.5 -26.5q35 1 54 27.5t19 64.5q0 40 -20 68.5t-59 28.5z" />
    <glyph glyph-name="ae" unicode="&#xe6;" horiz-adv-x="1366" 
d="M1272 197l4 -4q0 -61 -43 -119.5t-72 -69.5q-20 -9 -75.5 -19t-100.5 -10q-259 4 -350 160q-147 -160 -330 -160q-107 0 -180.5 68t-73.5 178q0 232 408 316q16 3 94 14v41q0 63 -43.5 109.5t-118.5 46.5q-40 0 -78.5 -9.5t-60.5 -20t-59 -30.5q-51 -25 -84.5 7
t-30.5 102q76 57 173.5 93t190.5 36q89 0 153 -34.5t99 -94.5q112 129 285 129q73 0 132.5 -21.5t97 -56.5t63 -81.5t36 -93t11.5 -95.5q0 -40 -8 -68q-10 -40 -164 -78q-36 -7 -162 -11.5t-217 -2.5q4 -124 83.5 -195t205.5 -71q106 0 215 45zM940 793q-70 0 -118 -64.5
t-52 -179.5q145 -9 299 4q23 3 23 43q2 82 -39.5 139.5t-112.5 57.5zM408 145q99 0 176 95q-13 29 -24 86t-11 98q-132 -14 -199 -60t-67 -106q0 -51 36 -82t89 -31z" />
    <glyph glyph-name="ccedilla" unicode="&#xe7;" horiz-adv-x="858" 
d="M352 -166l107 146q-180 20 -291 135.5t-111 314.5q0 218 144.5 357t361.5 139q91 0 161 -21.5t105 -56.5q4 -36 -16.5 -77t-60.5 -46q-84 37 -177 37q-118 0 -194 -77.5t-76 -219.5q0 -82 26 -144.5t70 -97.5t94.5 -52t106.5 -17q124 0 217 39l4 -5q-2 -46 -20 -91.5
t-47 -69.5q-61 -37 -158 -47l-57 -80q60 -19 95.5 -62t35.5 -100q0 -87 -84 -147t-187 -66q-24 5 -41.5 30.5t-17.5 43.5q0 19 20 26q134 31 134 92q0 35 -41.5 55t-102.5 15v47z" />
    <glyph glyph-name="egrave" unicode="&#xe8;" horiz-adv-x="894" 
d="M801 197l4 -2q0 -58 -35 -113t-65 -70q-25 -12 -82.5 -24.5t-106.5 -12.5q-223 0 -342 120t-119 345q0 127 50.5 236t152.5 179.5t236 70.5q92 0 162.5 -31t110.5 -82.5t60 -110.5t21 -124q0 -47 -8 -66q-13 -42 -166 -80q-35 -8 -165.5 -10t-211.5 2q6 -135 86.5 -203.5
t196.5 -68.5q111 0 221 45zM471 793q-66 0 -115 -61t-55 -175q137 -6 293 0q12 1 19.5 14t7.5 29q2 85 -36 139t-114 54zM391 1393q28 -1 79.5 -105.5t74.5 -189.5q7 -19 4 -29.5t-17 -21.5q-34 -24 -69 -27q-100 151 -223 274q-8 5 -6.5 17.5t14.5 23.5q28 25 67 42t76 16z
" />
    <glyph glyph-name="eacute" unicode="&#xe9;" horiz-adv-x="894" 
d="M801 197l4 -2q0 -58 -35 -113t-65 -70q-25 -12 -82.5 -24.5t-106.5 -12.5q-223 0 -342 120t-119 345q0 127 50.5 236t152.5 179.5t236 70.5q92 0 162.5 -31t110.5 -82.5t60 -110.5t21 -124q0 -47 -8 -66q-13 -42 -166 -80q-35 -8 -165.5 -10t-211.5 2q6 -135 86.5 -203.5
t196.5 -68.5q111 0 221 45zM471 793q-66 0 -115 -61t-55 -175q137 -6 293 0q12 1 19.5 14t7.5 29q2 85 -36 139t-114 54zM551 1391q38 0 76 -17.5t63 -40.5q11 -9 10 -16.5t-16 -24.5q-77 -87 -225 -276q-32 6 -70 31q-18 18 -2 57q32 90 81.5 188t82.5 99z" />
    <glyph glyph-name="ecircumflex" unicode="&#xea;" horiz-adv-x="894" 
d="M801 197l4 -2q0 -58 -35 -113t-65 -70q-25 -12 -82.5 -24.5t-106.5 -12.5q-223 0 -342 120t-119 345q0 127 50.5 236t152.5 179.5t236 70.5q92 0 162.5 -31t110.5 -82.5t60 -110.5t21 -124q0 -47 -8 -66q-13 -42 -166 -80q-35 -8 -165.5 -10t-211.5 2q6 -135 86.5 -203.5
t196.5 -68.5q111 0 221 45zM471 793q-66 0 -115 -61t-55 -175q137 -6 293 0q12 1 19.5 14t7.5 29q2 85 -36 139t-114 54zM338 1040q-38 0 -113 27q132 192 181 285q16 25 40 30q46 9 84 9q92 -152 199 -314q-77 -37 -113 -37q-27 0 -38 19q-86 128 -105 158
q-52 -90 -98 -150q-20 -27 -37 -27z" />
    <glyph glyph-name="edieresis" unicode="&#xeb;" horiz-adv-x="894" 
d="M801 197l4 -2q0 -58 -35 -113t-65 -70q-25 -12 -82.5 -24.5t-106.5 -12.5q-223 0 -342 120t-119 345q0 127 50.5 236t152.5 179.5t236 70.5q92 0 162.5 -31t110.5 -82.5t60 -110.5t21 -124q0 -47 -8 -66q-13 -42 -166 -80q-35 -8 -165.5 -10t-211.5 2q6 -135 86.5 -203.5
t196.5 -68.5q111 0 221 45zM471 793q-66 0 -115 -61t-55 -175q137 -6 293 0q12 1 19.5 14t7.5 29q2 85 -36 139t-114 54zM287 1323q48 0 79 -35t31 -82q0 -58 -32 -91.5t-86 -33.5q-45 0 -80 31.5t-35 87.5q0 54 32.5 88.5t90.5 34.5zM664 1323q50 0 81 -34t31 -83
q0 -58 -33 -91.5t-88 -33.5q-44 0 -78 31.5t-34 87.5q0 55 31.5 89t89.5 34z" />
    <glyph glyph-name="igrave" unicode="&#xec;" horiz-adv-x="491" 
d="M369 784v-735q0 -27 -12.5 -37.5t-47.5 -15.5q-52 -8 -190 -8q6 252 6 323v348q0 148 -8 230q30 9 103.5 16.5t109.5 7.5q17 0 24.5 -7.5t11 -34.5t3.5 -87zM170 1393q28 -1 79.5 -105.5t74.5 -189.5q12 -29 -13 -51q-34 -24 -69 -27q-106 154 -226 274q-8 5 -6 17.5
t15 23.5q28 24 68 41.5t77 16.5z" />
    <glyph glyph-name="iacute" unicode="&#xed;" horiz-adv-x="491" 
d="M369 784v-735q0 -27 -12.5 -37.5t-47.5 -15.5q-52 -8 -190 -8q6 252 6 323v348q0 148 -8 230q30 9 103.5 16.5t109.5 7.5q17 0 24.5 -7.5t11 -34.5t3.5 -87zM315 1391q38 0 76.5 -17.5t63.5 -40.5q11 -9 10 -16.5t-16 -24.5q-85 -95 -226 -276q-31 6 -69 31q-18 18 -2 57
q18 51 43 109.5t61 117.5t59 60z" />
    <glyph glyph-name="icircumflex" unicode="&#xee;" horiz-adv-x="491" 
d="M369 784v-735q0 -27 -12.5 -37.5t-47.5 -15.5q-52 -8 -190 -8q6 252 6 323v348q0 148 -8 230q30 9 103.5 16.5t109.5 7.5q17 0 24.5 -7.5t11 -34.5t3.5 -87zM109 1040q-38 0 -113 27q12 18 38.5 57.5t40 59.5t33.5 52t36.5 59.5t31.5 56.5q16 25 41 30q47 9 84 9
q82 -141 199 -314q-77 -37 -113 -37q-28 0 -39 19q-71 106 -104 158q-49 -84 -99 -150q-24 -27 -36 -27z" />
    <glyph glyph-name="idieresis" unicode="&#xef;" horiz-adv-x="491" 
d="M369 784v-735q0 -27 -12.5 -37.5t-47.5 -15.5q-52 -8 -190 -8q6 252 6 323v348q0 148 -8 230q30 9 103.5 16.5t109.5 7.5q17 0 24.5 -7.5t11 -34.5t3.5 -87zM72 1323q48 0 79 -35t31 -82q0 -58 -32.5 -91.5t-86.5 -33.5q-45 0 -79.5 31.5t-34.5 87.5q0 54 32.5 88.5
t90.5 34.5zM449 1323q50 0 81 -34t31 -83q0 -58 -33 -91.5t-88 -33.5q-44 0 -78 31.5t-34 87.5q0 55 31.5 89t89.5 34z" />
    <glyph glyph-name="eth" unicode="&#xf0;" horiz-adv-x="1011" 
d="M858 1249l-149 -73q118 -121 183.5 -291t65.5 -355q0 -142 -36.5 -250.5t-101 -174t-146.5 -98t-180 -32.5q-91 0 -169 28t-138.5 83t-95 144t-34.5 202q0 217 128 354.5t341 137.5q65 0 123 -27q-18 47 -55 100.5t-78 89.5l-293 -141q-28 -12 -36.5 -9t-8.5 21
q0 31 8.5 63t16.5 42l209 104q-43 32 -119 63t-123 42v6q13 25 29 45q20 42 38 55t52 13q39 0 132 -36t187 -98l232 117q32 15 41.5 12t9.5 -26q0 -83 -33 -111zM535 780q-100 0 -163 -81t-63 -244t60.5 -249.5t136.5 -86.5q109 0 158 102t49 299q0 126 -29 199
q-58 61 -149 61z" />
    <glyph glyph-name="ntilde" unicode="&#xf1;" horiz-adv-x="1075" 
d="M707 25l2 534q0 89 -44.5 139t-111.5 50q-53 0 -93 -20.5t-83 -57.5v-619q0 -30 -8 -39.5t-39 -13.5q-85 -10 -201 -10q6 159 6 372v340q0 47 -8 71t-31 36v12q12 43 53.5 75t90.5 32q101 0 125 -135q154 135 282 135q74 0 129.5 -23t88 -59t52.5 -87t26.5 -98t6.5 -102
v-266q0 -182 6 -287q-8 -1 -50 -5.5t-81 -7.5t-77 -3q-41 0 -41 37zM446 1350q65 0 121 -70q13 -17 19.5 -25t15 -15t16.5 -7q33 0 52 96q6 21 20 21q15 0 46.5 -9t45.5 -20q-20 -248 -159 -248q-35 0 -62 19.5t-63 58.5q-23 26 -34 35.5t-24 9.5q-35 -3 -53 -94
q-3 -21 -18 -21q-18 0 -53 6t-46 11q18 252 176 252z" />
    <glyph glyph-name="ograve" unicode="&#xf2;" horiz-adv-x="1026" 
d="M524 926q111 0 198 -38t140.5 -103t81 -147t27.5 -175q0 -217 -128.5 -352.5t-340.5 -135.5q-200 0 -323.5 126t-123.5 343q0 208 133 345t336 137zM504 784q-94 0 -144.5 -85.5t-50.5 -227.5q0 -174 61.5 -264t155.5 -90q91 0 141 86.5t50 236.5q0 153 -55 248.5
t-158 95.5zM440 1393q28 -1 79.5 -105.5t74.5 -189.5q13 -32 -12 -51q-34 -24 -70 -27q-100 151 -223 274q-8 5 -6.5 17.5t14.5 23.5q26 24 66 41.5t77 16.5z" />
    <glyph glyph-name="oacute" unicode="&#xf3;" horiz-adv-x="1026" 
d="M524 926q111 0 198 -38t140.5 -103t81 -147t27.5 -175q0 -217 -128.5 -352.5t-340.5 -135.5q-200 0 -323.5 126t-123.5 343q0 208 133 345t336 137zM504 784q-94 0 -144.5 -85.5t-50.5 -227.5q0 -174 61.5 -264t155.5 -90q91 0 141 86.5t50 236.5q0 153 -55 248.5
t-158 95.5zM569 1391q38 0 76.5 -17.5t63.5 -40.5q11 -9 9.5 -16.5t-16.5 -24.5q-77 -87 -225 -276q-31 6 -69 31q-18 18 -2 57q18 51 43 109.5t61 117.5t59 60z" />
    <glyph glyph-name="ocircumflex" unicode="&#xf4;" horiz-adv-x="1026" 
d="M524 926q111 0 198 -38t140.5 -103t81 -147t27.5 -175q0 -217 -128.5 -352.5t-340.5 -135.5q-200 0 -323.5 126t-123.5 343q0 208 133 345t336 137zM504 784q-94 0 -144.5 -85.5t-50.5 -227.5q0 -174 61.5 -264t155.5 -90q91 0 141 86.5t50 236.5q0 153 -55 248.5
t-158 95.5zM391 1040q-37 0 -112 27q136 198 182 285q12 25 39 30q46 9 84 9q103 -171 198 -314q-71 -37 -112 -37q-28 0 -39 19q-14 22 -49.5 74.5t-55.5 83.5q-47 -86 -98 -150q-20 -27 -37 -27z" />
    <glyph glyph-name="otilde" unicode="&#xf5;" horiz-adv-x="1026" 
d="M524 926q111 0 198 -38t140.5 -103t81 -147t27.5 -175q0 -217 -128.5 -352.5t-340.5 -135.5q-200 0 -323.5 126t-123.5 343q0 208 133 345t336 137zM504 784q-94 0 -144.5 -85.5t-50.5 -227.5q0 -174 61.5 -264t155.5 -90q91 0 141 86.5t50 236.5q0 153 -55 248.5
t-158 95.5zM420 1350q65 0 121 -70q13 -17 19.5 -25t15 -15t16.5 -7q32 0 51 96q6 21 21 21t46.5 -9t45.5 -20q-20 -248 -160 -248q-35 0 -62 19.5t-63 58.5q-23 27 -34 36t-23 9q-36 -4 -54 -94q-4 -21 -18 -21q-18 0 -52.5 6t-45.5 11q18 252 176 252z" />
    <glyph glyph-name="odieresis" unicode="&#xf6;" horiz-adv-x="1026" 
d="M524 926q111 0 198 -38t140.5 -103t81 -147t27.5 -175q0 -217 -128.5 -352.5t-340.5 -135.5q-200 0 -323.5 126t-123.5 343q0 208 133 345t336 137zM504 784q-94 0 -144.5 -85.5t-50.5 -227.5q0 -174 61.5 -264t155.5 -90q91 0 141 86.5t50 236.5q0 153 -55 248.5
t-158 95.5zM319 1323q48 0 79.5 -35t31.5 -82q0 -58 -32.5 -91.5t-86.5 -33.5q-45 0 -79.5 31.5t-34.5 87.5q0 54 32 88.5t90 34.5zM696 1323q50 0 81.5 -34t31.5 -83q0 -58 -33 -91.5t-88 -33.5q-44 0 -78.5 31.5t-34.5 87.5q0 55 31.5 89t89.5 34z" />
    <glyph glyph-name="divide" unicode="&#xf7;" horiz-adv-x="1169" 
d="M582 721q-43 0 -75 34.5t-32 78.5q0 46 32.5 80t76.5 34q48 0 80 -33.5t32 -80.5q0 -48 -32.5 -80.5t-81.5 -32.5zM977 424h-850q2 87 15 120.5t48 33.5h852q-2 -78 -15 -116t-50 -38zM582 281q45 0 77.5 -33.5t32.5 -79.5t-33.5 -80.5t-76.5 -34.5q-45 0 -78 34.5
t-33 80.5q0 47 32.5 80t78.5 33z" />
    <glyph glyph-name="oslash" unicode="&#xf8;" horiz-adv-x="1042" 
d="M895 879l-49 -70q70 -57 104.5 -151.5t34.5 -202.5q0 -210 -128 -345t-331 -135q-148 0 -235 50l-58 -78q-24 -39 -49 -8q-3 4 -11 15t-11 15t-8.5 12.5t-8 15t-4.5 13.5l58 78q-144 125 -144 358q0 203 134.5 341.5t336.5 138.5q138 0 228 -52l43 60q20 30 30.5 32
t24.5 -18q38 -47 43 -69zM334 268l313 463q-61 57 -129 57q-103 0 -163 -92t-60 -237q0 -114 39 -191zM709 633l-314 -459q59 -59 137 -59q99 0 157.5 88.5t58.5 232.5q0 124 -39 197z" />
    <glyph glyph-name="ugrave" unicode="&#xf9;" horiz-adv-x="1064" 
d="M125 317v345q0 149 -8 227q31 10 100.5 17t112.5 7q23 0 30 -21.5t7 -107.5q2 -133 2 -438q0 -58 15.5 -97.5t42 -58.5t52.5 -26.5t56 -7.5q86 0 153 63v602q0 43 7.5 58.5t33.5 21.5q132 12 207 12q0 -4 -3 -132.5t-3 -235.5v-320q0 -61 18 -84.5t62 -31.5v-11
q-8 -46 -45.5 -84.5t-75.5 -38.5q-78 0 -118 33.5t-56 97.5q-64 -61 -156 -102q-71 -29 -129 -29q-154 0 -229.5 92t-75.5 250zM440 1393q28 -1 79.5 -105.5t74.5 -189.5q12 -30 -12 -51q-34 -24 -70 -27q-107 155 -223 274q-9 6 -8 17.5t14 23.5q28 24 68 41.5t77 16.5z
" />
    <glyph glyph-name="uacute" unicode="&#xfa;" horiz-adv-x="1064" 
d="M125 317v345q0 149 -8 227q31 10 100.5 17t112.5 7q23 0 30 -21.5t7 -107.5q2 -133 2 -438q0 -58 15.5 -97.5t42 -58.5t52.5 -26.5t56 -7.5q86 0 153 63v602q0 43 7.5 58.5t33.5 21.5q132 12 207 12q0 -4 -3 -132.5t-3 -235.5v-320q0 -61 18 -84.5t62 -31.5v-11
q-8 -46 -45.5 -84.5t-75.5 -38.5q-78 0 -118 33.5t-56 97.5q-64 -61 -156 -102q-71 -29 -129 -29q-154 0 -229.5 92t-75.5 250zM621 1391q38 0 76 -17.5t63 -40.5q11 -9 10 -16.5t-16 -24.5q-85 -95 -226 -276q-31 6 -69 31q-18 18 -2 57q32 90 81.5 188t82.5 99z" />
    <glyph glyph-name="ucircumflex" unicode="&#xfb;" horiz-adv-x="1064" 
d="M125 317v345q0 149 -8 227q31 10 100.5 17t112.5 7q23 0 30 -21.5t7 -107.5q2 -133 2 -438q0 -58 15.5 -97.5t42 -58.5t52.5 -26.5t56 -7.5q86 0 153 63v602q0 43 7.5 58.5t33.5 21.5q132 12 207 12q0 -4 -3 -132.5t-3 -235.5v-320q0 -61 18 -84.5t62 -31.5v-11
q-8 -46 -45.5 -84.5t-75.5 -38.5q-78 0 -118 33.5t-56 97.5q-64 -61 -156 -102q-71 -29 -129 -29q-154 0 -229.5 92t-75.5 250zM389 1042q-34 0 -113 27q8 11 39.5 56.5t42 61.5t32.5 50t38 60.5t31 54.5q13 26 41 32q44 9 84 9q93 -161 196 -314q-71 -37 -112 -37
q-25 0 -39 19q-11 18 -46.5 70.5t-56.5 87.5q-58 -99 -98 -150q-24 -27 -39 -27z" />
    <glyph glyph-name="udieresis" unicode="&#xfc;" horiz-adv-x="1064" 
d="M125 317v345q0 149 -8 227q31 10 100.5 17t112.5 7q23 0 30 -21.5t7 -107.5q2 -133 2 -438q0 -58 15.5 -97.5t42 -58.5t52.5 -26.5t56 -7.5q86 0 153 63v602q0 43 7.5 58.5t33.5 21.5q132 12 207 12q0 -4 -3 -132.5t-3 -235.5v-320q0 -61 18 -84.5t62 -31.5v-11
q-8 -46 -45.5 -84.5t-75.5 -38.5q-78 0 -118 33.5t-56 97.5q-64 -61 -156 -102q-71 -29 -129 -29q-154 0 -229.5 92t-75.5 250zM338 1323q48 0 79.5 -35t31.5 -82q0 -58 -32.5 -91.5t-86.5 -33.5q-45 0 -80 31.5t-35 87.5q0 54 32.5 88.5t90.5 34.5zM715 1323q50 0 81 -34
t31 -83q0 -58 -32.5 -91.5t-87.5 -33.5q-44 0 -78.5 31.5t-34.5 87.5q0 55 31.5 89t89.5 34z" />
    <glyph glyph-name="yacute" unicode="&#xfd;" horiz-adv-x="884" 
d="M100 -348v6q52 55 131.5 166.5t135.5 216.5q-27 43 -48 94q-2 6 -49.5 129.5t-84.5 218.5t-85.5 212.5t-76.5 174.5q43 22 105 39t99 17q25 0 37 -13.5t23 -42.5q79 -197 207 -585q51 129 111.5 329t82.5 312q55 -2 133 -23q34 -9 42 -29.5t-3 -56.5q-94 -389 -254 -717
q-102 -215 -206 -367.5t-142 -152.5q-49 0 -93.5 23t-64.5 49zM543 1391q38 0 76 -17.5t63 -40.5q11 -9 10 -16.5t-16 -24.5q-77 -87 -225 -276q-32 6 -70 31q-18 18 -2 57q32 90 81.5 188t82.5 99z" />
    <glyph glyph-name="thorn" unicode="&#xfe;" horiz-adv-x="1058" 
d="M367 10v-385q0 -27 -8.5 -37t-39.5 -16q-85 -10 -200 -10q6 132 6 340v788v447q0 135 -8 217q27 13 102.5 25t110.5 12q24 0 29.5 -21.5t5.5 -112.5v-442q141 111 270 111q167 0 268 -118.5t101 -309.5q0 -143 -60.5 -262t-173.5 -190t-256 -71q-75 0 -147 35zM367 680
v-526q59 -27 122 -27q110 0 185.5 91.5t75.5 254.5q0 111 -60.5 190.5t-159.5 79.5q-91 0 -163 -63z" />
    <glyph glyph-name="ydieresis" unicode="&#xff;" horiz-adv-x="884" 
d="M100 -348v6q52 55 131.5 166.5t135.5 216.5q-27 43 -48 94q-2 6 -49.5 129.5t-84.5 218.5t-85.5 212.5t-76.5 174.5q43 22 105 39t99 17q25 0 37 -13.5t23 -42.5q79 -197 207 -585q51 129 111.5 329t82.5 312q55 -2 133 -23q34 -9 42 -29.5t-3 -56.5q-94 -389 -254 -717
q-102 -215 -206 -367.5t-142 -152.5q-49 0 -93.5 23t-64.5 49zM272 1323q48 0 79.5 -35t31.5 -82q0 -58 -32.5 -91.5t-86.5 -33.5q-45 0 -79.5 31.5t-34.5 87.5q0 54 32 88.5t90 34.5zM649 1323q50 0 81.5 -34t31.5 -83q0 -58 -33 -91.5t-88 -33.5q-44 0 -78.5 31.5
t-34.5 87.5q0 55 31.5 89t89.5 34z" />
    <glyph glyph-name="OE" unicode="&#x152;" horiz-adv-x="1955" 
d="M1415 737h428q-12 -57 -25 -90.5t-33 -48t-36.5 -17.5t-50.5 -3h-283v-416q67 -15 195 -15q201 0 311 9l2 -4q-11 -59 -39 -94t-72 -60q-48 -10 -256 -10q-254 0 -352 20l-30 39v121q-69 -95 -188 -147t-259 -52q-139 0 -253 39t-188 103t-125 149t-73 173t-22 179
q0 199 83.5 358t236.5 250t349 91q142 0 254.5 -49t184.5 -140v131q72 20 217 27h475q-6 -41 -19 -73t-19.5 -40.5t-25.5 -33.5q-34 -13 -174 -13h-213v-383zM334 645q0 -229 113 -375.5t309 -146.5q89 0 165 32t135 93.5t92.5 162t33.5 228.5q0 112 -25 201.5t-66.5 147.5
t-98 97t-116 55.5t-124.5 16.5q-183 0 -300.5 -142t-117.5 -370z" />
    <glyph glyph-name="oe" unicode="&#x153;" horiz-adv-x="1552" 
d="M1458 188l2 -4q0 -59 -42.5 -113.5t-76.5 -68.5q-20 -8 -71.5 -17.5t-98.5 -9.5q-101 0 -196 37t-148 115q-51 -71 -136 -111.5t-185 -40.5q-95 0 -176.5 30.5t-143 88t-96.5 148t-35 204.5q0 205 133 342.5t336 137.5q103 0 186.5 -41t135.5 -117q54 74 134 116t175 42
q90 0 158.5 -30t108.5 -81.5t60.5 -111t22.5 -125.5q0 -54 -6 -70q-4 -22 -52 -41t-112 -31q-38 -8 -159 -12.5t-228 -3.5q3 -123 87 -196.5t206 -73.5q111 0 217 38zM1124 793q-66 0 -115 -63t-59 -177q80 -4 170 -2t133 6q25 3 25 37q0 86 -37.5 142.5t-116.5 56.5z
M514 786q-96 0 -150.5 -87.5t-54.5 -227.5q0 -181 63 -266.5t156 -85.5q97 0 148 90.5t51 241.5q0 67 -13 126t-38.5 106.5t-67 75t-94.5 27.5z" />
    <glyph glyph-name="Ydieresis" unicode="&#x178;" horiz-adv-x="1146" 
d="M459 25v481q0 59 -17 92q-156 270 -413 647v6q132 35 219 35q28 0 46 -15.5t54 -76.5q31 -51 124.5 -212.5t141.5 -240.5q60 91 177.5 287t150.5 258q106 0 164 -20q24 -11 23.5 -30t-21.5 -54q-30 -49 -200.5 -305t-176.5 -265q-22 -40 -22 -86v-276q0 -117 6 -246
q-75 -16 -221 -16q-22 0 -28.5 7t-6.5 30zM410 1604q45 0 75.5 -33t30.5 -78q0 -58 -32 -90.5t-85 -32.5q-45 0 -77.5 29t-32.5 84q0 54 31.5 87.5t89.5 33.5zM799 1604q46 0 76 -32t30 -79q0 -58 -31.5 -90.5t-85.5 -32.5q-43 0 -75.5 29.5t-32.5 83.5t31 87.5t88 33.5z
" />
    <glyph glyph-name="tilde" unicode="&#x2dc;" horiz-adv-x="819" 
d="M330 1350q65 0 121 -70q13 -17 19.5 -25t15 -15t16.5 -7q32 0 51 96q6 21 20 21q15 0 47 -9t46 -20q-20 -248 -160 -248q-35 0 -62 19.5t-63 58.5q-23 27 -34 36t-23 9q-36 -4 -54 -94q-4 -21 -18 -21q-18 0 -52.5 6t-45.5 11q18 252 176 252z" />
    <glyph glyph-name="endash" unicode="&#x2013;" horiz-adv-x="1101" 
d="M160 580h848l-11 -76q-10 -96 -49 -96h-854l12 75q9 53 21.5 75t32.5 22z" />
    <glyph glyph-name="emdash" unicode="&#x2014;" horiz-adv-x="1869" 
d="M160 580h1616l-13 -84q-8 -58 -20.5 -73t-40.5 -15h-1608l10 77q7 57 20 76t36 19z" />
    <glyph glyph-name="quoteleft" unicode="&#x2018;" horiz-adv-x="434" 
d="M57 1044q0 86 47 181.5t109 144.5q52 42 158 39q-103 -173 -103 -340q0 -44 11 -86q-102 -45 -152 -45q-34 0 -52 30.5t-18 75.5z" />
    <glyph glyph-name="quoteright" unicode="&#x2019;" horiz-adv-x="434" 
d="M379 1290q0 -84 -47 -179t-109 -144q-52 -42 -160 -39q47 75 76 165t29 177q0 26 -10 84q102 45 151 45q34 0 52 -31t18 -78z" />
    <glyph glyph-name="quotedblleft" unicode="&#x201c;" horiz-adv-x="765" 
d="M57 1044q0 86 47 181.5t109 144.5q52 42 158 39q-103 -173 -103 -342q0 -42 11 -84q-102 -45 -152 -45q-34 0 -52 30.5t-18 75.5zM387 1047q0 84 47 179t109 144q52 42 159 39q-104 -169 -104 -340q0 -40 12 -86q-3 -1 -18.5 -8t-22 -9t-21 -8t-23.5 -8.5t-21.5 -5.5
t-24 -4.5t-22.5 -1.5q-34 0 -52 31t-18 78z" />
    <glyph glyph-name="quotedblright" unicode="&#x201d;" horiz-adv-x="757" 
d="M379 1290q0 -84 -47 -179t-109 -144q-52 -42 -160 -39q105 167 105 342q0 26 -10 84q102 45 151 45q34 0 52 -31t18 -78zM705 1290q0 -84 -48 -179t-110 -144q-50 -42 -158 -39q103 170 103 342q0 42 -11 84q103 45 152 45q34 0 53 -31t19 -78z" />
    <glyph glyph-name="quotedblbase" unicode="&#x201e;" horiz-adv-x="724" 
d="M328 188q0 -89 -53.5 -189t-120.5 -149q-51 -39 -162 -36q114 173 114 352q0 56 -12 90q9 3 35 13t42 16t39 11t42 5q36 0 56 -33.5t20 -79.5zM664 188q0 -88 -53.5 -187t-121.5 -151q-49 -39 -161 -36q114 173 114 352q0 44 -12 90q9 3 35.5 13.5t42 15.5t39.5 10.5
t43 5.5q35 0 54.5 -33.5t19.5 -79.5z" />
    <glyph glyph-name="bullet" unicode="&#x2022;" horiz-adv-x="667" 
d="M340 715q100 0 164.5 -72t64.5 -166q0 -110 -67 -178t-176 -68q-85 0 -155.5 63.5t-70.5 174.5q0 109 65.5 177.5t174.5 68.5z" />
    <glyph glyph-name="ellipsis" unicode="&#x2026;" horiz-adv-x="1544" 
d="M254 268q59 0 94 -41.5t35 -101.5q0 -66 -38.5 -107t-102.5 -41q-51 0 -92 37.5t-41 104.5q0 63 39.5 106t105.5 43zM768 268q59 0 94 -41.5t35 -101.5q0 -66 -38.5 -107t-102.5 -41q-51 0 -92 37.5t-41 104.5q0 65 38 107t107 42zM1282 268q59 0 94 -41.5t35 -101.5
q0 -66 -38.5 -107t-102.5 -41q-51 0 -92 37.5t-41 104.5q0 65 38 107t107 42z" />
    <glyph glyph-name="guilsinglleft" unicode="&#x2039;" horiz-adv-x="831" 
d="M518 129q0 -27 -31.5 -54t-58.5 -34q-128 210 -319 391q-19 30 -19 51q165 127 359 404q25 -5 55 -32.5t33 -55.5q0 -39 -75.5 -149t-137.5 -187q42 -50 118 -173.5t76 -160.5z" />
    <glyph glyph-name="guilsinglright" unicode="&#x203a;" horiz-adv-x="831" 
d="M315 799q0 26 32 53.5t59 32.5q123 -202 319 -389q16 -26 16 -54q-159 -122 -356 -399q-25 5 -56 32.5t-34 55.5q0 38 81.5 155.5t133.5 176.5q-45 56 -120 177t-75 159z" />
    <glyph glyph-name="Euro" unicode="&#x20ac;" horiz-adv-x="983" 
d="M913 174l7 -2q-10 -93 -50 -145q-27 -23 -84 -37.5t-127 -14.5q-215 0 -344.5 116.5t-164.5 338.5h-140q17 74 39.5 95.5t65.5 21.5h24q-3 55 0 108h-90q14 65 34.5 91t49.5 26h25q21 99 65.5 182t109.5 146t155 98t196 35q149 0 227 -62q9 -13 11.5 -33.5t-2.5 -33.5
q-9 -46 -52 -68q-68 39 -163 39q-123 0 -200.5 -81t-103.5 -222h426q-9 -41 -19 -65t-25.5 -35.5t-30 -14t-41.5 -2.5h-328q-3 -53 0 -108h385q-19 -78 -41.5 -97.5t-77.5 -19.5h-248q31 -150 114.5 -223.5t205.5 -73.5q49 0 104 13t88 28z" />
    <glyph glyph-name="trademark" unicode="&#x2122;" horiz-adv-x="868" 
d="M160 975v242h-101q-15 0 -10 16q4 34 21 51q8 -2 80 -2h223q0 -17 -11.5 -39t-23.5 -26h-84v-185q0 -21 1 -41t1 -22l-82 -4q-14 0 -14 10zM774 1268l27 -185q9 -60 22 -114q-40 -8 -86 -8q-6 0 -10 5t-4 11q-1 14 -6 43.5t-6 40.5l-17 137q-18 -56 -78 -225
q-27 -4 -65 -4q-27 89 -78 213q-3 -15 -14.5 -96.5t-16.5 -112.5q-2 -12 -10 -12q-37 0 -65 8q4 18 13.5 72.5t20.5 109.5t21 100l-8 23q27 10 104 10q10 0 27 -41l55 -135q11 32 33.5 89t28.5 73l2 6q24 8 100 8q7 0 10 -16z" />
    <glyph glyph-name="AE.sc" unicode="&#xe001;" horiz-adv-x="1361" 
d="M682 338h-287q-90 -210 -153 -326q-13 -22 -43 -22q-122 0 -174 18l-2 15q39 74 215 434.5t225 453.5q11 22 16 45q20 1 66 5.5t86 7t69 2.5h555q-13 -101 -51 -135q-21 -19 -155 -19h-160l24 -328h336q-28 -96 -60.5 -125.5t-78.5 -29.5h-184l14 -180q26 -13 135 -13
q190 0 258 6l4 -8q-26 -86 -108 -143q-33 -8 -185 -8q-258 0 -319 14l-23 31zM465 489h207l-21 330h-39q-24 -48 -147 -330z" />
    <glyph glyph-name="AEacute.sc" unicode="&#xe002;" horiz-adv-x="1361" 
d="M682 338h-287q-90 -210 -153 -326q-13 -22 -43 -22q-122 0 -174 18l-2 15q39 74 215 434.5t225 453.5q11 22 16 45q20 1 66 5.5t86 7t69 2.5h555q-13 -101 -51 -135q-21 -19 -155 -19h-160l24 -328h336q-28 -96 -60.5 -125.5t-78.5 -29.5h-184l14 -180q26 -13 135 -13
q190 0 258 6l4 -8q-26 -86 -108 -143q-33 -8 -185 -8q-258 0 -319 14l-23 31zM465 489h207l-21 330h-39q-24 -48 -147 -330zM874 1401q67 -15 127 -94q8 -13 5 -21.5t-23 -19.5q-38 -25 -84.5 -58t-78 -56.5t-78 -57.5t-60.5 -45q-36 15 -61 51q-17 17 10 55t54.5 73
t66 80.5t71 71t51.5 21.5z" />
    <glyph glyph-name="Aacute.sc" unicode="&#xe003;" horiz-adv-x="1073" 
d="M705 227h-361q-61 -154 -84 -204q-7 -18 -19 -24.5t-36 -6.5q-98 0 -176 16l-2 6q12 29 178 419.5t205 492.5l-7 37q151 22 232 22q26 0 35 -24q36 -88 82 -206.5t93.5 -243t59.5 -155.5q44 -109 142 -338v-8q-17 -9 -89 -13.5t-114 -4.5q-29 0 -44 10.5t-24 36.5
q-24 60 -71 188zM395 385h256q-34 104 -127 363q-19 -52 -129 -363zM713 1427q37 -8 71 -36t54 -58q9 -11 6 -19.5t-23 -19.5q-50 -32 -105 -72t-117.5 -87.5t-78.5 -59.5q-31 15 -63 51q-13 19 12 58q38 53 76.5 102t91 98t76.5 43z" />
    <glyph glyph-name="Abreve.sc" unicode="&#xe004;" horiz-adv-x="1073" 
d="M705 227h-361q-61 -154 -84 -204q-7 -18 -19 -24.5t-36 -6.5q-98 0 -176 16l-2 6q12 29 178 419.5t205 492.5l-7 37q151 22 232 22q26 0 35 -24q36 -88 82 -206.5t93.5 -243t59.5 -155.5q44 -109 142 -338v-8q-17 -9 -89 -13.5t-114 -4.5q-29 0 -44 10.5t-24 36.5
q-24 60 -71 188zM395 385h256q-34 104 -127 363q-19 -52 -129 -363zM403 1389q23 0 23 -23q11 -83 36.5 -116t65.5 -33q53 0 83.5 36t45.5 115q0 6 7 13.5t18 7.5q19 0 41.5 -5.5t39 -15.5t15.5 -22q-13 -142 -81.5 -210.5t-180.5 -68.5q-100 0 -160 73t-59 197
q0 25 33.5 38.5t72.5 13.5z" />
    <glyph glyph-name="Adieresis.sc" unicode="&#xe006;" horiz-adv-x="1073" 
d="M705 227h-361q-61 -154 -84 -204q-7 -18 -19 -24.5t-36 -6.5q-98 0 -176 16l-2 6q12 29 178 419.5t205 492.5l-7 37q151 22 232 22q26 0 35 -24q36 -88 82 -206.5t93.5 -243t59.5 -155.5q44 -109 142 -338v-8q-17 -9 -89 -13.5t-114 -4.5q-29 0 -44 10.5t-24 36.5
q-24 60 -71 188zM395 385h256q-34 104 -127 363q-19 -52 -129 -363zM741 1350q49 0 81 -36t32 -85q0 -61 -34 -96t-93 -35q-45 0 -81 32t-36 89q0 59 34 95t97 36zM340 1350q49 0 83 -36.5t34 -84.5q0 -61 -35 -96t-94 -35q-46 0 -81.5 32t-35.5 89q0 59 34 95t95 36z" />
    <glyph glyph-name="fraction" horiz-adv-x="133" 
d="M471 1169q-83 -143 -336 -567t-405 -684q-28 -45 -54 -22q-44 36 -65 71q581 978 749 1270q15 25 46 6q49 -29 65 -74z" />
    <glyph glyph-name="zero.slash" horiz-adv-x="983" 
d="M315 375l299 647q-49 70 -120 70q-39 0 -73.5 -24t-64.5 -75.5t-47.5 -148t-17.5 -228.5q0 -119 24 -241zM670 854l-299 -649q49 -88 127 -88q30 0 55 10t52.5 42.5t46 85.5t30.5 145.5t12 217.5q0 119 -24 236zM508 1233q76 0 138.5 -23.5t105.5 -61t75.5 -91t51 -108
t30 -118t15.5 -114.5t4 -103q0 -314 -116 -476.5t-327 -162.5q-67 0 -127 18.5t-116.5 64t-97 114.5t-65 178.5t-24.5 247.5q0 91 14 177.5t48 170.5t84.5 147t129.5 101.5t177 38.5z" />
    <glyph glyph-name="i.dot" horiz-adv-x="491" 
d="M252 1348q57 0 90 -36t33 -93q0 -59 -36.5 -98.5t-94.5 -39.5q-51 0 -88 32.5t-37 96.5q0 68 43 103t90 35zM369 784v-735q0 -27 -12.5 -37.5t-47.5 -15.5q-52 -8 -190 -8q6 252 6 323v348q0 148 -8 230q30 9 103.5 16.5t109.5 7.5q17 0 24.5 -7.5t11 -34.5t3.5 -87z" />
    <glyph glyph-name="twodotenleader" horiz-adv-x="1030" 
d="M270 266q59 0 94 -41t35 -100q0 -68 -38.5 -108t-102.5 -40q-51 0 -91 37t-40 105q0 64 37.5 105.5t105.5 41.5zM774 266q59 0 94 -41t35 -100q0 -67 -38 -107.5t-101 -40.5q-52 0 -92.5 37t-40.5 105q0 64 37.5 105.5t105.5 41.5z" />
    <glyph glyph-name="onedotenleader" horiz-adv-x="1024" 
d="M520 266q59 0 94 -41t35 -100q0 -68 -38.5 -108t-102.5 -40q-51 0 -91 37t-40 105q0 64 37.5 105.5t105.5 41.5z" />
    <glyph glyph-name="s_t" horiz-adv-x="1439" 
d="M870 246v499q-47 2 -90 11t-47 20q2 16 23.5 58t40.5 55q3 3 18.5 5t35 4.5t28.5 4.5q6 25 21 87t22 89q-23 2 -72 2q-113 0 -167 -55.5t-69 -157.5q2 -2 17 -12q5 -40 -16.5 -80.5t-63.5 -44.5q-72 35 -141 35q-54 0 -85.5 -23t-31.5 -61q0 -23 12 -42t25 -29t41 -27
q20 -11 79.5 -40t86.5 -44q141 -78 141 -224q0 -74 -30 -132.5t-81 -94.5t-115.5 -55t-136.5 -19q-135 0 -225 64q-38 25 -35 61q2 30 18 62t40 45q43 -30 102 -50t119 -20q58 0 88.5 24.5t30.5 63.5q0 31 -19.5 54.5t-64.5 46.5q-128 67 -150 80q-65 37 -104 96.5
t-39 134.5q0 133 97 211t235 78q21 0 71 -4q12 139 116.5 223t281.5 84q116 0 276 -19q-12 -52 -22.5 -148.5t-10.5 -160.5h301q-6 -48 -17.5 -78.5t-28.5 -43.5t-29 -17t-33 -6q-94 -8 -199 -8q-11 -322 2 -467q13 -136 135 -136q79 0 146 35q8 -16 8 -39q0 -67 -37 -100
q-36 -31 -97.5 -48.5t-129.5 -17.5q-75 0 -129.5 22.5t-84.5 62t-43.5 85.5t-13.5 101z" />
    <glyph glyph-name="a.sc" horiz-adv-x="1073" 
d="M705 227h-361q-61 -154 -84 -204q-7 -18 -19 -24.5t-36 -6.5q-98 0 -176 16l-2 6q12 29 178 419.5t205 492.5l-7 37q151 22 232 22q26 0 35 -24q36 -88 82 -206.5t93.5 -243t59.5 -155.5q44 -109 142 -338v-8q-17 -9 -89 -13.5t-114 -4.5q-29 0 -44 10.5t-24 36.5
q-24 60 -71 188zM395 385h256q-34 104 -127 363q-19 -52 -129 -363z" />
    <glyph glyph-name="b.sc" horiz-adv-x="976" 
d="M137 16v738q0 129 -6 192q41 12 140.5 25.5t197.5 13.5q114 0 193.5 -21t120 -58.5t57 -79.5t16.5 -95q0 -70 -40 -119.5t-107 -74.5q213 -63 213 -236q0 -159 -129.5 -236t-368.5 -77q-65 0 -156.5 9t-130.5 19zM373 838v-271q89 5 170 2q31 12 56.5 43t25.5 82
q0 71 -46.5 111.5t-119.5 40.5q-32 0 -86 -8zM373 430v-293q42 -10 100 -10q76 0 130 40.5t54 117.5q0 67 -48.5 108t-141.5 41q-77 0 -94 -4z" />
    <glyph glyph-name="c.sc" horiz-adv-x="991" 
d="M938 184l4 -4q-1 -45 -18.5 -90.5t-40.5 -69.5q-30 -17 -96 -31t-144 -14q-279 0 -429.5 136.5t-150.5 361.5q0 124 47 224.5t127.5 165.5t185.5 99.5t224 34.5q108 0 193 -27t112 -61q1 -23 -16.5 -62t-32.5 -48q-24 -17 -49 -6q-78 38 -205 38q-143 0 -234 -88.5
t-91 -248.5q0 -161 98.5 -255t271.5 -94q134 0 244 39z" />
    <glyph glyph-name="d.sc" horiz-adv-x="1136" 
d="M137 16v754q0 135 -2 174q37 12 155.5 26.5t209.5 14.5q102 0 186.5 -17t143 -45t103 -68.5t71 -83.5t43 -93t22.5 -93.5t6 -90.5q0 -111 -35.5 -198.5t-95.5 -144.5t-143.5 -94.5t-174.5 -53t-194 -15.5q-161 0 -295 28zM381 825v-684q42 -10 102 -10q44 0 85.5 8.5
t87.5 33.5t80 64t56.5 106t22.5 153q0 164 -89 249.5t-232 85.5q-58 0 -113 -6z" />
    <glyph glyph-name="e.sc" horiz-adv-x="835" 
d="M137 37v715q0 126 -4 198q8 1 93 10.5t136 10.5h392q-9 -111 -56 -144q-25 -12 -149 -12h-168v-248h354q-10 -51 -23 -83t-31 -46t-33.5 -18t-39.5 -4h-227v-260q42 -11 182 -11q139 0 232 7l2 -5q-25 -118 -90 -145q-30 -12 -218 -12q-231 0 -327 14z" />
    <glyph glyph-name="f.sc" horiz-adv-x="837" 
d="M137 20v764q0 38 -4 164q71 16 242 23h416q-8 -70 -24 -101t-40 -43q-23 -12 -135 -12h-211v-276h369q-7 -53 -18 -85.5t-30.5 -47.5t-38 -19t-49.5 -4h-233q0 -279 4 -381q-43 -12 -211 -12q-37 0 -37 30z" />
    <glyph glyph-name="g.sc" horiz-adv-x="1105" 
d="M760 143v195q0 40 -12 127q152 20 219 20q18 0 26 -9.5t8 -33.5v-360q-38 -34 -141 -82q-118 -25 -231 -25q-92 0 -172 15.5t-153.5 53t-126 94.5t-83.5 144.5t-31 198.5q0 124 47.5 224t128.5 163t186 96t224 33q135 0 230.5 -36t121.5 -72q0 -53 -34 -92
q-39 -34 -72 -17q-115 54 -231 54q-144 0 -241 -95t-97 -258q0 -165 96.5 -258.5t243.5 -93.5q56 0 94 14z" />
    <glyph glyph-name="h.sc" horiz-adv-x="1153" 
d="M381 580h393v356q0 24 9.5 32t33.5 11q49 6 207 6q-6 -89 -6 -278v-512q0 -86 6 -191q-46 -12 -219 -12q-15 0 -23 6t-8 25v407q-59 -6 -153 -6h-240v-383q0 -26 -11.5 -34t-47.5 -11q-138 -8 -189 -4q4 66 4 284v500q0 162 -4 197q106 12 213 12q23 0 29 -16t6 -72v-317
z" />
    <glyph glyph-name="i.sc" horiz-adv-x="518" 
d="M137 23v755q0 142 -6 195q21 4 103.5 8t113.5 4q20 0 26.5 -16.5t6.5 -71.5v-700q0 -88 6 -193q-41 -12 -213 -12q-21 0 -29 6t-8 25z" />
    <glyph glyph-name="j.sc" horiz-adv-x="512" 
d="M137 223v543q0 129 -4 203q171 12 219 12q16 0 22.5 -18t6.5 -72v-664q0 -141 -23.5 -222t-74.5 -132q-40 -41 -94 -66.5t-101 -25.5t-80 28t-39 80l2 7q60 17 93.5 46.5t53 97.5t19.5 183z" />
    <glyph glyph-name="k.sc" horiz-adv-x="1017" 
d="M137 20v748q0 152 -6 201q22 4 106.5 10t112.5 6q18 0 23.5 -18t5.5 -76v-397q72 90 213.5 260.5t187.5 230.5q83 0 154 -12q33 -4 36.5 -18.5t-18.5 -43.5q-78 -95 -338 -389q65 -100 183 -253t204 -257v-6q-41 -18 -223 -18q-49 0 -100 71q-20 27 -96.5 129t-131 177
t-71.5 106v-276q0 -92 6 -191q-13 -5 -89.5 -8.5t-121.5 -3.5q-22 0 -29.5 5t-7.5 23z" />
    <glyph glyph-name="l.sc" horiz-adv-x="808" 
d="M137 37v739q0 160 -4 197q87 12 213 12q22 0 28.5 -17t6.5 -71l-2 -739q59 -13 182 -13q94 0 213 9l2 -2q-9 -52 -37 -91t-53 -55q-20 -9 -57 -11.5t-144 -2.5q-232 0 -323 14z" />
    <glyph glyph-name="m.sc" horiz-adv-x="1396" 
d="M932 928l-2 28q20 10 102 19.5t123 9.5q33 0 41 -49l74 -571q12 -98 32 -225l19 -128q-12 -6 -94 -13t-115 -7q-22 0 -30.5 8.5t-8.5 28.5q-2 23 -9 86t-13.5 139.5t-12.5 177.5l-26 295q-31 -112 -228 -688q-106 -29 -196 -29q-21 72 -111 356t-117 373
q-6 -98 -40 -371.5t-41 -347.5q-3 -17 -10 -22.5t-21 -5.5q-34 0 -97.5 5.5t-78.5 14.5q4 24 60.5 366t86.5 540l-4 38q96 29 221 29q27 0 40 -11t22 -40l211 -586q43 108 223 580z" />
    <glyph glyph-name="n.sc" horiz-adv-x="1144" 
d="M137 281v637l-22 47v8q27 4 128.5 8t129.5 4t49 -27q19 -25 63 -93t109.5 -172t93.5 -148q8 -13 33 -56t33.5 -58.5t25.5 -46t28 -54t21 -47.5q-12 155 -12 327v326q0 25 7.5 32.5t29.5 10.5q65 6 158 6q-4 -132 -4 -287v-684q-15 -4 -90 -13t-103 -9q-39 0 -63 33
q-131 178 -234 352q-111 199 -201 371q11 -140 11 -312v-393q0 -24 -7.5 -32t-27.5 -13q-46 -9 -160 -6q4 66 4 289z" />
    <glyph glyph-name="o.sc" horiz-adv-x="1173" 
d="M596 997q148 0 264.5 -58.5t184 -172.5t67.5 -266q0 -108 -34 -202.5t-98.5 -167t-167 -114t-230.5 -41.5q-106 0 -193.5 27.5t-147 74t-100.5 110.5t-59.5 135.5t-18.5 150.5q0 235 149 379.5t384 144.5zM578 842q-110 0 -182 -93t-72 -260q0 -168 75.5 -264t198.5 -96
q121 0 187.5 92t66.5 260q0 162 -75 261.5t-199 99.5z" />
    <glyph glyph-name="p.sc" horiz-adv-x="923" 
d="M137 23v733q0 141 -4 198q151 31 309 31q96 0 172 -18.5t133.5 -57.5t88 -104t30.5 -154q0 -71 -24.5 -128t-62 -91.5t-85 -58t-88.5 -32.5t-78 -9t-61 12q-15 7 -36 48.5t-21 76.5q3 0 11 -1t11 -1q78 0 134.5 46t56.5 134q0 87 -50 134.5t-127 47.5q-45 0 -65 -4v-630
q0 -121 4 -191q-43 -12 -211 -12q-21 0 -29 6t-8 25z" />
    <glyph glyph-name="q.sc" horiz-adv-x="1173" 
d="M590 997q123 0 223 -39t164.5 -106.5t99.5 -156.5t35 -191q0 -160 -65.5 -281t-200.5 -186q51 -24 141 -90q176 -125 291 -146v-6q-32 -52 -83.5 -77t-107.5 -25q-70 0 -146.5 35.5t-174.5 111.5q-103 78 -152 104t-125 36q-205 30 -315.5 162t-110.5 335
q0 232 148.5 376t378.5 144zM573 842q-107 0 -178 -91t-71 -257q0 -165 74 -265t198 -100t190 90.5t66 259.5q0 164 -74.5 263.5t-204.5 99.5z" />
    <glyph glyph-name="q.scalt" horiz-adv-x="1173" 
d="M592 997q123 0 223 -40t164 -108.5t98.5 -158t34.5 -190.5q0 -347 -287 -475q71 -28 228 -125q153 -102 280.5 -159.5t249.5 -57.5q179 0 315 71l5 -4q3 -41 -15 -89.5t-49 -70.5q-66 -48 -146.5 -70t-199.5 -22q-74 0 -147.5 17t-135.5 43t-138.5 72.5t-135 88
t-145.5 107.5q-176 132 -304 151q-205 31 -314.5 159.5t-109.5 340.5q0 232 147.5 376t381.5 144zM569 842q-109 0 -177 -90.5t-68 -257.5q0 -164 76.5 -264.5t193.5 -100.5q127 0 192.5 90t65.5 260q0 162 -76.5 262.5t-206.5 100.5z" />
    <glyph glyph-name="r.sc" horiz-adv-x="991" 
d="M375 387v-344q0 -24 -7 -33t-22 -12q-35 -6 -213 -6q4 66 4 284v517q0 116 -2 161q37 8 135 19.5t193 11.5q399 0 399 -289q0 -52 -17.5 -94.5t-48.5 -71t-59.5 -46t-64.5 -33.5q35 -27 71.5 -81.5t85.5 -144.5q85 -146 144 -213v-6q-52 -18 -160 -18q-55 0 -88 16
t-63 59q-11 14 -28 42t-30 51.5l-39 70.5t-39 70q-29 52 -62.5 72t-88.5 18zM375 838v-316q118 -3 160 19q34 15 58.5 49t24.5 90q0 76 -45 120t-114 44q-57 0 -84 -6z" />
    <glyph glyph-name="s.sc" horiz-adv-x="808" 
d="M436 991q66 0 145.5 -23t112.5 -65q-1 -21 -16 -52t-29 -46q-25 -28 -49 -14q-31 15 -81 29t-91 14q-50 0 -82.5 -24t-32.5 -69q0 -42 47.5 -80.5t147.5 -85.5q46 -23 73 -38t62.5 -41.5t54.5 -53.5t33 -67.5t14 -89.5q0 -97 -56.5 -169.5t-142.5 -106.5t-186 -34
q-169 0 -262 64q-27 17 -37 31.5t-10 35.5q0 20 20 62t33 51q46 -34 119.5 -58t134.5 -24q60 0 98 24.5t38 69.5q0 39 -39 74t-152 94q-120 63 -171.5 131t-51.5 172q0 39 10.5 77.5t36.5 77.5t65 68t102 47.5t142 18.5z" />
    <glyph glyph-name="t.sc" horiz-adv-x="980" 
d="M373 16v799h-287q-45 0 -35 43q10 39 29 72t37 49q36 -8 235 -8h604q-17 -140 -106 -156h-234v-625q0 -82 7 -190q-77 -12 -215 -12q-21 0 -28 5t-7 23z" />
    <glyph glyph-name="u.sc" horiz-adv-x="1173" 
d="M379 897v-448q0 -163 64 -240.5t163 -77.5q111 0 170.5 75t59.5 251v479q0 24 8.5 32.5t27.5 10.5q45 6 181 6q-6 -95 -6 -289v-200q0 -95 -14.5 -172t-39 -130.5t-61 -93.5t-75.5 -63.5t-88 -37.5t-93 -19t-96 -5q-214 0 -328.5 117.5t-114.5 362.5v313q0 133 -4 207
q72 10 211 10q22 0 28.5 -16.5t6.5 -71.5z" />
    <glyph glyph-name="v.sc" horiz-adv-x="1085" 
d="M35 961q99 24 235 24q21 0 36 -18.5t36 -75.5q8 -22 96 -261.5t135 -379.5q108 273 181 471q64 162 96 264q128 0 178 -18q21 -9 23.5 -27t-11.5 -49q-51 -123 -129 -297q-45 -104 -118.5 -278t-106.5 -250q-20 -47 -49 -60q-28 -14 -199 -14q-140 359 -243 606
q-99 240 -160 363z" />
    <glyph glyph-name="w.sc" horiz-adv-x="1517" 
d="M356 -8q-9 27 -89 280t-130 400q-98 285 -100 289q102 24 215 24q29 0 43.5 -16t26.5 -64q5 -17 69 -242t103 -372q13 40 40 136t66 238t62 224q3 14 3.5 26t-0.5 23t-1 12q90 35 182 35q23 0 35 -10t18 -33q45 -155 176 -633q193 603 213 676q56 0 154 -10q54 -9 35 -64
q-12 -42 -84 -241q-37 -96 -115.5 -310t-108.5 -292q-10 -26 -20 -40t-27 -22q-9 -4 -72.5 -9t-113.5 -5q-45 195 -176 672q-121 -433 -172 -592q-16 -56 -51 -66q-68 -14 -181 -14z" />
    <glyph glyph-name="x.sc" horiz-adv-x="1009" 
d="M55 952v9q159 24 240 24q21 0 32.5 -7.5t26.5 -31.5q38 -58 96.5 -154t71.5 -114q22 28 94 134t107 155q13 18 43 18q35 0 95.5 -7.5t88.5 -16.5v-11q-17 -23 -74 -100.5t-120.5 -162.5t-120.5 -157q203 -309 342 -505v-9q-18 -9 -100.5 -17.5t-137.5 -8.5q-37 0 -57 33
q-32 52 -201 309q-35 -57 -112.5 -170t-96.5 -142q-18 -30 -45 -30q-48 0 -105 8t-85 16l-2 6q18 25 142.5 195.5t191.5 265.5q-272 414 -314 471z" />
    <glyph glyph-name="y.sc" horiz-adv-x="976" 
d="M367 23v370q0 38 -15 68q-20 43 -71 119q-206 311 -252 372v9q36 8 114 16t117 8q20 0 34 -13.5t42 -58.5q64 -104 186 -315q46 74 135 227t93 160q120 0 172 -14q39 -12 10 -53q-20 -33 -156.5 -237t-142.5 -214q-23 -37 -23 -61v-211q0 -86 6 -191q-82 -12 -213 -12
q-20 0 -28 6t-8 25z" />
    <glyph glyph-name="z.sc" horiz-adv-x="933" 
d="M909 150l4 -9q-12 -48 -52.5 -93t-65.5 -50q-27 -8 -281 -8q-332 0 -440 12q-20 17 -23 41q132 178 288 429.5t202 342.5h-377q-70 0 -91.5 15.5t-11.5 46.5q7 24 30.5 60t39.5 48q31 -14 131 -14h594q-15 -86 -33 -125q-26 -56 -167 -297.5t-240 -396.5q44 -6 239 -9
q165 0 254 7z" />
    <glyph glyph-name="germandbls.sc" horiz-adv-x="1619" 
d="M436 991q66 0 145.5 -23t112.5 -65q-1 -21 -16 -52t-29 -46q-25 -28 -49 -14q-31 15 -81 29t-91 14q-50 0 -82.5 -24t-32.5 -69q0 -42 47.5 -80.5t147.5 -85.5q46 -23 73 -38t62.5 -41.5t54.5 -53.5t33 -67.5t14 -89.5q0 -97 -56.5 -169.5t-142.5 -106.5t-186 -34
q-169 0 -262 64q-27 17 -37 31.5t-10 35.5q0 20 20 62t33 51q46 -34 119.5 -58t134.5 -24q60 0 98 24.5t38 69.5q0 39 -39 74t-152 94q-120 63 -171.5 131t-51.5 172q0 39 10.5 77.5t36.5 77.5t65 68t102 47.5t142 18.5zM1245 991q68 0 147 -23t113 -65q-1 -22 -16.5 -52.5
t-30.5 -45.5q-25 -28 -49 -14q-89 43 -172 43q-50 0 -82.5 -24t-32.5 -69q0 -42 47.5 -80t147.5 -86q38 -19 61.5 -31.5t54.5 -33t50 -41t37 -48t26 -61.5t8 -75q0 -97 -56.5 -169.5t-142.5 -106.5t-186 -34q-169 0 -262 64q-26 17 -35.5 31.5t-9.5 35.5q0 20 19.5 62
t31.5 51q48 -34 120.5 -58t133.5 -24q62 0 99 24.5t37 69.5q0 40 -38.5 75t-152.5 93q-120 63 -171.5 131t-51.5 172q0 39 10.5 77.5t36.5 77.5t65 68t102 47.5t142 18.5z" />
    <glyph glyph-name="ae.sc" horiz-adv-x="1361" 
d="M682 338h-287q-90 -210 -153 -326q-13 -22 -43 -22q-122 0 -174 18l-2 15q39 74 215 434.5t225 453.5q11 22 16 45q20 1 66 5.5t86 7t69 2.5h555q-13 -101 -51 -135q-21 -19 -155 -19h-160l24 -328h336q-28 -96 -60.5 -125.5t-78.5 -29.5h-184l14 -180q26 -13 135 -13
q190 0 258 6l4 -8q-26 -86 -108 -143q-33 -8 -185 -8q-258 0 -319 14l-23 31zM465 489h207l-21 330h-39q-24 -48 -147 -330z" />
    <glyph glyph-name="oe.sc" horiz-adv-x="1593" 
d="M1143 571h342q-12 -53 -25.5 -86t-30.5 -47t-31.5 -18t-39.5 -4h-215v-258q63 -13 205 -13q143 0 198 7l4 -9q-35 -109 -110 -141q-22 -10 -213 -10q-204 0 -295 14l-23 29v76q-113 -136 -331 -136q-111 0 -200.5 30t-146.5 79t-95 114.5t-54 133t-16 139.5
q0 241 147.5 383.5t382.5 142.5q112 0 184 -34.5t129 -96.5v88q99 18 213 21h381q-11 -116 -57 -144q-27 -10 -148 -10h-155v-250zM330 489q0 -166 80.5 -264t220.5 -98q130 0 203 89.5t73 266.5q0 168 -72.5 263.5t-211.5 95.5q-137 0 -215 -97.5t-78 -255.5z" />
    <glyph glyph-name="eth.sc" horiz-adv-x="1157" 
d="M162 14v416h-131q7 89 28.5 115t59.5 26h43v201q0 90 -4 180q44 10 149.5 21.5t212.5 11.5q102 0 186.5 -17t143 -45.5t103.5 -69t71.5 -83.5t43 -93.5t22.5 -94t6 -90.5q0 -245 -183 -383q-164 -121 -460 -121q-141 0 -291 26zM406 829v-258h241q-7 -64 -21.5 -95.5
t-31 -38.5t-47.5 -7h-141v-285q39 -8 100 -8q38 0 76.5 7t86 30t83 60t60 104.5t24.5 155.5q0 164 -90.5 253t-237.5 89q-44 0 -102 -7z" />
    <glyph glyph-name="oslash.sc" horiz-adv-x="1179" 
d="M1042 944l-67 -88q68 -60 104.5 -159t36.5 -212q0 -229 -140.5 -369.5t-381.5 -140.5q-173 0 -270 60l-76 -103q-31 -42 -68 0q-43 43 -51 80l76 99q-69 61 -105.5 158t-36.5 204q0 108 36 202.5t102.5 166t167.5 112.5t225 41q160 0 266 -63l51 72q22 31 36 34t28 -14
q56 -45 67 -80zM362 287l369 501q-61 58 -149 58q-125 -1 -196 -101.5t-71 -255.5q0 -113 47 -202zM817 680l-368 -498q60 -57 147 -57q134 0 201 95t67 255q0 109 -47 205z" />
    <glyph glyph-name="thorn.sc" horiz-adv-x="892" 
d="M135 23v747q0 148 -6 203q24 3 107.5 7.5t107.5 4.5q22 0 28.5 -17t6.5 -71v-111q63 5 104 5q77 0 139 -16.5t111 -50.5t76 -92.5t27 -137.5q0 -71 -22.5 -128t-56 -90t-74.5 -54.5t-75 -29.5t-61 -8q-41 0 -82 9q-23 11 -40 48.5t-17 84.5q16 -4 41 -4q61 0 105 44.5
t44 114.5q0 81 -53 121.5t-117 38.5q-31 0 -49 -4v-444q0 -61 2 -122t2 -67q-83 -12 -211 -12q-19 0 -28 6t-9 25z" />
    <glyph glyph-name="ampersand.sc" horiz-adv-x="1292" 
d="M1225 14v-8q-74 -33 -248 -33q-44 0 -76 25q-75 65 -117 98q-124 -121 -321 -121q-174 0 -279 78.5t-108 214.5q0 28 6.5 54.5t13.5 46t25.5 41.5t27.5 33.5t36 31.5t35 25.5t39.5 26t35.5 22.5q-100 89 -100 215q0 117 90 194.5t239 77.5q142 0 226 -67t84 -187
q1 -42 -14 -77.5t-47 -66t-63.5 -52.5t-82.5 -51q71 -62 188 -160q14 22 67 118.5t83 143.5q14 21 22.5 31.5t22 19t30.5 8.5q125 0 189 -45v-8q-104 -129 -277 -383q172 -145 273 -246zM518 907q-46 0 -77 -34.5t-31 -81.5q0 -40 27.5 -78.5t88.5 -87.5q50 34 76.5 76
t26.5 81q0 53 -30 89t-81 36zM514 145q93 0 150 64q-13 13 -121 105.5t-148 131.5q-67 -60 -67 -129q0 -74 50.5 -123t135.5 -49z" />
    <glyph glyph-name="exclam.sc" horiz-adv-x="434" 
d="M303 1077q31 0 43 -9.5t12 -39.5q0 -66 -23 -292t-34 -290q-7 -35 -47 -45q-88 -18 -117 -18q-2 28 -29.5 305t-27.5 328q16 23 95 42t128 19zM215 266q59 0 96 -43t37 -102q0 -67 -40 -105.5t-105 -38.5q-53 0 -93 35t-40 103q0 66 38.5 108.5t106.5 42.5z" />
    <glyph glyph-name="exclamdown.sc" horiz-adv-x="421" 
d="M213 784q-61 0 -97 42t-36 100q0 68 39.5 108.5t103.5 40.5q52 0 93.5 -38t41.5 -105t-38.5 -107.5t-106.5 -40.5zM127 -27q-30 0 -43.5 10.5t-13.5 39.5q0 49 23.5 282t33.5 301q6 28 47 43q93 19 117 19q3 -30 18 -177.5t27.5 -282t13.5 -173.5q-7 -27 -85.5 -44.5
t-137.5 -17.5z" />
    <glyph glyph-name="question.sc" horiz-adv-x="655" 
d="M334 1073q113 0 187.5 -62t74.5 -171q0 -118 -127 -232q-42 -39 -68 -77t-26 -60q0 -33 18 -63q-44 -33 -96 -33q-44 0 -82.5 40t-38.5 103q0 48 24.5 88.5t73.5 93.5q72 84 72 121q0 26 -22.5 43t-57.5 17q-67 0 -123 -33q-37 -23 -67 33q-12 21 -17 54.5t0 49.5
q59 39 132.5 63.5t142.5 24.5zM313 266q59 0 95 -41.5t36 -99.5q0 -68 -38.5 -108t-102.5 -40q-53 0 -94 37t-41 105q0 65 38 106t107 41z" />
    <glyph glyph-name="questiondown.sc" horiz-adv-x="657" 
d="M348 780q-59 0 -96 44t-37 100q0 68 38.5 107.5t102.5 39.5q53 0 94.5 -37.5t41.5 -105.5q0 -70 -38.5 -109t-105.5 -39zM319 -25q-116 0 -189 62.5t-73 169.5q0 69 34 123.5t95 109.5q42 39 68.5 77t26.5 58q0 34 -19 66q13 10 45.5 21.5t52.5 11.5q43 0 80 -41t37 -105
q0 -33 -14.5 -66t-31.5 -55.5t-50 -58.5q-74 -78 -74 -121q0 -27 22 -43t56 -16q31 0 67 10t58 23q44 25 65 -33q13 -29 17.5 -61t-0.5 -46q-127 -86 -273 -86z" />
    <glyph glyph-name="aacute.sc" horiz-adv-x="1073" 
d="M705 227h-361q-61 -154 -84 -204q-7 -18 -19 -24.5t-36 -6.5q-98 0 -176 16l-2 6q12 29 178 419.5t205 492.5l-7 37q151 22 232 22q26 0 35 -24q36 -88 82 -206.5t93.5 -243t59.5 -155.5q44 -109 142 -338v-8q-17 -9 -89 -13.5t-114 -4.5q-29 0 -44 10.5t-24 36.5
q-24 60 -71 188zM395 385h256q-34 104 -127 363q-19 -52 -129 -363zM713 1427q37 -8 71 -36t54 -58q9 -11 6 -19.5t-23 -19.5q-50 -32 -105 -72t-117.5 -87.5t-78.5 -59.5q-31 15 -63 51q-13 19 12 58q38 53 76.5 102t91 98t76.5 43z" />
    <glyph glyph-name="acircumflex.sc" horiz-adv-x="1073" 
d="M705 227h-361q-61 -154 -84 -204q-7 -18 -19 -24.5t-36 -6.5q-98 0 -176 16l-2 6q12 29 178 419.5t205 492.5l-7 37q151 22 232 22q26 0 35 -24q36 -88 82 -206.5t93.5 -243t59.5 -155.5q44 -109 142 -338v-8q-17 -9 -89 -13.5t-114 -4.5q-29 0 -44 10.5t-24 36.5
q-24 60 -71 188zM395 385h256q-34 104 -127 363q-19 -52 -129 -363zM391 1073q-48 0 -117 27q18 24 51 67t51.5 68t43.5 60t45 67q11 25 41 31q41 8 88 8q86 -128 205 -293q-73 -35 -117 -35q-30 0 -41 14q-74 96 -109 144q-49 -74 -100 -133q-22 -25 -41 -25z" />
    <glyph glyph-name="adieresis.sc" horiz-adv-x="1073" 
d="M705 227h-361q-61 -154 -84 -204q-7 -18 -19 -24.5t-36 -6.5q-98 0 -176 16l-2 6q12 29 178 419.5t205 492.5l-7 37q151 22 232 22q26 0 35 -24q36 -88 82 -206.5t93.5 -243t59.5 -155.5q44 -109 142 -338v-8q-17 -9 -89 -13.5t-114 -4.5q-29 0 -44 10.5t-24 36.5
q-24 60 -71 188zM395 385h256q-34 104 -127 363q-19 -52 -129 -363zM741 1350q49 0 81 -36t32 -85q0 -61 -34 -96t-93 -35q-45 0 -81 32t-36 89q0 59 34 95t97 36zM340 1350q49 0 83 -36.5t34 -84.5q0 -61 -35 -96t-94 -35q-46 0 -81.5 32t-35.5 89q0 59 34 95t95 36z" />
    <glyph glyph-name="agrave.sc" horiz-adv-x="1073" 
d="M705 227h-361q-61 -154 -84 -204q-7 -18 -19 -24.5t-36 -6.5q-98 0 -176 16l-2 6q12 29 178 419.5t205 492.5l-7 37q151 22 232 22q26 0 35 -24q36 -88 82 -206.5t93.5 -243t59.5 -155.5q44 -109 142 -338v-8q-17 -9 -89 -13.5t-114 -4.5q-29 0 -44 10.5t-24 36.5
q-24 60 -71 188zM395 385h256q-34 104 -127 363q-19 -52 -129 -363zM377 1438q28 7 108 -85t125 -171q21 -30 0 -54q-24 -33 -61 -49q-163 138 -299 219q-25 14 -6 45q62 80 133 95z" />
    <glyph glyph-name="aring.sc" horiz-adv-x="1073" 
d="M705 227h-361q-61 -154 -84 -204q-7 -18 -19 -24.5t-36 -6.5q-98 0 -176 16l-2 6q12 29 178 419.5t205 492.5l-7 37q151 22 232 22q26 0 35 -24q36 -88 82 -206.5t93.5 -243t59.5 -155.5q44 -109 142 -338v-8q-17 -9 -89 -13.5t-114 -4.5q-29 0 -44 10.5t-24 36.5
q-24 60 -71 188zM395 385h256q-34 104 -127 363q-19 -52 -129 -363zM545 1452q89 0 146 -58.5t57 -140.5q0 -92 -60.5 -150.5t-157.5 -58.5q-79 0 -139.5 53.5t-60.5 145.5q0 91 57 150t158 59zM535 1346q-36 0 -57 -30.5t-21 -70.5q0 -42 25 -67t59 -25q38 0 59 26.5
t21 65.5q0 43 -22 72t-64 29z" />
    <glyph glyph-name="atilde.sc" horiz-adv-x="1073" 
d="M705 227h-361q-61 -154 -84 -204q-7 -18 -19 -24.5t-36 -6.5q-98 0 -176 16l-2 6q12 29 178 419.5t205 492.5l-7 37q151 22 232 22q26 0 35 -24q36 -88 82 -206.5t93.5 -243t59.5 -155.5q44 -109 142 -338v-8q-17 -9 -89 -13.5t-114 -4.5q-29 0 -44 10.5t-24 36.5
q-24 60 -71 188zM395 385h256q-34 104 -127 363q-19 -52 -129 -363zM459 1397q63 0 125 -76q14 -17 20 -24.5t16 -15t17 -7.5q35 0 51 100q6 23 23 23q15 0 48 -9.5t50 -21.5q-23 -260 -166 -260q-37 0 -66.5 20.5t-64.5 61.5q-22 27 -34.5 37t-26.5 10q-17 0 -29.5 -21.5
t-26.5 -74.5q-3 -23 -16 -23q-19 0 -56.5 6t-50.5 11q22 264 187 264z" />
    <glyph glyph-name="ccedilla.sc" horiz-adv-x="991" 
d="M420 -172l115 154q-228 26 -350 158t-122 333q0 124 47 224.5t127.5 165.5t185.5 99.5t224 34.5q108 0 193 -27t112 -61q1 -23 -16.5 -62t-32.5 -48q-24 -17 -49 -6q-78 38 -205 38q-143 0 -234 -88.5t-91 -248.5q0 -161 98.5 -255t271.5 -94q134 0 244 39l4 -4
q-1 -45 -18.5 -90.5t-40.5 -69.5q-72 -39 -213 -45l-56 -77q64 -20 101 -65t37 -103q0 -90 -86.5 -151.5t-194.5 -67.5q-23 6 -41 32t-18 45q0 23 20 27q80 20 108.5 43t28.5 51q0 36 -42.5 56.5t-106.5 15.5v47z" />
    <glyph glyph-name="eacute.sc" horiz-adv-x="835" 
d="M137 37v715q0 126 -4 198q8 1 93 10.5t136 10.5h392q-9 -111 -56 -144q-25 -12 -149 -12h-168v-248h354q-10 -51 -23 -83t-31 -46t-33.5 -18t-39.5 -4h-227v-260q42 -11 182 -11q139 0 232 7l2 -5q-25 -118 -90 -145q-30 -12 -218 -12q-231 0 -327 14zM598 1417
q37 -8 71.5 -36t55.5 -58q6 -10 6.5 -15.5t-4.5 -11.5t-18 -14q-69 -45 -303 -217q-38 17 -62 51q-15 19 10 55q26 37 54 73t66.5 81t71.5 70.5t52 21.5z" />
    <glyph glyph-name="ecircumflex.sc" horiz-adv-x="835" 
d="M137 37v715q0 126 -4 198q8 1 93 10.5t136 10.5h392q-9 -111 -56 -144q-25 -12 -149 -12h-168v-248h354q-10 -51 -23 -83t-31 -46t-33.5 -18t-39.5 -4h-227v-260q42 -11 182 -11q139 0 232 7l2 -5q-25 -118 -90 -145q-30 -12 -218 -12q-231 0 -327 14zM287 1077
q-51 0 -117 27q12 16 49.5 65.5t53 70.5t41 57.5t44.5 68.5q14 26 43 31q39 8 86 8q99 -148 207 -293q-72 -35 -116 -35q-28 0 -43 15q-79 103 -107 143q-38 -58 -100 -133q-22 -25 -41 -25z" />
    <glyph glyph-name="edieresis.sc" horiz-adv-x="835" 
d="M137 37v715q0 126 -4 198q8 1 93 10.5t136 10.5h392q-9 -111 -56 -144q-25 -12 -149 -12h-168v-248h354q-10 -51 -23 -83t-31 -46t-33.5 -18t-39.5 -4h-227v-260q42 -11 182 -11q139 0 232 7l2 -5q-25 -118 -90 -145q-30 -12 -218 -12q-231 0 -327 14zM645 1354
q50 0 82.5 -36t32.5 -87q0 -61 -34 -96t-93 -35q-44 0 -80.5 33t-36.5 90q0 58 34 94.5t95 36.5zM246 1354q48 0 81 -37t33 -86q0 -61 -34 -96t-93 -35q-45 0 -80.5 32.5t-35.5 90.5t33.5 94.5t95.5 36.5z" />
    <glyph glyph-name="egrave.sc" horiz-adv-x="835" 
d="M137 37v715q0 126 -4 198q8 1 93 10.5t136 10.5h392q-9 -111 -56 -144q-25 -12 -149 -12h-168v-248h354q-10 -51 -23 -83t-31 -46t-33.5 -18t-39.5 -4h-227v-260q42 -11 182 -11q139 0 232 7l2 -5q-25 -118 -90 -145q-30 -12 -218 -12q-231 0 -327 14zM301 1427
q27 7 108 -85.5t126 -170.5q11 -19 11 -30t-11 -23q-22 -31 -64 -49q-149 130 -299 219q-24 10 -4 43q23 32 59 60t74 36z" />
    <glyph glyph-name="figuredash" horiz-adv-x="841" 
d="M160 678h600l-6 -55q-10 -73 -23.5 -93t-42.5 -20h-606l8 70q7 57 24 77.5t46 20.5z" />
    <glyph glyph-name="iacute.sc" horiz-adv-x="518" 
d="M137 23v755q0 142 -6 195q21 4 103.5 8t113.5 4q20 0 26.5 -16.5t6.5 -71.5v-700q0 -88 6 -193q-41 -12 -213 -12q-21 0 -29 6t-8 25zM440 1417q37 -8 71 -36t54 -58q9 -11 6 -19.5t-22 -19.5q-50 -32 -105 -72t-117.5 -87.5t-78.5 -59.5q-33 16 -64 51q-12 19 13 58
q28 39 54 73t65 79.5t72 70.5t52 20z" />
    <glyph glyph-name="icircumflex.sc" horiz-adv-x="518" 
d="M137 23v755q0 142 -6 195q21 4 103.5 8t113.5 4q20 0 26.5 -16.5t6.5 -71.5v-700q0 -88 6 -193q-41 -12 -213 -12q-21 0 -29 6t-8 25zM104 1073q-47 0 -116 27q155 206 190 262q11 26 41 31q41 8 86 8q148 -213 207 -293q-72 -35 -117 -35q-29 0 -43 14q-14 19 -31 42
t-39 53t-36 49q-45 -69 -101 -133q-22 -25 -41 -25z" />
    <glyph glyph-name="idieresis.sc" horiz-adv-x="518" 
d="M137 23v755q0 142 -6 195q21 4 103.5 8t113.5 4q20 0 26.5 -16.5t6.5 -71.5v-700q0 -88 6 -193q-41 -12 -213 -12q-21 0 -29 6t-8 25zM467 1368q49 0 81 -37t32 -86q0 -61 -34 -96t-91 -35q-45 0 -81 32.5t-36 90.5t34 94.5t95 36.5zM68 1368q48 0 81 -37t33 -86
q0 -61 -34 -96t-93 -35q-46 0 -81 32t-35 91q0 58 33.5 94.5t95.5 36.5z" />
    <glyph glyph-name="igrave.sc" horiz-adv-x="518" 
d="M137 23v755q0 142 -6 195q21 4 103.5 8t113.5 4q20 0 26.5 -16.5t6.5 -71.5v-700q0 -88 6 -193q-41 -12 -213 -12q-21 0 -29 6t-8 25zM100 1419q28 7 108.5 -85t125.5 -171q10 -19 10 -30t-10 -23q-24 -33 -64 -49q-147 128 -297 219q-26 11 -6 43q23 32 59 60t74 36z
" />
    <glyph glyph-name="oneeighth" horiz-adv-x="1390" 
d="M1092 1204q-433 -727 -746 -1239q-11 -18 -20.5 -24t-15.5 -4.5t-17 8.5q-48 29 -64 69q251 409 754 1254q15 24 45 6q51 -26 64 -70zM442 1233l9 -4q-2 -38 -4 -266t-1 -355q0 -19 -9 -25.5t-38 -9.5l-145 -10q1 13 2 99t2 212.5t2 180.5q-27 -8 -86 -17.5t-86 -11.5
l-2 4l35 109q67 14 175 45.5t146 48.5zM1044 653q94 0 161 -44t67 -130q0 -43 -27.5 -74.5t-77.5 -60.5q64 -30 97.5 -68t33.5 -96q0 -91 -77 -143.5t-191 -52.5q-118 0 -186 47.5t-68 132.5q0 27 10 48.5t32.5 40t38.5 28t48 26.5q-53 29 -78.5 65t-25.5 91q0 87 70 138.5
t173 51.5zM1126 473q0 37 -24 59.5t-64 22.5q-36 0 -59 -19t-23 -51q0 -27 23.5 -49t93.5 -49q53 33 53 86zM1042 82q40 0 65.5 19t25.5 53q0 36 -33.5 59t-100.5 47q-57 -34 -57 -92q0 -31 27 -58.5t73 -27.5z" />
    <glyph glyph-name="threeeighths" horiz-adv-x="1390" 
d="M1128 1204q-463 -778 -747 -1239q-10 -18 -18.5 -24t-15 -4.5t-17.5 8.5q-51 31 -66 69q187 302 754 1254q9 14 19.5 15t27.5 -9q47 -26 63 -70zM164 829l-6 9q26 75 35 90q88 13 123.5 38t35.5 68q0 33 -26.5 53.5t-65.5 20.5q-31 0 -72 -16.5t-73 -42.5q-25 29 -25 59
q0 27 27 51q25 25 81.5 49.5t123.5 24.5q98 0 152 -49t54 -111q0 -57 -28 -89t-82 -60q155 -30 155 -168q0 -103 -95 -168.5t-228 -65.5q-88 0 -133 27q-18 15 -29.5 44.5t-11.5 59.5l4 4q54 -20 129 -20q86 0 126 30t40 78q0 43 -31 67t-94 24q-32 0 -86 -7zM1063 653
q94 0 160.5 -44t66.5 -130q0 -76 -102 -135q63 -31 96 -68.5t33 -95.5q0 -91 -77 -143.5t-191 -52.5q-117 0 -185.5 47.5t-68.5 132.5q0 27 10 48.5t32.5 40t38.5 28t48 26.5q-53 30 -79 66t-26 90q0 87 70.5 138.5t173.5 51.5zM1145 473q0 37 -23.5 59.5t-64.5 22.5
q-36 0 -59 -19t-23 -51q0 -27 24 -48.5t93 -49.5q53 33 53 86zM1063 82q39 0 63.5 19t24.5 53q0 36 -32.5 59t-98.5 47q-59 -35 -59 -92q0 -31 28 -58.5t74 -27.5z" />
    <glyph glyph-name="fiveeighths" horiz-adv-x="1390" 
d="M1126 1204q-463 -778 -747 -1239q-10 -18 -18.5 -24t-15 -4.5t-17.5 8.5q-51 31 -66 69q187 302 754 1254q9 14 19.5 15t27.5 -9q47 -26 63 -70zM72 653l4 4q74 -22 143 -22q71 2 112.5 26.5t41.5 73.5q0 64 -78 88q-54 18 -191 35l-16 16q4 45 31 174.5t43 157.5
q164 23 370 27q1 -21 -6 -55t-18 -56q-14 -35 -64 -35q-20 -1 -61 -1.5t-73.5 -1.5t-51.5 -3q-6 -19 -18 -98q8 -2 49 -8.5t81 -15.5t68 -21q65 -26 95 -65.5t30 -108.5q0 -61 -29 -109t-76 -76t-102 -42.5t-112 -14.5q-93 0 -135 29q-17 12 -28.5 43t-8.5 59zM1059 653
q94 0 161.5 -44t67.5 -130q0 -43 -27.5 -74.5t-76.5 -60.5q64 -30 97.5 -68t33.5 -96q0 -91 -78 -143.5t-193 -52.5q-117 0 -184 47.5t-67 132.5q0 27 10 48.5t32.5 40t38.5 28t48 26.5q-54 29 -79.5 65t-25.5 91q0 86 70 138t172 52zM1143 473q0 37 -24 59.5t-64 22.5
q-37 0 -59.5 -19t-22.5 -51q0 -27 23.5 -49t93.5 -49q53 33 53 86zM1059 82q39 0 63.5 19t24.5 53q0 36 -32.5 59t-98.5 47q-58 -35 -58 -92q0 -31 27.5 -58.5t73.5 -27.5z" />
    <glyph glyph-name="seveneighths" horiz-adv-x="1390" 
d="M1075 1214q-438 -750 -743 -1249q-11 -18 -20.5 -24t-15.5 -4.5t-17 8.5q-48 29 -64 69q251 409 754 1254q15 24 45 6q28 -14 41 -25.5t20 -34.5zM618 1219l7 -7q-46 -217 -135.5 -393.5t-137.5 -220.5q-29 -33 -84 -41q-61 -10 -121 -10l-2 6q87 95 167.5 237t127.5 285
l-85 -1q-85 -1 -171 -1q-55 0 -73 13.5t-11 37.5q4 25 25 58t41 49q24 -12 110 -12h342zM1030 653q94 0 160.5 -44t66.5 -130q0 -77 -104 -135q64 -30 97.5 -68t33.5 -96q0 -91 -77 -143.5t-191 -52.5q-117 0 -185.5 47.5t-68.5 132.5q0 27 10 48.5t32.5 40t38.5 28t48 26.5
q-53 30 -79 66t-26 90q0 87 70.5 138.5t173.5 51.5zM1112 473q0 37 -23.5 59.5t-64.5 22.5q-36 0 -59 -19t-23 -51q0 -27 24 -48.5t93 -49.5q53 33 53 86zM1030 82q39 0 63.5 19t24.5 53q0 36 -32.5 59t-98.5 47q-59 -35 -59 -92q0 -31 28 -58.5t74 -27.5z" />
    <glyph glyph-name="onethird" horiz-adv-x="1390" 
d="M1092 1204q-433 -727 -748 -1239q-10 -18 -18.5 -24t-15 -4.5t-17.5 8.5q-51 31 -66 69q187 302 754 1254q15 24 45 6q50 -26 66 -70zM440 1233l9 -4q-2 -38 -4 -266t-1 -355q0 -19 -9 -25.5t-40 -9.5l-143 -10q1 13 2 99t2 212.5t2 180.5q-27 -8 -86.5 -17.5
t-85.5 -11.5l-4 4l37 109q67 14 175 45.5t146 48.5zM887 252l-6 8q2 4 16 41t21 49q88 13 123.5 38.5t35.5 68.5q0 33 -26.5 53t-65.5 20q-33 0 -74 -16.5t-71 -42.5q-25 25 -25 59q0 30 25 52q27 25 83.5 49t123.5 24q98 0 152 -48.5t54 -110.5q0 -57 -28.5 -89.5
t-83.5 -60.5q157 -30 157 -168q0 -103 -95 -168t-228 -65q-90 0 -133 26q-17 15 -29 45t-12 60l4 4q57 -21 129 -21q85 0 125.5 30.5t40.5 78.5q0 90 -125 90q-39 0 -88 -6z" />
    <glyph glyph-name="twothirds" horiz-adv-x="1390" 
d="M1135 1204q-433 -727 -748 -1239q-10 -18 -18.5 -24t-15 -4.5t-17.5 8.5q-51 31 -66 69q187 302 754 1254q15 24 45 6q50 -26 66 -70zM76 1032l-4 4q0 59 20 109q39 40 99 64t124 24q107 0 167.5 -56.5t60.5 -150.5q0 -26 -7 -52t-14.5 -45.5t-26.5 -44t-30 -38
t-38.5 -37.5t-37 -32t-41 -32.5t-37.5 -29.5q85 -6 279 2q-10 -41 -30 -78.5t-42 -50.5q-55 -17 -178 -17q-224 0 -272 13l-7 12q8 20 43 92q41 32 63 50t60.5 54.5t58.5 64t37 63.5t17 69q0 47 -28 74t-74 27q-43 0 -87 -16t-75 -42zM905 252l-6 8q1 2 15 40t22 50
q87 13 123.5 38.5t36.5 68.5q0 33 -27 53t-65 20q-33 0 -74.5 -16.5t-73.5 -42.5q-25 29 -25 59q0 28 27 52q25 25 82 49t123 24q98 0 152.5 -48.5t54.5 -110.5q0 -57 -28.5 -89.5t-82.5 -60.5q77 -15 117.5 -58t40.5 -110q0 -103 -96 -168t-230 -65q-83 0 -133 26
q-16 16 -28 46t-11 59l4 4q57 -21 127 -21q87 0 127.5 30.5t40.5 78.5q0 90 -127 90q-39 0 -86 -6z" />
    <glyph glyph-name="ntilde.sc" horiz-adv-x="1144" 
d="M137 281v637l-22 47v8q27 4 128.5 8t129.5 4t49 -27q19 -25 63 -93t109.5 -172t93.5 -148q8 -13 33 -56t33.5 -58.5t25.5 -46t28 -54t21 -47.5q-12 155 -12 327v326q0 25 7.5 32.5t29.5 10.5q65 6 158 6q-4 -132 -4 -287v-684q-15 -4 -90 -13t-103 -9q-39 0 -63 33
q-131 178 -234 352q-111 199 -201 371q11 -140 11 -312v-393q0 -24 -7.5 -32t-27.5 -13q-46 -9 -160 -6q4 66 4 289zM504 1364q65 0 125 -74q35 -47 53 -47q35 0 51 98q6 23 23 23q15 0 48 -9.5t50 -21.5q-23 -258 -168 -258q-36 0 -65 20.5t-64 61.5q-38 47 -61 47
q-17 -2 -30 -24t-26 -74q-3 -23 -16 -23q-21 0 -58 6.5t-49 12.5q22 262 187 262z" />
    <glyph glyph-name="oacute.sc" horiz-adv-x="1173" 
d="M596 997q148 0 264.5 -58.5t184 -172.5t67.5 -266q0 -108 -34 -202.5t-98.5 -167t-167 -114t-230.5 -41.5q-106 0 -193.5 27.5t-147 74t-100.5 110.5t-59.5 135.5t-18.5 150.5q0 235 149 379.5t384 144.5zM578 842q-110 0 -182 -93t-72 -260q0 -168 75.5 -264t198.5 -96
q121 0 187.5 92t66.5 260q0 162 -75 261.5t-199 99.5zM754 1425q37 -8 71 -36t54 -58q8 -12 5 -19.5t-22 -19.5q-82 -53 -301 -219q-37 18 -63 51q-13 19 12 58q185 258 244 243z" />
    <glyph glyph-name="ocircumflex.sc" horiz-adv-x="1173" 
d="M596 997q148 0 264.5 -58.5t184 -172.5t67.5 -266q0 -108 -34 -202.5t-98.5 -167t-167 -114t-230.5 -41.5q-106 0 -193.5 27.5t-147 74t-100.5 110.5t-59.5 135.5t-18.5 150.5q0 235 149 379.5t384 144.5zM578 842q-110 0 -182 -93t-72 -260q0 -168 75.5 -264t198.5 -96
q121 0 187.5 92t66.5 260q0 162 -75 261.5t-199 99.5zM432 1090q-45 0 -117 26q18 24 50.5 68t51 68.5t43 60t44.5 67.5q13 25 41 31q31 6 88 6q129 -187 207 -293q-70 -34 -117 -34q-30 0 -43 16q-88 114 -107 143q-38 -58 -100 -133q-23 -26 -41 -26z" />
    <glyph glyph-name="odieresis.sc" horiz-adv-x="1173" 
d="M596 997q148 0 264.5 -58.5t184 -172.5t67.5 -266q0 -108 -34 -202.5t-98.5 -167t-167 -114t-230.5 -41.5q-106 0 -193.5 27.5t-147 74t-100.5 110.5t-59.5 135.5t-18.5 150.5q0 235 149 379.5t384 144.5zM578 842q-110 0 -182 -93t-72 -260q0 -168 75.5 -264t198.5 -96
q121 0 187.5 92t66.5 260q0 162 -75 261.5t-199 99.5zM797 1352q49 0 80.5 -37t31.5 -86q0 -61 -34 -96t-93 -35q-45 0 -80.5 32.5t-35.5 90.5t34.5 94.5t96.5 36.5zM395 1352q48 0 82.5 -37.5t34.5 -85.5q0 -61 -35 -96t-94 -35q-46 0 -81.5 32t-35.5 91q0 58 34 94.5
t95 36.5z" />
    <glyph glyph-name="ograve.sc" horiz-adv-x="1173" 
d="M596 997q148 0 264.5 -58.5t184 -172.5t67.5 -266q0 -108 -34 -202.5t-98.5 -167t-167 -114t-230.5 -41.5q-106 0 -193.5 27.5t-147 74t-100.5 110.5t-59.5 135.5t-18.5 150.5q0 235 149 379.5t384 144.5zM578 842q-110 0 -182 -93t-72 -260q0 -168 75.5 -264t198.5 -96
q121 0 187.5 92t66.5 260q0 162 -75 261.5t-199 99.5zM449 1440q28 7 108 -85t125 -171q20 -31 0 -54q-23 -36 -61 -49q-163 138 -299 219q-25 11 -5 43q23 32 59 60.5t73 36.5z" />
    <glyph glyph-name="otilde.sc" horiz-adv-x="1173" 
d="M596 997q148 0 264.5 -58.5t184 -172.5t67.5 -266q0 -108 -34 -202.5t-98.5 -167t-167 -114t-230.5 -41.5q-106 0 -193.5 27.5t-147 74t-100.5 110.5t-59.5 135.5t-18.5 150.5q0 235 149 379.5t384 144.5zM578 842q-110 0 -182 -93t-72 -260q0 -168 75.5 -264t198.5 -96
q121 0 187.5 92t66.5 260q0 162 -75 261.5t-199 99.5zM496 1364q65 0 125 -74q31 -47 53 -47q32 0 51 98q6 23 23 23q15 0 47.5 -9.5t48.5 -21.5q-20 -258 -166 -258q-37 0 -65 20t-64 62q-41 47 -62 47q-17 -1 -29 -23t-26 -75q-3 -23 -16 -23q-21 0 -58 6.5t-49 12.5
q22 262 187 262z" />
    <glyph glyph-name="uacute.sc" horiz-adv-x="1173" 
d="M379 897v-448q0 -163 64 -240.5t163 -77.5q111 0 170.5 75t59.5 251v479q0 24 8.5 32.5t27.5 10.5q45 6 181 6q-6 -95 -6 -289v-200q0 -95 -14.5 -172t-39 -130.5t-61 -93.5t-75.5 -63.5t-88 -37.5t-93 -19t-96 -5q-214 0 -328.5 117.5t-114.5 362.5v313q0 133 -4 207
q72 10 211 10q22 0 28.5 -16.5t6.5 -71.5zM760 1401q36 -8 70 -36t55 -58q8 -13 5 -21t-22 -20q-100 -65 -301 -217q-34 14 -63 51q-14 17 12 55q28 39 54.5 73.5t65.5 80t72 71t52 21.5z" />
    <glyph glyph-name="ucircumflex.sc" horiz-adv-x="1173" 
d="M379 897v-448q0 -163 64 -240.5t163 -77.5q111 0 170.5 75t59.5 251v479q0 24 8.5 32.5t27.5 10.5q45 6 181 6q-6 -95 -6 -289v-200q0 -95 -14.5 -172t-39 -130.5t-61 -93.5t-75.5 -63.5t-88 -37.5t-93 -19t-96 -5q-214 0 -328.5 117.5t-114.5 362.5v313q0 133 -4 207
q72 10 211 10q22 0 28.5 -16.5t6.5 -71.5zM449 1081q-51 0 -117 27q12 16 49.5 65.5t53 70.5t41 57.5t44.5 68.5q14 26 41 31q41 8 88 8q99 -148 207 -293q-72 -35 -117 -35q-28 0 -43 15q-68 89 -106 143q-34 -51 -101 -133q-22 -25 -40 -25z" />
    <glyph glyph-name="udieresis.sc" horiz-adv-x="1173" 
d="M379 897v-448q0 -163 64 -240.5t163 -77.5q111 0 170.5 75t59.5 251v479q0 24 8.5 32.5t27.5 10.5q45 6 181 6q-6 -95 -6 -289v-200q0 -95 -14.5 -172t-39 -130.5t-61 -93.5t-75.5 -63.5t-88 -37.5t-93 -19t-96 -5q-214 0 -328.5 117.5t-114.5 362.5v313q0 133 -4 207
q72 10 211 10q22 0 28.5 -16.5t6.5 -71.5zM811 1352q49 0 81 -37t32 -86q0 -61 -34 -96t-91 -35q-45 0 -81 32.5t-36 90.5t34 94.5t95 36.5zM410 1352q50 0 83 -37t33 -86q0 -61 -34 -96t-93 -35q-46 0 -81 32t-35 91q0 58 33 94.5t94 36.5z" />
    <glyph glyph-name="ugrave.sc" horiz-adv-x="1173" 
d="M379 897v-448q0 -163 64 -240.5t163 -77.5q111 0 170.5 75t59.5 251v479q0 24 8.5 32.5t27.5 10.5q45 6 181 6q-6 -95 -6 -289v-200q0 -95 -14.5 -172t-39 -130.5t-61 -93.5t-75.5 -63.5t-88 -37.5t-93 -19t-96 -5q-214 0 -328.5 117.5t-114.5 362.5v313q0 133 -4 207
q72 10 211 10q22 0 28.5 -16.5t6.5 -71.5zM457 1440q29 6 109 -86.5t124 -171.5q21 -30 0 -54q-24 -34 -61 -47q-146 124 -299 219q-24 10 -4 43q23 32 58.5 60.5t72.5 36.5z" />
    <glyph glyph-name="yacute.sc" horiz-adv-x="976" 
d="M367 23v370q0 38 -15 68q-20 43 -71 119q-206 311 -252 372v9q36 8 114 16t117 8q20 0 34 -13.5t42 -58.5q64 -104 186 -315q46 74 135 227t93 160q120 0 172 -14q39 -12 10 -53q-20 -33 -156.5 -237t-142.5 -214q-23 -37 -23 -61v-211q0 -86 6 -191q-82 -12 -213 -12
q-20 0 -28 6t-8 25zM684 1397q36 -8 70 -36t55 -58q6 -10 6.5 -15.5t-4.5 -11.5t-18 -14q-91 -59 -301 -218q-39 17 -64 52q-14 17 12 55q28 39 54.5 73.5t65.5 80t72 71t52 21.5z" />
    <glyph glyph-name="ydieresis.sc" horiz-adv-x="976" 
d="M367 23v370q0 38 -15 68q-20 43 -71 119q-206 311 -252 372v9q36 8 114 16t117 8q20 0 34 -13.5t42 -58.5q64 -104 186 -315q46 74 135 227t93 160q120 0 172 -14q39 -12 10 -53q-20 -33 -156.5 -237t-142.5 -214q-23 -37 -23 -61v-211q0 -86 6 -191q-82 -12 -213 -12
q-20 0 -28 6t-8 25zM705 1358q49 0 80.5 -37t31.5 -86q0 -61 -34 -96t-93 -35q-45 0 -81 32.5t-36 90.5t34.5 94.5t97.5 36.5zM303 1358q48 0 82.5 -37.5t34.5 -85.5q0 -61 -34.5 -96t-92.5 -35q-47 0 -83 32t-36 91q0 58 34 94.5t95 36.5z" />
    <glyph glyph-name="longs" horiz-adv-x="518" 
d="M387 891q0 -200 4 -482t4 -405q-106 -16 -225 -16q-16 0 -23.5 6t-7.5 24q4 147 4 732q-62 5 -90 21t-28 48q11 13 25.5 25t23.5 17.5t34.5 20t34.5 19.5q0 152 35.5 247t104.5 159q103 96 256 96q96 0 141 -45q13 -39 -16 -90t-68 -41q-27 10 -53 10q-87 0 -121.5 -85.5
t-34.5 -260.5z" />
    <glyph glyph-name="acute.sc" horiz-adv-x="819" 
d="M592 1401q37 -8 70.5 -35.5t54.5 -58.5q9 -13 6 -21.5t-23 -19.5q-50 -32 -102.5 -70t-122 -90t-76.5 -57q-34 14 -63 51q-14 17 12 55q26 37 54 73t66.5 81t71.5 70.5t52 21.5z" />
    <glyph glyph-name="cedilla.sc" horiz-adv-x="841" 
d="M397 8h138l-78 -110q63 -19 100 -64t37 -104q0 -90 -86.5 -151.5t-194.5 -67.5q-23 6 -41 32t-18 45q0 23 20 27q138 35 138 94q0 37 -43.5 57.5t-106.5 14.5v47z" />
    <glyph glyph-name="dieresis.sc" horiz-adv-x="819" 
d="M618 1356q49 0 81 -37t32 -86q0 -61 -34 -96t-93 -35q-45 0 -81 32.5t-36 90.5t34.5 94.5t96.5 36.5zM217 1356q48 0 82.5 -37.5t34.5 -85.5q0 -61 -34.5 -96t-92.5 -35q-47 0 -83 32t-36 91q0 58 34 94.5t95 36.5z" />
    <glyph glyph-name="grave.sc" horiz-adv-x="819" 
d="M236 1409q28 7 108 -85t125 -171q19 -31 0 -53q-24 -33 -63 -49q-147 128 -297 219q-26 15 -7 45q23 31 59.5 58.5t74.5 35.5z" />
    <glyph glyph-name="macron.sc" horiz-adv-x="819" 
d="M614 1116h-424q-28 0 -28 31t13.5 78t23.5 55h430q26 0 26 -27q0 -31 -14 -74.5t-27 -62.5z" />
    <glyph glyph-name="tilde.sc" horiz-adv-x="819" 
d="M328 1380q66 0 125 -73q31 -47 53 -47q32 0 51 98q5 22 23 22q15 0 48 -9t48 -21q-20 -258 -166 -258q-37 0 -65 20t-64 62q-41 47 -62 47q-17 -1 -29 -23.5t-26 -75.5q-3 -22 -16 -22q-21 0 -58 6t-49 12q22 262 187 262z" />
    <glyph glyph-name="zero.oldstyle" horiz-adv-x="1081" 
d="M561 926q85 0 163.5 -29.5t142.5 -85t102.5 -147t38.5 -205.5q0 -119 -37.5 -213.5t-102 -152.5t-147 -88t-176.5 -30q-217 0 -344 128t-127 337q0 219 133 352.5t354 133.5zM539 772q-106 0 -171 -84t-65 -227q0 -152 69 -241t177 -89q109 0 169 83.5t60 238.5
q0 143 -63.5 231t-175.5 88z" />
    <glyph glyph-name="egrave.superior" horiz-adv-x="667" 
d="M279 1518q23 3 76.5 -76.5t84.5 -147.5q7 -17 6 -25.5t-12 -17.5q-19 -21 -51 -32q-116 125 -215 202q-21 10 -2 35q21 24 52 42.5t61 19.5zM582 725l6 -8q-6 -37 -30.5 -76.5t-41.5 -46.5q-64 -31 -147 -31q-144 0 -231 76t-87 219q0 82 33 151.5t105 115.5t171 46
q122 0 190.5 -70t70.5 -163q0 -7 -7 -49q-8 -26 -102 -43q-58 -10 -266 -10q3 -60 53 -98t129 -38t154 25zM350 1067q-43 0 -72 -35.5t-32 -99.5q26 -1 66 0t73 2.5t37 1.5q22 0 22 27q0 41 -25.5 72.5t-68.5 31.5z" />
    <glyph glyph-name="g.superior" horiz-adv-x="739" 
d="M352 1174q63 0 137 -17q46 -16 89 -16q70 0 124 18q7 -18 7 -37q0 -37 -20 -58.5t-54 -23.5q-20 0 -43 -2q18 -30 18 -71q0 -92 -78.5 -144.5t-189.5 -52.5q-9 0 -45 6q-21 -17 -21 -31q0 -31 60 -34q177 -6 182 -6q96 -4 142.5 -49.5t46.5 -110.5q0 -76 -54.5 -133
t-136.5 -84t-176 -27q-137 0 -217 49t-80 123q0 36 33.5 65t101.5 56q-36 13 -61.5 43.5t-28.5 69.5q0 10 12 16q70 31 99 65q-133 46 -133 175q0 94 82 152.5t204 58.5zM342 1081q-41 0 -65.5 -28.5t-24.5 -77.5q0 -51 24 -79t70 -28q41 0 65.5 27.5t24.5 73.5
q0 112 -94 112zM217 498q0 -37 46 -60.5t120 -23.5q67 0 112.5 21.5t45.5 60.5q0 27 -20 41.5t-81 21.5q-78 10 -143 6q-24 0 -37 -8q-43 -22 -43 -59z" />
    <glyph glyph-name="one.oldstyle" horiz-adv-x="698" 
d="M530 926l9 -6v-873q0 -32 -15 -41.5t-65 -11.5l-170 -6q6 246 6 311v389q-30 -10 -126 -30t-132 -23l-4 8l57 133q348 102 440 150z" />
    <glyph glyph-name="two.oldstyle" horiz-adv-x="849" 
d="M68 6l-9 14q12 30 32.5 68.5t31.5 50.5q194 140 269 247t75 202q0 62 -37 102.5t-106 40.5q-73 0 -166 -59q-50 -36 -80 10q-24 40 -31 80q50 63 152 113.5t196 50.5q154 0 237 -81.5t83 -211.5q0 -59 -21.5 -115.5t-51 -99.5t-80.5 -91.5t-90 -78.5t-99 -74q75 -8 448 0
q-12 -66 -43 -109.5t-59 -52.5q-33 -20 -184 -20q-371 0 -467 14z" />
    <glyph glyph-name="three.oldstyle" horiz-adv-x="823" 
d="M176 276l-4 7q1 25 18.5 70t30.5 59q106 20 168 71t62 133q0 57 -39 92t-103 35q-39 0 -82.5 -16t-72.5 -35q-24 -19 -51.5 -9.5t-39.5 46.5q-4 10 -10 57q54 59 145 99.5t185 40.5q134 0 211.5 -74.5t77.5 -173.5q0 -93 -49.5 -155.5t-143.5 -110.5q131 -30 200 -105.5
t69 -177.5q0 -163 -132 -264t-323 -101q-63 0 -121 14t-80 34q-23 22 -36 62t-13 75l4 2q90 -33 193 -33q116 0 186 52.5t70 150.5q0 80 -59 123t-152 43q-56 0 -109 -11z" />
    <glyph glyph-name="four.oldstyle" horiz-adv-x="1015" 
d="M788 926l9 -8v-687q103 0 174 11l4 -4q-7 -32 -26.5 -71t-41.5 -56q-26 -14 -110 -25v-250q0 -20 -11 -29.5t-38 -17.5q-31 -8 -95 -15t-90 -7l-8 4q12 144 12 315q-115 -3 -246.5 4.5t-197.5 22.5q-14 8 -36.5 39.5t-23.5 46.5q85 160 232 365.5t235 283.5
q42 24 121.5 48t136.5 30zM569 231q0 47 4.5 243t4.5 233q-45 -48 -136.5 -185t-165.5 -272q55 -19 293 -19z" />
    <glyph glyph-name="five.oldstyle" horiz-adv-x="845" 
d="M102 328l-16 28q20 132 58.5 313.5t60.5 221.5q59 -2 275 11.5t249 23.5l4 -6q-7 -39 -27 -88t-40 -68q-34 -30 -112 -44t-228 -20q-35 -145 -43 -202q135 -22 219 -49q134 -42 195 -118.5t61 -191.5q0 -165 -127.5 -270t-323.5 -105q-116 0 -168 31q-22 10 -45 51.5
t-24 87.5l4 5q111 -27 182 -27q131 0 198.5 53.5t67.5 140.5q0 70 -42 112.5t-128 66.5q-93 27 -250 43z" />
    <glyph glyph-name="six.oldstyle" horiz-adv-x="997" 
d="M395 520l-8 6q-2 25 17 70t47 68q78 36 161 36q136 0 225 -92t89 -231q0 -95 -34 -172.5t-92 -127t-133 -76t-159 -26.5q-107 0 -191.5 37.5t-136.5 102.5t-79 148t-27 179q0 288 188 484q105 108 248 163.5t291 55.5q41 0 59 -6q20 -4 42.5 -34.5t27.5 -88.5l-4 -4h-54
q-74 0 -149 -20t-147 -64t-127 -107.5t-89 -159t-34 -208.5q0 -167 60 -248.5t144 -81.5q71 0 117.5 52t46.5 151q0 106 -57.5 157.5t-138.5 51.5q-36 0 -103 -15z" />
    <glyph glyph-name="seven.oldstyle" horiz-adv-x="903" 
d="M838 905l2 -8q-11 -127 -74.5 -304t-145 -332.5t-162.5 -280.5t-130 -168q-26 -25 -53.5 -36.5t-73.5 -11.5q-32 0 -65.5 8t-41.5 21q154 170 308.5 450.5t209.5 483.5h-401q-85 0 -117.5 10t-32.5 35t25 79.5t47 76.5q54 -23 193 -23q24 0 141.5 -0.5t219.5 -0.5t151 1z
" />
    <glyph glyph-name="eight.oldstyle" horiz-adv-x="950" 
d="M489 1145q159 0 248.5 -85.5t89.5 -201.5q0 -47 -14 -86.5t-41.5 -70.5t-54.5 -52.5t-66 -46.5q119 -62 171 -132t52 -163q0 -103 -59.5 -180.5t-150 -114.5t-193.5 -37q-79 0 -143 14.5t-105.5 40.5t-70.5 56t-44 66t-21.5 66.5t-6.5 60.5q0 42 13.5 79t32 63t50 52.5
t54.5 41.5t59 36q-170 102 -170 268q0 149 108 237.5t262 88.5zM471 1004q-61 0 -100 -39t-39 -95q0 -65 50.5 -110.5t154.5 -93.5q96 75 96 174q0 72 -46.5 118t-115.5 46zM483 121q69 0 113.5 37.5t44.5 103.5q0 35 -14 63.5t-68 70.5t-151 87q-113 -67 -113 -180
q0 -78 55.5 -130t132.5 -52z" />
    <glyph glyph-name="nine.oldstyle" horiz-adv-x="985" 
d="M74 -111l2 5q98 7 181.5 30t159.5 69t129.5 111t84.5 162t31 217q0 132 -48.5 214.5t-138.5 82.5q-76 0 -119 -61t-43 -154q0 -87 51.5 -145t147.5 -58q32 0 82 11q0 -49 -23 -93t-57 -59q-44 -18 -121 -18q-138 0 -229.5 88.5t-91.5 240.5q0 170 125.5 282t300.5 112
q101 0 181 -35t130.5 -97t77 -144t26.5 -179q0 -172 -63.5 -315.5t-194.5 -241.5q-200 -150 -446 -150q-42 0 -82.5 32.5t-52.5 92.5z" />
    <glyph glyph-name="dollar.oldstyle" horiz-adv-x="931" 
d="M600 1087l-14 -137q46 -6 102.5 -28t93.5 -50q-5 -58 -34 -98q-35 -47 -91 -24q-110 43 -182 43q-57 0 -88 -22.5t-31 -55.5q0 -39 42.5 -69t189.5 -97q54 -25 90 -47.5t68 -54t47.5 -72.5t15.5 -94q0 -67 -28 -121.5t-73 -87t-92 -51t-94 -25.5l-12 -119q0 -27 -45 -33
q-96 -12 -139 -10l16 156q-69 5 -141 30t-119 62q0 36 27 94q35 69 88 43q128 -67 241 -67q63 0 97 22.5t34 61.5t-42 73.5t-158 83.5q-137 59 -191.5 120.5t-54.5 160.5q0 63 27.5 115.5t71 85t91 51t93.5 22.5l10 90q3 31 41 41q50 15 143 8z" />
    <glyph glyph-name="cent.oldstyle" horiz-adv-x="931" 
d="M668 1047l-21 -154q64 -7 114.5 -26.5t74.5 -43.5q0 -52 -31 -92q-27 -41 -76 -24q-86 26 -127 26q-70 0 -122.5 -23t-80 -61t-40.5 -78.5t-13 -83.5q0 -65 23.5 -115.5t62.5 -79.5t84 -44t92 -15q118 0 223 43q-1 -63 -22.5 -111t-46.5 -61q-78 -38 -172 -38l-15 -125
q-3 -30 -17 -44.5t-48 -15.5l-115 -6l27 201q-324 69 -324 389q0 87 30 158.5t72 115.5t99.5 77.5t99.5 48.5t84 24l11 100q3 27 20.5 37.5t67.5 13.5z" />
    <glyph glyph-name="percent.oldstyle" horiz-adv-x="1425" 
d="M1147 1067q-100 -146 -397 -585.5t-349 -516.5q-16 -24 -28 -27.5t-23 7.5q-47 35 -61 69q190 276 450.5 663.5t300.5 455.5q7 14 16.5 14t28.5 -10q49 -27 62 -70zM358 1100q130 0 203.5 -90t73.5 -248q0 -89 -29.5 -164t-95 -125.5t-156.5 -50.5q-131 0 -209.5 84
t-78.5 250q0 45 9.5 91t32 92t55.5 81.5t83.5 57.5t111.5 22zM348 987q-51 0 -80.5 -59.5t-29.5 -167.5q0 -104 29.5 -166t86.5 -62q55 0 83 62t28 164q0 98 -28 163.5t-89 65.5zM1090 653q132 0 204 -88.5t72 -251.5q0 -88 -30 -163t-95 -125t-154 -50q-132 0 -211 82.5
t-79 251.5q0 57 17 114.5t50 110.5t92 86t134 33zM1077 543q-50 0 -80 -62.5t-30 -167.5t30.5 -166t87.5 -61q111 0 111 225q0 232 -119 232z" />
    <glyph glyph-name="zero.fitted" horiz-adv-x="983" 
d="M508 1233q76 0 138.5 -23.5t105.5 -61t75.5 -91t51 -108t30 -118t15.5 -114.5t4 -103q0 -314 -116 -476.5t-327 -162.5q-67 0 -127 18.5t-116.5 64t-97 114.5t-65 178.5t-24.5 247.5q0 91 14 177.5t48 170.5t84.5 147t129.5 101.5t177 38.5zM489 1092q-39 0 -71.5 -26.5
t-58 -81.5t-40 -149t-14.5 -219q0 -118 12.5 -209t32.5 -144.5t47 -87.5t52 -46t53 -12q176 0 176 501q0 235 -50.5 354.5t-138.5 119.5z" />
    <glyph glyph-name="one.fitted" horiz-adv-x="983" 
d="M670 1233l22 -12q0 -65 3 -575t3 -597q0 -29 -11.5 -39.5t-41.5 -13.5q-91 -8 -203 -8q4 218 4 1013q-50 -17 -142.5 -41t-143.5 -32l-4 6l49 133q126 38 263 87t202 79z" />
    <glyph glyph-name="two.fitted" horiz-adv-x="983" 
d="M86 31l37 86q244 255 345 411t101 308q0 93 -48.5 150.5t-139.5 57.5q-60 0 -116.5 -26.5t-88.5 -54.5q-30 -23 -48.5 -20t-33.5 30q-5 7 -8.5 17t-5 18t-3.5 20t-3 16q67 92 172.5 140.5t220.5 48.5q88 0 157 -30t111 -81t64 -115t22 -135q0 -83 -24.5 -151.5
t-75.5 -149.5q-96 -160 -340 -395q93 -9 534 0q-9 -51 -41 -98.5t-59 -57.5q-43 -26 -201 -26q-149 0 -222 0.5t-161.5 5.5t-136.5 14z" />
    <glyph glyph-name="three.fitted" horiz-adv-x="983" 
d="M90 141l4 4q49 -19 120.5 -34t131.5 -15q285 0 285 238q0 97 -66 150t-194 53q-25 0 -70 -4.5t-53 -4.5l-6 4q4 33 26.5 79.5t40.5 60.5q129 25 191.5 77.5t62.5 141.5q0 74 -44 118t-120 44q-95 0 -190 -70q-59 -38 -82 4q-20 38 -16 84q45 64 144.5 113t203.5 49
q84 0 149 -21.5t101.5 -53t59.5 -72t30.5 -72.5t7.5 -62q0 -183 -215 -278q151 -30 227 -112.5t76 -203.5q0 -131 -68.5 -227t-184 -144t-263.5 -48q-84 0 -146.5 17t-85.5 38q-27 22 -43.5 63.5t-13.5 83.5z" />
    <glyph glyph-name="four.fitted" horiz-adv-x="983" 
d="M811 1272l6 -17q-362 -428 -557 -774q150 -19 297 -16l8 278q29 19 105.5 40t120.5 24l8 -6v-338q61 0 147 8l2 -6q-19 -87 -61 -135q-26 -11 -88 -21v-260q0 -23 -14 -33.5t-44 -15.5q-73 -12 -198 -12q12 196 12 319q-113 0 -254.5 9t-202.5 20q-14 9 -37 47t-24 63
q78 144 260 401t260 337q51 32 123.5 56t130.5 32z" />
    <glyph glyph-name="five.fitted" horiz-adv-x="983" 
d="M129 578l-14 20q24 150 70 353t67 245q61 -3 294 13t277 26l2 -6q-22 -122 -75 -164q-33 -26 -114 -37.5t-261 -19.5q-13 -39 -60 -252q164 -21 295 -60q151 -47 220 -123.5t69 -210.5q0 -128 -71.5 -226t-187.5 -147.5t-255 -49.5q-160 0 -209 43q-25 19 -39 57t-16 78
l6 6q96 -31 207 -31q142 0 227.5 59t85.5 179q0 133 -174 186q-132 42 -344 62z" />
    <glyph glyph-name="six.fitted" horiz-adv-x="983" 
d="M913 1169l-4 -4q-151 -22 -261.5 -74.5t-190.5 -144.5q-73 -85 -110.5 -204.5t-37.5 -245.5q0 -186 61.5 -282.5t153.5 -96.5q77 0 122.5 62.5t45.5 162.5q0 65 -18.5 112.5t-49.5 71.5t-61.5 34.5t-62.5 10.5q-72 0 -131 -30q0 26 13 66t30 57q32 28 90.5 48.5
t113.5 20.5q82 0 145 -30t98.5 -80t53 -106.5t17.5 -117.5q0 -189 -122 -306.5t-312 -117.5q-92 0 -170.5 30.5t-139.5 91t-96 160t-35 228.5q0 307 203 533q62 69 141 122t151.5 80t130.5 39.5t99 12.5q49 0 81.5 -22t51.5 -81z" />
    <glyph glyph-name="seven.fitted" horiz-adv-x="983" 
d="M913 1208l7 -8q-2 -123 -103.5 -383t-216.5 -481.5t-170 -284.5q-39 -49 -127 -67q-84 -12 -137 -9l-2 7q138 177 293 483t229 553h-469q-96 0 -125.5 15t-19.5 50q6 31 36 75.5t60 68.5q31 -19 174 -19h571z" />
    <glyph glyph-name="eight.fitted" horiz-adv-x="983" 
d="M504 1233q168 0 263 -88.5t95 -212.5q0 -94 -52.5 -158t-150.5 -121q66 -37 107.5 -66.5t77.5 -69t52.5 -87t16.5 -108.5q0 -152 -121 -249.5t-307 -97.5q-95 0 -170 21t-120 54t-74 77t-40 85t-11 83q0 54 18.5 98.5t57 81t75.5 61.5t94 56q-198 110 -198 303
q0 63 25.5 123t73 108t122.5 77.5t166 29.5zM489 1096q-69 0 -112 -44t-43 -112q0 -70 49.5 -119.5t165.5 -103.5q104 84 104 201q0 77 -44.5 127.5t-119.5 50.5zM498 115q77 0 125.5 47.5t48.5 122.5q0 64 -54.5 118.5t-185.5 116.5q-133 -83 -133 -209q0 -84 56 -140
t143 -56z" />
    <glyph glyph-name="nine.fitted" horiz-adv-x="983" 
d="M119 45l4 4q248 45 373 170q168 163 168 502q0 164 -49.5 267.5t-143.5 103.5q-79 0 -124.5 -67.5t-45.5 -168.5q0 -116 62.5 -177t142.5 -61q41 0 96 19q0 -30 -14 -71t-35 -60q-48 -45 -168 -45q-146 0 -236 98t-90 256q0 109 50.5 203.5t151.5 154.5t233 60
q107 0 191 -43t134 -117t75.5 -165.5t25.5 -194.5q0 -361 -246 -588q-75 -69 -163.5 -113.5t-149.5 -58.5t-109 -14q-54 0 -80 18q-42 31 -53 88z" />
    <glyph glyph-name="zero.taboldstyle" horiz-adv-x="952" 
d="M489 926q171 0 287.5 -123t116.5 -344q0 -119 -32.5 -212.5t-89.5 -152t-131.5 -89t-162.5 -30.5q-208 0 -313 124.5t-105 340.5q0 139 47 247t146 173.5t237 65.5zM475 772q-92 0 -139 -82.5t-47 -228.5q0 -154 49.5 -242t144.5 -88q181 0 181 322q0 91 -18 160.5
t-61.5 114t-109.5 44.5z" />
    <glyph glyph-name="one.taboldstyle" horiz-adv-x="952" 
d="M659 926l9 -6v-873q0 -32 -16 -41.5t-64 -11.5l-170 -6q6 246 6 311v389q-30 -10 -126 -30t-132 -23l-6 8l57 133q352 103 442 150z" />
    <glyph glyph-name="two.taboldstyle" horiz-adv-x="952" 
d="M113 6l-11 14q38 87 66 119q132 96 210.5 181t105 145.5t26.5 122.5t-36 102.5t-105 40.5q-75 0 -168 -59q-50 -36 -80 10q-26 42 -29 80q50 63 151 113.5t195 50.5q155 0 237.5 -81.5t82.5 -211.5q0 -59 -21.5 -115.5t-51 -99.5t-80.5 -91.5t-90 -78.5t-99 -74
q77 -8 448 0q-12 -66 -43 -109.5t-59 -52.5q-33 -20 -184 -20q-369 0 -465 14z" />
    <glyph glyph-name="three.taboldstyle" horiz-adv-x="952" 
d="M236 276l-3 7q1 25 19 70t31 59q105 20 167 71t62 133q0 57 -38.5 92t-102.5 35q-39 0 -83 -16t-73 -35q-24 -19 -51.5 -9.5t-40.5 46.5q-8 27 -8 57q52 59 142.5 99.5t184.5 40.5q135 0 213 -74.5t78 -173.5q0 -93 -49.5 -155.5t-142.5 -110.5q131 -30 199.5 -105.5
t68.5 -177.5q0 -163 -132 -264t-323 -101q-63 0 -121 14t-81 34q-22 22 -35 62.5t-13 74.5l5 2q86 -33 192 -33q116 0 185 52t69 151q0 80 -58.5 123t-150.5 43q-53 0 -110 -11z" />
    <glyph glyph-name="four.taboldstyle" horiz-adv-x="952" 
d="M745 926l9 -8v-687q95 0 170 11l2 -4q-5 -31 -23 -70.5t-41 -56.5q-26 -14 -108 -25v-250q0 -20 -11 -29t-38 -18q-32 -7 -97 -14.5t-88 -7.5l-8 4q12 144 12 315q-114 -3 -237.5 4.5t-190.5 22.5q-14 8 -35.5 39.5t-21.5 46.5q78 149 223 362.5t225 286.5
q40 23 120 47.5t138 30.5zM526 231q0 47 4.5 243t4.5 233q-38 -44 -128 -189.5t-155 -267.5q51 -19 274 -19z" />
    <glyph glyph-name="five.taboldstyle" horiz-adv-x="952" 
d="M147 328l-16 28q19 127 59 311t60 224q59 -2 275 11.5t249 23.5l4 -6q-7 -39 -27 -88t-40 -68q-34 -30 -112 -44t-228 -20q-35 -145 -43 -202q135 -22 219 -49q134 -42 196 -118.5t62 -191.5q0 -165 -128.5 -270t-324.5 -105q-116 0 -168 31q-22 10 -45 51.5t-24 87.5
l4 5q118 -27 182 -27q131 0 199.5 53.5t68.5 140.5q0 70 -43 112.5t-129 66.5q-96 28 -250 43z" />
    <glyph glyph-name="six.taboldstyle" horiz-adv-x="952" 
d="M381 520l-6 6q-2 25 16.5 70t46.5 68q78 36 148 36q137 0 224 -92t87 -231q0 -127 -57 -219.5t-148.5 -137.5t-204.5 -45q-108 0 -191.5 36.5t-134.5 101t-76.5 147.5t-25.5 182q0 289 191 488q103 106 236.5 160.5t281.5 54.5q41 0 61 -6q19 -4 41 -34.5t29 -88.5l-4 -4
h-55q-93 0 -183.5 -33.5t-168.5 -99t-126.5 -176.5t-48.5 -250q0 -168 57.5 -249t141.5 -81q68 0 112 51.5t44 151.5q0 107 -52 158t-131 51q-18 0 -37 -2.5t-41.5 -7.5t-25.5 -5z" />
    <glyph glyph-name="seven.taboldstyle" horiz-adv-x="952" 
d="M852 905l4 -8q-11 -127 -74.5 -304t-145 -332.5t-162.5 -280.5t-130 -168q-51 -48 -129 -48q-31 0 -63.5 8t-40.5 21q152 170 307 450.5t211 483.5h-402q-85 0 -117 10t-34 35q0 25 26 79.5t48 76.5q54 -23 190 -23q24 0 141.5 -0.5t219.5 -0.5t151 1z" />
    <glyph glyph-name="eight.taboldstyle" horiz-adv-x="952" 
d="M487 1145q161 0 250.5 -85.5t89.5 -201.5q0 -47 -14 -86.5t-41.5 -70.5t-54.5 -52.5t-66 -46.5q119 -62 171 -132t52 -163q0 -103 -59.5 -180.5t-150 -114.5t-193.5 -37q-94 0 -167 21.5t-114.5 53.5t-68 75t-35 80t-8.5 74q0 42 14 79.5t32 62.5t50.5 52.5t54 41.5
t58.5 36q-168 102 -168 268q0 149 107.5 237.5t260.5 88.5zM471 1004q-61 0 -100 -39t-39 -95q0 -65 50.5 -110.5t154.5 -93.5q96 75 96 174q0 72 -46.5 118t-115.5 46zM483 121q69 0 113.5 37.5t44.5 103.5q0 35 -14 63.5t-68 70.5t-151 87q-115 -68 -115 -180
q0 -78 56 -130t134 -52z" />
    <glyph glyph-name="nine.taboldstyle" horiz-adv-x="952" 
d="M63 -111l3 5q97 7 179 30t156 68.5t125 110.5t81 162t30 218q0 133 -45 215t-135 82q-75 0 -115.5 -60.5t-40.5 -154.5q0 -89 48 -146t145 -57q32 0 81 11q0 -50 -22.5 -93.5t-56.5 -58.5q-46 -18 -111 -18q-140 0 -232 88.5t-92 240.5q0 171 121 282.5t295 111.5
q199 0 305.5 -128t106.5 -329q0 -361 -258 -555q-194 -150 -432 -150q-43 0 -83 32.5t-53 92.5z" />
    <glyph glyph-name="a.superior" horiz-adv-x="694" 
d="M664 696v-24q-1 -51 -37 -80t-95 -29q-101 0 -129 72q-29 -29 -74.5 -50.5t-95.5 -21.5q-80 0 -132 43.5t-52 118.5q0 39 19.5 71t46.5 52t69.5 37t73.5 24.5t74 16.5q13 3 69 12v20q0 37 -25 58.5t-69 21.5q-55 0 -131 -39q-78 -37 -96 45l-8 33q44 35 122 64.5
t152 29.5q109 0 173.5 -56t64.5 -161q0 -22 -3 -106t-3 -125q7 -14 21.5 -23.5t27.5 -9.5q25 0 37 6zM233 752q0 -27 21 -45.5t51 -18.5q54 0 80 37q14 20 14 45v78q-80 -7 -123 -33.5t-43 -62.5z" />
    <glyph glyph-name="b.superior" horiz-adv-x="780" 
d="M106 639v674q0 96 -10 141q36 9 93.5 17t80.5 8q18 0 23.5 -14t5.5 -72l2 -258q86 36 139 36q133 0 210 -79t77 -201q0 -87 -38 -154t-105 -110q-100 -64 -230 -64q-109 0 -211 39q-21 8 -29 16t-8 21zM301 1026l-2 -328q41 -18 78 -18q55 0 101 46t46 144
q0 82 -38 129.5t-105 47.5q-38 0 -80 -21z" />
    <glyph glyph-name="d.superior" horiz-adv-x="802" 
d="M487 1159v162q0 79 -8 133q23 8 85.5 16.5t88.5 8.5q18 0 23.5 -15t5.5 -71v-654q0 -53 72 -63v-8q-12 -43 -43.5 -74t-77.5 -31q-38 0 -74 22t-49 50q-93 -72 -188 -72q-119 0 -195 79t-76 202q0 163 131 260q90 67 224 67q35 0 81 -12zM487 729v307q-34 19 -79 19
q-24 0 -49 -9.5t-49.5 -29t-40 -57t-15.5 -87.5q0 -79 42.5 -126.5t100.5 -47.5q51 0 90 31z" />
    <glyph glyph-name="e.superior" horiz-adv-x="667" 
d="M582 725l6 -8q-6 -37 -30.5 -76.5t-41.5 -46.5q-64 -31 -147 -31q-144 0 -231 76t-87 219q0 82 33 151.5t105 115.5t171 46q122 0 190.5 -70t70.5 -163q0 -7 -7 -49q-8 -26 -102 -43q-58 -10 -266 -10q3 -60 53 -98t129 -38t154 25zM350 1067q-43 0 -72 -35.5t-32 -99.5
q26 -1 66 0t73 2.5t37 1.5q22 0 22 27q0 41 -25.5 72.5t-68.5 31.5z" />
    <glyph glyph-name="h.superior" horiz-adv-x="804" 
d="M307 975v-365q0 -20 -6 -27t-27 -8q-68 -8 -165 -8q6 105 6 242l-2 502q0 86 -9 147q24 7 88 14t89 7q16 0 21 -14.5t5 -71.5v-306q87 84 189 84q49 0 86.5 -15.5t58.5 -38.5t34 -55t17 -59.5t4 -56.5v-180q0 -118 6 -188q-9 -1 -42 -4t-67 -5t-61 -2q-28 0 -28 27v338
q0 54 -23.5 79t-60.5 25q-65 0 -113 -61z" />
    <glyph glyph-name="i.superior" horiz-adv-x="407" 
d="M205 1475q45 0 70.5 -27.5t25.5 -69.5q0 -46 -28.5 -75t-75.5 -29q-40 0 -68.5 25t-28.5 75q0 49 34 75t71 26zM301 1081v-471q0 -19 -9 -26.5t-34 -10.5q-71 -8 -156 -8q4 110 4 211v223q0 77 -10 150q26 6 90 12t88 6q16 0 21.5 -14.5t5.5 -71.5z" />
    <glyph glyph-name="l.superior" horiz-adv-x="407" 
d="M301 1393v-783q0 -19 -9 -26.5t-34 -10.5q-71 -8 -156 -8q4 110 4 211v535q0 102 -10 147q25 7 88.5 14t87.5 7q18 0 23.5 -14t5.5 -72z" />
    <glyph glyph-name="m.superior" horiz-adv-x="1185" 
d="M309 973v-361q0 -21 -7 -28.5t-28 -10.5q-86 -6 -163 -6q4 140 4 242v209q0 45 -41 63v9q30 44 57 62.5t70 18.5q39 0 64 -27t34 -63q101 90 203 90q119 0 170 -96q112 96 209 96q51 0 89 -15.5t59 -38.5t34 -55.5t16.5 -59.5t3.5 -58v-178q0 -141 4 -188q-11 -1 -43 -4
t-65 -5t-59 -2q-17 0 -23 6t-8 21v340q0 53 -23.5 77.5t-60.5 24.5q-62 0 -109 -63v-363q0 -20 -6 -27t-28 -8q-68 -8 -164 -8q4 156 4 242v121q0 106 -84 106q-60 0 -109 -63z" />
    <glyph glyph-name="n.superior" horiz-adv-x="804" 
d="M504 594v338q0 53 -23.5 77.5t-60.5 24.5q-64 0 -113 -59v-365q0 -20 -6 -27t-27 -8q-68 -8 -165 -8q6 105 6 242v211q0 42 -41 63v9q29 40 57.5 59.5t69.5 19.5q36 0 64 -26t36 -60q40 37 92 61.5t101 24.5q61 0 103.5 -22t62.5 -58.5t28 -70.5t8 -72v-182
q0 -118 6 -188q-9 -1 -42 -4t-67 -5t-61 -2q-28 0 -28 27z" />
    <glyph glyph-name="o.superior" horiz-adv-x="747" 
d="M385 1171q147 0 232 -86t85 -213q0 -144 -94 -226.5t-241 -82.5q-139 0 -229.5 81t-90.5 214q0 145 96.5 229t241.5 84zM373 1051q-56 0 -89.5 -48.5t-33.5 -132.5q0 -88 37.5 -137t87.5 -49q57 0 91 47.5t34 136.5q0 75 -31.5 129t-95.5 54z" />
    <glyph glyph-name="r.superior" horiz-adv-x="567" 
d="M72 1081v6q16 37 46 60.5t66 23.5q42 0 73 -37.5t32 -99.5q72 137 178 137q22 0 44.5 -11.5t33.5 -26.5q3 -20 -7 -60t-28 -63q-26 -26 -49 -19q-47 15 -55 15q-51 0 -84 -58q-13 -37 -13 -80v-256q0 -19 -10 -27.5t-35 -11.5q-66 -6 -153 -6q4 70 4 242v209
q0 19 -14 38.5t-29 24.5z" />
    <glyph glyph-name="s.superior" horiz-adv-x="557" 
d="M305 1171q56 0 103 -15.5t65 -33.5q0 -41 -22 -80q-24 -24 -54 -10q-47 21 -94 21q-53 0 -53 -41q0 -36 47 -54q83 -35 137 -67q70 -45 70 -129q0 -95 -77 -147t-187 -52q-50 0 -102.5 17t-82.5 45q3 51 29 80q23 26 47 12q58 -35 119 -35q39 0 57.5 13t18.5 34
q0 33 -54 57q-61 26 -116 60q-84 48 -84 139q0 87 67 136.5t166 49.5z" />
    <glyph glyph-name="t.superior" horiz-adv-x="528" 
d="M489 715l5 -2q4 -70 -27 -97q-56 -53 -166 -53q-97 0 -141.5 51t-46.5 127q-2 63 2 299q-29 0 -53.5 13t-24.5 24q8 18 32 45.5t46.5 49t47.5 44.5t27 25q43 35 125 47q0 -8 -6 -131h201q-8 -47 -21.5 -73t-25.5 -33t-31 -9h-127q-7 -159 2 -268q8 -84 84 -84
q13 0 25.5 2t24 5.5t19.5 6t17.5 6.5t11.5 5z" />
    <glyph glyph-name="zero.superior" 
d="M322 1536q71 0 123.5 -27t83 -75t45 -108t14.5 -132q0 -62 -14.5 -117t-45.5 -104t-87 -78t-132 -29q-68 0 -120 27.5t-82.5 74t-46 103t-15.5 119.5q0 65 14.5 123.5t45 110t86.5 82t131 30.5zM317 1415q-34 0 -55.5 -34.5t-29 -79t-7.5 -97.5q0 -106 27 -161.5
t70 -55.5q45 0 67.5 61.5t22.5 159.5q0 92 -25 149.5t-70 57.5z" />
    <glyph glyph-name="four.superior" 
d="M535 1571l2 -4q-205 -215 -340 -428q62 -6 139 -6l4 122q16 13 74.5 30.5t95.5 17.5h6v-168q32 0 88 6l4 -4q-2 -18 -17.5 -54.5t-27.5 -48.5q-5 -2 -47 -10v-137q-42 -4 -82 -9t-60.5 -7.5t-35.5 -2.5l-6 6q4 82 4 146q-178 0 -264 14q-7 4 -25 34t-18 38
q58 98 149.5 221t149.5 176q19 19 93 42.5t114 25.5z" />
    <glyph glyph-name="five.superior" 
d="M70 956l6 5q78 -23 143 -23q71 2 112.5 26.5t41.5 73.5q0 64 -78 88q-54 18 -191 35l-16 17q3 42 30.5 172.5t41.5 158.5q167 23 372 27q3 -45 -24 -111q-17 -34 -64 -34q-178 -6 -186 -7q-6 -19 -18 -98q8 -2 49 -8.5t81 -15.5t68 -21q65 -26 95 -65.5t30 -108.5
q0 -61 -29 -109t-76 -76t-102 -42.5t-112 -14.5q-93 0 -135 29q-17 12 -29 43t-10 59z" />
    <glyph glyph-name="six.superior" 
d="M578 1493l-3 -6q-156 -25 -241 -94q-107 -82 -107 -260q0 -78 28 -117t69 -39q37 0 60.5 28.5t23.5 77.5q0 46 -25.5 74.5t-63.5 28.5q-25 0 -59 -15q5 56 19 76q15 19 49.5 33t74.5 14q48 0 84.5 -17.5t56 -46t29 -59.5t9.5 -63q0 -109 -73 -175.5t-200 -66.5
q-117 0 -192.5 70t-75.5 203q0 191 127 305q134 127 334 127q12 0 39 -22t37 -56z" />
    <glyph glyph-name="seven.superior" 
d="M578 1522l4 -6q-46 -217 -134.5 -394.5t-136.5 -220.5q-33 -33 -84 -41q-64 -10 -121 -10l-2 6q87 95 167.5 237t127.5 285q-1 0 -86.5 -1t-169.5 -1q-55 0 -74 13.5t-12 37.5q6 25 27 58t39 49q27 -12 110 -12h345z" />
    <glyph glyph-name="eight.superior" 
d="M324 1536q94 0 160.5 -44t66.5 -130q0 -44 -27.5 -75.5t-77.5 -59.5q65 -31 98.5 -68.5t33.5 -95.5q0 -91 -78 -144t-191 -53q-118 0 -186 47.5t-68 133.5q0 27 10 48.5t32.5 40t38.5 28t48 26.5q-53 29 -78.5 65.5t-25.5 90.5q0 87 70.5 138.5t173.5 51.5zM406 1356
q0 37 -24 59.5t-65 22.5q-36 0 -58.5 -19t-22.5 -51q0 -27 23 -49t93 -49q54 34 54 86zM322 965q40 0 65 18.5t25 52.5q0 36 -33 59.5t-98 47.5q-60 -36 -60 -92q0 -31 27.5 -58.5t73.5 -27.5z" />
    <glyph glyph-name="nine.superior" 
d="M59 915l2 7q53 6 126 29.5t112 56.5q100 86 100 254q0 71 -25.5 117t-70.5 46q-38 0 -62 -29t-24 -75q0 -54 29.5 -82.5t66.5 -28.5q16 0 52 9q-4 -53 -25 -89q-36 -36 -109 -36q-89 0 -139.5 54t-50.5 140q0 100 74.5 174t201.5 74q71 0 125 -23.5t85.5 -64t47 -91
t15.5 -108.5q0 -189 -135 -313q-66 -60 -148 -87.5t-153 -27.5q-34 0 -61.5 28t-33.5 66z" />
    <glyph glyph-name="period.superior" horiz-adv-x="335" 
d="M176 1108q50 0 79.5 -36t29.5 -83q0 -56 -32.5 -89.5t-86.5 -33.5q-45 0 -79 30.5t-34 88.5q0 55 32 89t91 34z" />
    <glyph glyph-name="comma.superior" horiz-adv-x="335" 
d="M223 1157q32 0 49 -31.5t17 -78.5q0 -74 -51 -159.5t-111 -131.5q-55 -41 -150 -37q113 144 113 313q0 52 -10 82q93 43 143 43z" />
    <glyph glyph-name="dollar.superior" 
d="M424 1640l-12 -102q28 -2 71 -17t68 -38q-6 -45 -21 -64q-25 -35 -59 -22q-58 28 -123 28q-37 0 -58.5 -14t-21.5 -39t25 -42.5t117 -55.5q81 -33 125.5 -76t44.5 -117q0 -63 -32 -110.5t-75.5 -71t-93.5 -31.5l-8 -86q-3 -14 -37 -20q-90 -8 -103 -8l15 108
q-45 3 -96.5 21.5t-86.5 46.5q-4 26 19 65q15 24 29 31t34 0q92 -43 164 -43q44 0 68 15t24 42t-28.5 45.5t-108.5 51.5q-89 34 -130.5 81.5t-41.5 116.5q0 49 19.5 88.5t49.5 62.5t61.5 35.5t60.5 14.5l6 70q3 21 30 28q36 10 105 6z" />
    <glyph glyph-name="cent.superior" 
d="M467 1589l-12 -104q79 -10 114 -45q0 -38 -18 -68q-26 -37 -59 -20q-45 18 -84 18q-76 0 -117 -46.5t-41 -109.5q0 -61 26.5 -102t61.5 -55.5t76 -14.5q75 0 153 29q-3 -46 -17.5 -78.5t-31.5 -42.5q-55 -24 -108 -26l-11 -82q-3 -21 -13 -30.5t-34 -10.5l-86 -4l19 135
q-224 48 -224 262q0 58 20 107t49.5 79t68 53t69 33.5t60.5 16.5l8 65q2 19 14 26.5t47 10.5z" />
    <glyph glyph-name="hyphen.superior" horiz-adv-x="501" 
d="M444 1276l2 -6q-5 -47 -31 -96t-57 -58q-46 -17 -144.5 -32t-150.5 -13l-6 6q6 49 28 93t38 49q236 35 321 57z" />
    <glyph glyph-name="parenleft.superior" horiz-adv-x="503" 
d="M68 1223q0 189 75.5 343t206.5 246q26 -5 51.5 -31t22.5 -48q-205 -190 -205 -476q0 -137 53 -270.5t152 -214.5q-10 -32 -41 -56.5t-55 -21.5q-95 50 -177.5 199.5t-82.5 329.5z" />
    <glyph glyph-name="parenright.superior" horiz-adv-x="505" 
d="M436 1276q0 -188 -75 -339.5t-207 -244.5q-26 6 -51.5 33t-22.5 49q203 185 203 475q0 135 -52 268.5t-151 215.5q10 31 41 56t55 23q96 -52 178 -203.5t82 -332.5z" />
    <glyph glyph-name="zero.inferior" 
d="M322 406q71 0 123.5 -27t83 -75t45 -108.5t14.5 -132.5q0 -62 -14.5 -117t-45.5 -103.5t-87 -77.5t-132 -29q-68 0 -120 27.5t-82.5 74t-46 102.5t-15.5 119q0 52 8.5 99.5t29 93.5t51.5 79.5t79.5 54t108.5 20.5zM317 285q-34 0 -55.5 -34.5t-29 -79t-7.5 -97.5
q0 -106 27 -161.5t70 -55.5q45 0 67.5 61.5t22.5 159.5q0 92 -25 149.5t-70 57.5z" />
    <glyph glyph-name="one.inferior" 
d="M465 406l8 -5q-2 -36 -3.5 -263.5t-0.5 -356.5q0 -19 -9 -25.5t-40 -9.5l-144 -10q1 10 7 491q-26 -8 -85.5 -17t-86.5 -11l-5 4l37 108q66 13 175 45.5t147 49.5z" />
    <glyph glyph-name="two.inferior" 
d="M70 205l-7 4q0 60 23 108q39 40 99 64.5t122 24.5q108 0 169 -56.5t61 -150.5q0 -26 -7 -52t-14.5 -45.5t-27 -44.5t-29.5 -37.5t-38.5 -38t-37 -32.5t-41.5 -33t-37 -29q84 -6 277 2q-10 -42 -29 -79t-41 -50q-55 -16 -180 -16q-227 0 -271 12l-8 13q35 71 43 92
q40 31 63.5 50.5t61 54.5t59 63t38 64t16.5 69q0 47 -28.5 73.5t-74.5 26.5q-94 0 -161 -57z" />
    <glyph glyph-name="three.inferior" 
d="M156 2l-6 8q3 6 16 42t20 48q88 13 124 38.5t36 68.5q0 33 -26.5 53.5t-65.5 20.5q-32 0 -73 -17t-72 -43q-25 25 -25 60q0 29 27 51q25 25 81 49.5t123 24.5q98 0 152.5 -49t54.5 -111q0 -57 -28.5 -89.5t-83.5 -60.5q157 -30 157 -168q0 -103 -95 -168t-228 -65
q-90 0 -133 26q-17 15 -29 45t-12 60l4 4q54 -20 129 -20q86 0 126 30t40 78q0 90 -125 90q-38 0 -88 -6z" />
    <glyph glyph-name="four.inferior" 
d="M535 440l2 -4q-205 -215 -340 -428q61 -6 139 -6l4 123q16 13 74.5 30t95.5 17h6v-168q32 0 88 6l4 -4q-2 -18 -17.5 -54t-27.5 -48q-5 -2 -47 -10v-138q-41 -4 -81.5 -9t-61 -7t-35.5 -2l-6 6q4 82 4 145q-172 0 -264 15q-7 4 -25 33.5t-18 37.5q58 99 149.5 222
t149.5 176q19 19 93 42t114 25z" />
    <glyph glyph-name="five.inferior" 
d="M70 -174l6 4q78 -23 143 -23q71 2 112.5 27t41.5 74q0 64 -78 88q-54 18 -191 35l-16 16q3 42 30.5 173t41.5 159q167 23 372 27q3 -45 -24 -111q-18 -35 -64 -35q-20 -1 -61 -1.5t-73.5 -1.5t-51.5 -3q-6 -19 -18 -98q8 -2 49 -8.5t81 -15.5t68 -21q65 -26 95 -65.5
t30 -108.5q0 -61 -29 -109t-76 -76t-102 -42.5t-112 -14.5q-93 0 -135 29q-17 12 -29 43t-10 59z" />
    <glyph glyph-name="six.inferior" 
d="M578 362l-3 -6q-156 -25 -241 -94q-107 -82 -107 -260q0 -78 28 -117t69 -39q36 0 60 28.5t24 78.5q0 46 -25.5 74t-63.5 28q-27 0 -59 -14q5 56 19 76q15 19 49.5 33t74.5 14q48 0 84.5 -17.5t56 -46.5t29 -60t9.5 -63q0 -109 -73 -175t-200 -66q-117 0 -192.5 69.5
t-75.5 202.5q0 191 127 305q134 127 334 127q12 0 39 -22t37 -56z" />
    <glyph glyph-name="seven.inferior" 
d="M578 391l4 -6q-46 -217 -134.5 -394t-136.5 -220q-33 -33 -84 -41q-70 -11 -121 -11l-2 7q87 95 167.5 237t127.5 285q-1 0 -86.5 -1t-169.5 -1q-55 0 -74 13.5t-12 37.5q6 25 27 57.5t39 48.5q27 -12 110 -12h345z" />
    <glyph glyph-name="eight.inferior" 
d="M324 406q94 0 160.5 -44.5t66.5 -130.5q0 -44 -27.5 -75.5t-77.5 -59.5q65 -31 98.5 -68.5t33.5 -95.5q0 -90 -77.5 -143t-191.5 -53q-118 0 -186 47.5t-68 132.5q0 27 10 48.5t32.5 40t38.5 28t48 26.5q-53 29 -78.5 65.5t-25.5 90.5q0 87 70.5 139t173.5 52zM406 225
q0 37 -24 59.5t-65 22.5q-36 0 -58.5 -18.5t-22.5 -50.5q0 -28 23 -50t93 -49q54 34 54 86zM322 -166q40 0 65 19t25 53q0 36 -32.5 59t-98.5 47q-60 -36 -60 -92q0 -31 27.5 -58.5t73.5 -27.5z" />
    <glyph glyph-name="nine.inferior" 
d="M59 -215l2 6q53 6 126 29.5t112 56.5q100 86 100 254q0 71 -25.5 117.5t-70.5 46.5q-38 0 -62 -29.5t-24 -75.5q0 -54 29.5 -82t66.5 -28q20 0 52 8q-4 -52 -25 -88q-37 -37 -109 -37q-89 0 -139.5 54.5t-50.5 140.5q0 100 74.5 174t201.5 74q71 0 125 -23.5t85.5 -64
t47 -91t15.5 -108.5q0 -190 -135 -314q-66 -60 -148 -87t-153 -27q-34 0 -61.5 28t-33.5 66z" />
    <glyph glyph-name="period.inferior" horiz-adv-x="335" 
d="M176 -23q50 0 79.5 -35.5t29.5 -82.5q0 -56 -32.5 -89.5t-86.5 -33.5q-45 0 -79 30.5t-34 88.5q0 55 32 88.5t91 33.5z" />
    <glyph glyph-name="comma.inferior" horiz-adv-x="335" 
d="M223 27q32 0 49 -32t17 -79q0 -74 -51 -159.5t-111 -131.5q-55 -41 -150 -37q113 144 113 314q0 52 -10 82q93 43 143 43z" />
    <glyph glyph-name="dollar.inferior" 
d="M424 510l-12 -102q28 -2 71 -17t68 -39q-6 -44 -21 -63q-26 -36 -59 -23q-60 29 -123 29q-37 0 -58.5 -14t-21.5 -39t25.5 -43t116.5 -56q81 -33 125.5 -75.5t44.5 -116.5q0 -63 -32 -110.5t-75.5 -71t-93.5 -31.5l-8 -86q-3 -15 -37 -21q-90 -8 -103 -8l15 109
q-45 3 -96.5 21t-86.5 46q-2 9 4 30t15 36q15 24 29 31t34 0q92 -43 164 -43q44 0 68 15t24 42t-28 44.5t-109 51.5q-89 34 -130.5 82t-41.5 117q0 49 19.5 88.5t49.5 62.5t61.5 35.5t60.5 14.5l6 69q3 22 30 29q36 10 105 6z" />
    <glyph glyph-name="cent.inferior" 
d="M467 459l-12 -105q79 -10 114 -45q0 -37 -18 -67q-26 -37 -59 -21q-48 19 -84 19q-76 0 -117 -46.5t-41 -109.5q0 -61 26.5 -102t61.5 -55.5t76 -14.5q75 0 153 29q-3 -46 -17.5 -78.5t-31.5 -42.5q-57 -25 -108 -27l-11 -82q-3 -21 -13 -30.5t-34 -10.5l-86 -4l19 135
q-224 48 -224 262q0 58 20 107t49.5 79t68 53t69 33.5t60.5 16.5l8 66q2 19 14 26.5t47 10.5z" />
    <glyph glyph-name="hyphen.inferior" horiz-adv-x="501" 
d="M444 145l2 -6q-5 -47 -31 -95.5t-57 -57.5q-46 -17 -144.5 -32t-150.5 -13l-6 6q6 49 27.5 92.5t38.5 48.5q236 35 321 57z" />
    <glyph glyph-name="parenleft.inferior" horiz-adv-x="503" 
d="M68 92q0 189 75.5 343.5t206.5 246.5q26 -5 51.5 -31.5t22.5 -48.5q-205 -190 -205 -475q0 -137 53 -270.5t152 -214.5q-10 -32 -41 -56.5t-55 -21.5q-44 23 -88.5 72t-83.5 116.5t-63.5 157.5t-24.5 182z" />
    <glyph glyph-name="parenright.inferior" horiz-adv-x="505" 
d="M436 145q0 -188 -75 -339t-207 -244q-26 6 -51.5 33t-22.5 49q203 185 203 475q0 135 -52 268t-151 215q10 31 41 56.5t55 23.5q95 -52 177.5 -204t82.5 -333z" />
    <glyph glyph-name="zero.numerator" 
d="M322 1233q71 0 123.5 -27t83 -75t45 -108t14.5 -132q0 -62 -14.5 -117t-45.5 -104t-87 -78t-132 -29q-68 0 -120 27.5t-82.5 74t-46 103t-15.5 119.5q0 65 14.5 123.5t45 110t86.5 82t131 30.5zM317 1112q-34 0 -55.5 -34.5t-29 -79t-7.5 -97.5q0 -106 27 -161.5
t70 -55.5q45 0 67.5 61.5t22.5 159.5q0 92 -25 149.5t-70 57.5z" />
    <glyph glyph-name="one.numerator" 
d="M465 1233l8 -4q-2 -36 -3.5 -264t-0.5 -357q0 -19 -9 -25.5t-40 -9.5l-144 -10q1 9 7 492q-27 -8 -86.5 -17.5t-85.5 -11.5l-5 4l37 109q67 14 175.5 45.5t146.5 48.5z" />
    <glyph glyph-name="two.numerator" 
d="M70 1032l-7 4q0 61 23 109q38 40 98 64t123 24q108 0 169 -56.5t61 -150.5q0 -26 -7 -52t-14.5 -45.5t-26.5 -44t-30 -38t-38.5 -37.5t-37 -32t-41 -32.5t-37.5 -29.5q84 -6 277 2q-10 -42 -29 -79t-41 -50q-58 -17 -180 -17q-223 0 -271 13l-8 12q35 71 43 92
q40 31 63.5 50.5t61 54.5t59 63t38 64t16.5 69q0 47 -28.5 74t-74.5 27q-93 0 -161 -58z" />
    <glyph glyph-name="three.numerator" 
d="M156 829l-6 9q3 6 16 42t20 48q88 13 124 38t36 68q0 33 -26.5 53.5t-65.5 20.5q-33 0 -74 -16.5t-71 -42.5q-25 25 -25 59q0 29 27 51q25 25 81 49.5t123 24.5q98 0 152.5 -49t54.5 -111q0 -57 -28.5 -89t-83.5 -60q157 -30 157 -168q0 -103 -95 -168.5t-228 -65.5
q-88 0 -133 27q-18 15 -29.5 44.5t-11.5 59.5l4 4q54 -20 129 -20q86 0 126 30t40 78q0 43 -31 67t-94 24q-30 0 -88 -7z" />
    <glyph glyph-name="four.numerator" 
d="M535 1268l2 -4q-205 -215 -340 -428q72 -7 139 -7l4 123q16 13 74.5 30t95.5 17h6v-168q23 0 88 7l4 -4q-2 -18 -17.5 -54.5t-27.5 -48.5q-5 -1 -47 -10v-137q-42 -4 -82 -9t-60.5 -7.5t-35.5 -2.5l-6 6q4 82 4 146q-178 0 -264 14q-7 4 -25 34t-18 38q58 98 149.5 221
t149.5 176q19 19 93 42.5t114 25.5z" />
    <glyph glyph-name="five.numerator" 
d="M70 653l6 4q74 -22 143 -22q71 2 112.5 26.5t41.5 73.5q0 64 -78 88q-54 18 -191 35l-16 16q3 42 30.5 173t41.5 159q167 23 372 27q3 -45 -24 -111q-18 -35 -64 -35q-20 -1 -61 -1.5t-73.5 -1.5t-51.5 -3q-6 -19 -18 -98q8 -2 49 -8.5t81 -15.5t68 -21q65 -26 95 -65.5
t30 -108.5q0 -61 -29 -109t-76 -76t-102 -42.5t-112 -14.5q-93 0 -135 29q-17 12 -29 43t-10 59z" />
    <glyph glyph-name="six.numerator" 
d="M578 1190l-3 -6q-156 -25 -241 -94q-107 -82 -107 -261q0 -78 28 -116.5t69 -38.5q37 0 60.5 28.5t23.5 77.5q0 46 -25.5 74.5t-63.5 28.5q-25 0 -59 -15q5 56 19 76q15 19 49.5 33t74.5 14q48 0 84.5 -17.5t56 -46t29 -59.5t9.5 -63q0 -109 -73 -175.5t-200 -66.5
q-117 0 -192.5 70t-75.5 203q0 191 127 305q134 127 334 127q12 0 39 -22t37 -56z" />
    <glyph glyph-name="seven.numerator" 
d="M578 1219l4 -7q-46 -217 -134.5 -394t-136.5 -220q-33 -33 -84 -41q-64 -10 -121 -10l-2 6q87 95 167.5 237t127.5 285q-1 0 -86.5 -1t-169.5 -1q-55 0 -74 13.5t-12 37.5q6 25 27 58t39 49q27 -12 110 -12h345z" />
    <glyph glyph-name="eight.numerator" 
d="M324 1233q94 0 160.5 -44t66.5 -130q0 -44 -27.5 -75.5t-77.5 -59.5q65 -31 98.5 -68.5t33.5 -95.5q0 -91 -78 -144t-191 -53q-118 0 -186 47.5t-68 132.5q0 27 10 49t32 40t39 28.5t48 26.5q-53 30 -78.5 65.5t-25.5 89.5q0 87 70.5 139t173.5 52zM406 1053
q0 37 -24 59.5t-65 22.5q-36 0 -58.5 -19t-22.5 -51q0 -27 23 -49t93 -49q54 34 54 86zM322 662q40 0 65 18.5t25 52.5q0 36 -33 59.5t-98 47.5q-60 -36 -60 -92q0 -31 27.5 -58.5t73.5 -27.5z" />
    <glyph glyph-name="nine.numerator" 
d="M59 612l2 6q53 6 126 30t112 57q59 51 79.5 113.5t20.5 139.5q0 71 -25.5 117.5t-70.5 46.5q-38 0 -62 -29t-24 -75q0 -54 29.5 -82.5t66.5 -28.5q20 0 52 8q-4 -52 -25 -88q-36 -36 -109 -36q-89 0 -139.5 54t-50.5 140q0 100 74.5 174t201.5 74q71 0 125 -23.5
t85.5 -64t47 -91t15.5 -108.5q0 -189 -135 -313q-66 -60 -148 -87.5t-153 -27.5q-34 0 -61.5 28t-33.5 66z" />
    <glyph glyph-name="period.numerator" horiz-adv-x="335" 
d="M176 805q50 0 79.5 -36t29.5 -83q0 -56 -32.5 -89.5t-86.5 -33.5q-45 0 -79 30.5t-34 88.5q0 55 32 89t91 34z" />
    <glyph glyph-name="comma.numerator" horiz-adv-x="335" 
d="M223 854q32 0 49 -32t17 -79q0 -74 -51 -159t-111 -131q-55 -41 -150 -37q113 144 113 313q0 52 -10 82q93 43 143 43z" />
    <glyph glyph-name="dollar.numerator" 
d="M424 1337l-12 -102q28 -2 71 -17t68 -38q-6 -45 -21 -64q-25 -35 -59 -22q-58 28 -123 28q-37 0 -58.5 -14t-21.5 -39t25 -42.5t117 -55.5q81 -33 125.5 -76t44.5 -117q0 -63 -32 -110.5t-75.5 -71t-93.5 -31.5l-8 -86q-3 -14 -37 -20q-90 -8 -103 -8l15 108
q-45 3 -96.5 21.5t-86.5 46.5q-4 26 19 65q15 24 29 31t34 0q92 -43 164 -43q44 0 68 15t24 42t-28.5 45.5t-108.5 51.5q-89 34 -130.5 81.5t-41.5 116.5q0 49 19.5 88.5t49.5 62.5t61.5 35.5t60.5 14.5l6 70q3 21 30 28q36 10 105 6z" />
    <glyph glyph-name="cent.numerator" 
d="M467 1286l-12 -104q79 -10 114 -45q0 -38 -18 -68q-26 -37 -59 -20q-45 18 -84 18q-76 0 -117 -46.5t-41 -109.5q0 -61 26.5 -102t61.5 -55.5t76 -14.5q75 0 153 29q-3 -46 -17.5 -78.5t-31.5 -42.5q-55 -24 -108 -26l-11 -82q-3 -21 -13 -30.5t-34 -10.5l-86 -4l19 135
q-224 48 -224 262q0 58 20 107t49.5 79t68 53t69 33.5t60.5 16.5l8 65q2 19 14 26.5t47 10.5z" />
    <glyph glyph-name="hyphen.numerator" horiz-adv-x="501" 
d="M444 973l2 -6q-5 -47 -31 -96t-57 -58q-46 -17 -144.5 -32t-150.5 -13l-6 6q6 49 27.5 92.5t38.5 48.5q227 34 321 58z" />
    <glyph glyph-name="parenleft.numerator" horiz-adv-x="503" 
d="M68 920q0 189 75.5 343t206.5 246q26 -5 51.5 -31t22.5 -48q-205 -190 -205 -476q0 -137 53 -270.5t152 -214.5q-10 -32 -41 -56.5t-55 -21.5q-95 50 -177.5 199.5t-82.5 329.5z" />
    <glyph glyph-name="parenright.numerator" horiz-adv-x="505" 
d="M436 973q0 -188 -75 -339.5t-207 -244.5q-26 6 -51.5 33t-22.5 49q203 185 203 475q0 135 -52 268.5t-151 215.5q10 31 41 56t55 23q96 -52 178 -203.5t82 -332.5z" />
    <glyph glyph-name="zero.denominator" 
d="M322 662q71 0 123.5 -27t83 -75t45 -108.5t14.5 -132.5q0 -62 -14.5 -117t-45.5 -103.5t-87 -77.5t-132 -29q-68 0 -120 27.5t-82.5 74t-46 102.5t-15.5 119q0 52 8.5 99.5t29 93.5t51.5 79.5t79.5 54t108.5 20.5zM317 541q-34 0 -55.5 -34.5t-29 -79t-7.5 -97.5
q0 -106 27 -161.5t70 -55.5q45 0 67.5 61.5t22.5 159.5q0 92 -25 149.5t-70 57.5z" />
    <glyph glyph-name="one.denominator" 
d="M465 662l8 -5q-2 -36 -3.5 -263.5t-0.5 -356.5q0 -19 -9 -25.5t-40 -9.5l-144 -10q1 10 7 491q-26 -8 -85.5 -17t-86.5 -11l-5 4l37 108q66 13 175 45.5t147 49.5z" />
    <glyph glyph-name="two.denominator" 
d="M70 461l-7 4q0 60 23 108q39 40 99 64.5t122 24.5q108 0 169 -56.5t61 -150.5q0 -26 -7 -52t-14.5 -45.5t-27 -44.5t-29.5 -37.5t-38.5 -38t-37 -32.5t-41.5 -33t-37 -29q84 -6 277 2q-10 -42 -29 -79t-41 -50q-55 -16 -180 -16q-227 0 -271 12l-8 13q35 71 43 92
q40 31 63.5 50.5t61 54.5t59 63t38 64t16.5 69q0 47 -28.5 73.5t-74.5 26.5q-94 0 -161 -57z" />
    <glyph glyph-name="three.denominator" 
d="M156 258l-6 8q3 6 16 42t20 48q88 13 124 38.5t36 68.5q0 33 -26.5 53.5t-65.5 20.5q-32 0 -73 -17t-72 -43q-25 25 -25 60q0 29 27 51q25 25 81 49.5t123 24.5q98 0 152.5 -49t54.5 -111q0 -57 -28.5 -89.5t-83.5 -60.5q157 -30 157 -168q0 -103 -95 -168t-228 -65
q-90 0 -133 26q-17 15 -29 45t-12 60l4 4q54 -20 129 -20q86 0 126 30t40 78q0 90 -125 90q-38 0 -88 -6z" />
    <glyph glyph-name="four.denominator" 
d="M535 696l2 -4q-205 -215 -340 -428q62 -6 139 -6l4 123q16 13 74.5 30t95.5 17h6v-168q32 0 88 6l4 -4q-2 -18 -17.5 -54t-27.5 -48q-5 -2 -47 -10v-138q-41 -4 -81.5 -9t-61 -7t-35.5 -2l-6 6q4 82 4 145q-172 0 -264 15q-7 4 -25 33.5t-18 37.5q58 99 149.5 222
t149.5 176q19 19 93 42t114 25z" />
    <glyph glyph-name="five.denominator" 
d="M70 82l6 4q78 -23 143 -23q71 2 112.5 27t41.5 74q0 64 -78 88q-54 18 -191 35l-16 16q3 42 30.5 173t41.5 159q167 23 372 27q3 -45 -24 -111q-18 -35 -64 -35q-20 -1 -61 -1.5t-73.5 -1.5t-51.5 -3q-6 -19 -18 -98q8 -2 49 -8.5t81 -15.5t68 -21q65 -26 95 -65.5
t30 -108.5q0 -61 -29 -109t-76 -76t-102 -42.5t-112 -14.5q-93 0 -135 29q-17 12 -29 43t-10 59z" />
    <glyph glyph-name="six.denominator" 
d="M578 618l-3 -6q-156 -25 -241 -94q-107 -82 -107 -260q0 -78 28 -117t69 -39q36 0 60 28.5t24 78.5q0 46 -25.5 74t-63.5 28q-27 0 -59 -14q5 56 19 76q15 19 49.5 33t74.5 14q48 0 84.5 -17.5t56 -46.5t29 -60t9.5 -63q0 -109 -73 -175t-200 -66q-117 0 -192.5 69.5
t-75.5 202.5q0 191 127 305q134 127 334 127q12 0 39 -22t37 -56z" />
    <glyph glyph-name="seven.denominator" 
d="M578 647l4 -6q-46 -217 -134.5 -394t-136.5 -220q-33 -33 -84 -41q-70 -11 -121 -11l-2 7q87 95 167.5 237t127.5 285q-1 0 -86.5 -1t-169.5 -1q-55 0 -74 13.5t-12 37.5q6 25 27 57.5t39 48.5q27 -12 110 -12h345z" />
    <glyph glyph-name="eight.denominator" 
d="M324 662q94 0 160.5 -44.5t66.5 -130.5q0 -44 -27.5 -75.5t-77.5 -59.5q65 -31 98.5 -68.5t33.5 -95.5q0 -90 -77.5 -143t-191.5 -53q-118 0 -186 47.5t-68 132.5q0 27 10 48.5t32.5 40t38.5 28t48 26.5q-53 29 -78.5 65.5t-25.5 90.5q0 87 70.5 139t173.5 52zM406 481
q0 37 -24 59.5t-65 22.5q-36 0 -58.5 -18.5t-22.5 -50.5q0 -28 23 -50t93 -49q54 34 54 86zM322 90q40 0 65 19t25 53q0 36 -32.5 59t-98.5 47q-60 -36 -60 -92q0 -31 27.5 -58.5t73.5 -27.5z" />
    <glyph glyph-name="nine.denominator" 
d="M59 41l2 6q53 6 126 29.5t112 56.5q100 86 100 254q0 71 -25.5 117.5t-70.5 46.5q-38 0 -62 -29.5t-24 -75.5q0 -54 29.5 -82t66.5 -28q20 0 52 8q-4 -52 -25 -88q-37 -37 -109 -37q-89 0 -139.5 54.5t-50.5 140.5q0 100 74.5 174t201.5 74q71 0 125 -23.5t85.5 -64
t47 -91t15.5 -108.5q0 -190 -135 -314q-66 -60 -148 -87t-153 -27q-34 0 -61.5 28t-33.5 66z" />
    <glyph glyph-name="period.denominator" horiz-adv-x="335" 
d="M176 233q50 0 79.5 -35.5t29.5 -82.5q0 -56 -32.5 -89.5t-86.5 -33.5q-45 0 -79 30.5t-34 88.5q0 55 32 88.5t91 33.5z" />
    <glyph glyph-name="comma.denominator" horiz-adv-x="335" 
d="M223 283q32 0 49 -32t17 -79q0 -74 -51 -159.5t-111 -131.5q-55 -41 -150 -37q113 144 113 314q0 52 -10 82q93 43 143 43z" />
    <glyph glyph-name="dollar.denominator" 
d="M424 766l-12 -102q28 -2 71 -17t68 -39q-6 -44 -21 -63q-26 -36 -59 -23q-60 29 -123 29q-37 0 -58.5 -14t-21.5 -39t25.5 -43t116.5 -56q81 -33 125.5 -75.5t44.5 -116.5q0 -63 -32 -110.5t-75.5 -71t-93.5 -31.5l-8 -86q-3 -15 -37 -21q-90 -8 -103 -8l15 109
q-45 3 -96.5 21t-86.5 46q-2 9 4 30t15 36q15 24 29 31t34 0q92 -43 164 -43q44 0 68 15t24 42t-28 44.5t-109 51.5q-89 34 -130.5 82t-41.5 117q0 49 19.5 88.5t49.5 62.5t61.5 35.5t60.5 14.5l6 69q3 22 30 29q36 10 105 6z" />
    <glyph glyph-name="cent.denominator" 
d="M467 715l-12 -105q79 -10 114 -45q0 -37 -18 -67q-26 -37 -59 -21q-48 19 -84 19q-76 0 -117 -46.5t-41 -109.5q0 -61 26.5 -102t61.5 -55.5t76 -14.5q75 0 153 29q-3 -46 -17.5 -78.5t-31.5 -42.5q-57 -25 -108 -27l-11 -82q-3 -21 -13 -30.5t-34 -10.5l-86 -4l19 135
q-224 48 -224 262q0 58 20 107t49.5 79t68 53t69 33.5t60.5 16.5l8 66q2 19 14 26.5t47 10.5z" />
    <glyph glyph-name="hyphen.denominator" horiz-adv-x="501" 
d="M444 401l2 -6q-5 -47 -31 -95.5t-57 -57.5q-46 -17 -144.5 -32t-150.5 -13l-6 6q6 49 27.5 92.5t38.5 48.5q236 35 321 57z" />
    <glyph glyph-name="parenleft.denominator" horiz-adv-x="503" 
d="M68 348q0 189 75.5 343.5t206.5 246.5q26 -5 51.5 -31.5t22.5 -48.5q-205 -190 -205 -475q0 -137 53 -270.5t152 -214.5q-10 -32 -41 -56.5t-55 -21.5q-44 23 -88.5 72t-83.5 116.5t-63.5 157.5t-24.5 182z" />
    <glyph glyph-name="parenright.denominator" horiz-adv-x="505" 
d="M436 401q0 -188 -75 -339t-207 -244q-26 6 -51.5 33t-22.5 49q203 185 203 475q0 135 -52 268t-151 215q10 31 41 56.5t55 23.5q95 -52 177.5 -204t82.5 -333z" />
    <glyph glyph-name="at.cap" horiz-adv-x="1574" 
d="M1135 143l6 -2q18 -20 12.5 -67.5t-29.5 -67.5q-133 -121 -403 -121q-184 0 -327 76t-226.5 226.5t-83.5 355.5q0 180 59.5 332.5t165 258t255 165t325.5 59.5q177 0 316 -73t217.5 -206.5t78.5 -304.5q0 -225 -135 -376.5t-324 -151.5q-94 0 -131.5 49.5t-15.5 167.5
q-71 -113 -154.5 -165t-167.5 -52q-72 0 -115.5 64t-43.5 179q0 148 58.5 268.5t173 193.5t265.5 73q53 0 95 -5.5t94.5 -17t70.5 -14.5q-17 -58 -53.5 -237.5t-48.5 -264.5q-8 -57 4.5 -81.5t50.5 -24.5q33 0 70 25t72.5 72t58.5 127t23 177q0 198 -133.5 325.5
t-329.5 127.5q-142 0 -262 -54.5t-199 -146.5t-122.5 -212.5t-43.5 -252.5q0 -247 142 -394.5t376 -147.5q96 0 189.5 31t169.5 87zM674 401q51 0 117 66t108 174q11 27 24 68t20 69t17.5 69t10.5 42q-27 14 -86 14q-86 0 -150 -62t-92.5 -146t-28.5 -171q0 -65 17.5 -94
t42.5 -29z" />
    <glyph glyph-name="emdash.cap" horiz-adv-x="1869" 
d="M160 717h1616l-13 -82q-8 -60 -20.5 -75t-40.5 -15h-1608l10 80q7 56 20 74t36 18z" />
    <glyph glyph-name="endash.cap" horiz-adv-x="1101" 
d="M160 717h848l-11 -74q-10 -98 -49 -98h-854l12 76q9 53 21 74.5t33 21.5z" />
    <glyph glyph-name="exclamdown.cap" horiz-adv-x="442" 
d="M219 963q-58 0 -93.5 42t-35.5 99q0 66 38.5 105.5t102.5 39.5q53 0 93.5 -37t40.5 -104q0 -65 -38.5 -105t-107.5 -40zM133 -16q-25 0 -37 12.5t-12 48.5q0 80 24 345.5t35 346.5q3 17 11 29t14.5 15.5t19.5 9.5q86 22 97 22q12 -108 37 -393t26 -387q-6 -17 -83.5 -33
t-131.5 -16z" />
    <glyph glyph-name="guillemotleft.cap" horiz-adv-x="1212" 
d="M899 270q0 -25 -31.5 -52t-60.5 -36q-119 205 -309 389q-21 24 -21 52q94 72 176.5 169t175.5 232q25 -7 55 -35t31 -57q0 -37 -78 -152.5t-128 -175.5q45 -58 117.5 -178t72.5 -156zM504 918q0 -32 -74.5 -151.5t-112.5 -162.5q29 -41 62 -92.5t69.5 -121.5t36.5 -101
q1 -24 -29.5 -50.5t-56.5 -31.5q-112 204 -295 366q-14 20 -14 50q191 163 332 374q24 -5 53 -30.5t29 -48.5z" />
    <glyph glyph-name="guillemotright.cap" horiz-adv-x="1206" 
d="M313 934q0 26 32 53.5t61 34.5q121 -212 311 -389q18 -27 18 -53q-166 -128 -350 -402q-25 5 -56 33t-34 55q0 39 75 150t134 184q-44 54 -117.5 175t-73.5 159zM696 283q0 32 75 149.5t116 167.5q-47 64 -107.5 168t-60.5 147q-3 25 27.5 52t56.5 30q57 -101 135 -197.5
t162 -168.5q16 -24 16 -51q-189 -158 -336 -379q-23 7 -53.5 34t-30.5 48z" />
    <glyph glyph-name="guilsinglleft.cap" horiz-adv-x="831" 
d="M518 266q0 -26 -31.5 -53.5t-58.5 -34.5q-128 210 -319 391q-19 30 -19 52q95 73 179.5 171.5t179.5 233.5q25 -7 55 -34.5t33 -55.5q0 -38 -79.5 -153.5t-133.5 -180.5q43 -54 118.5 -177t75.5 -159z" />
    <glyph glyph-name="guilsinglright.cap" horiz-adv-x="831" 
d="M315 938q0 24 31.5 51.5t59.5 34.5q127 -210 319 -389q16 -26 16 -53q-93 -73 -178 -171.5t-178 -230.5q-25 5 -56 32.5t-34 55.5q0 39 79 152.5t136 181.5q-43 52 -119 174.5t-76 161.5z" />
    <glyph glyph-name="hyphen.cap" horiz-adv-x="624" 
d="M555 766l2 -6q-8 -69 -36 -125t-68 -64q-67 -27 -195.5 -53t-187.5 -24l-7 6q10 73 33.5 124t42.5 54q276 50 416 88z" />
    <glyph glyph-name="questiondown.cap" horiz-adv-x="729" 
d="M373 965q-57 0 -93 41.5t-36 97.5q0 66 40 105.5t103 39.5q53 0 93 -36t40 -103q0 -66 -39 -105.5t-108 -39.5zM360 -16q-134 0 -210 72t-76 190q0 66 33 128.5t100 137.5q64 72 92.5 122.5t28.5 96.5q0 39 -21 96q6 9 30.5 17t47.5 8q57 0 95 -45.5t38 -126.5
q0 -105 -96 -221q-4 -4 -20 -23.5t-20.5 -25t-17.5 -22.5t-17.5 -24.5t-13 -22t-11.5 -24.5t-6 -23.5t-3 -25.5q0 -45 31 -70.5t76 -25.5q95 0 186 66h10q29 -25 38.5 -69t-7.5 -75q-58 -57 -136 -83.5t-151 -26.5z" />
    <glyph glyph-name="braceleft.cap" horiz-adv-x="679" 
d="M588 -178q0 -70 -25 -111q-344 6 -344 287q0 53 21.5 201t21.5 196q0 87 -32.5 127t-114.5 49q-14 2 -24 37.5t-7 73.5q105 22 141.5 63t36.5 111q0 40 -18.5 156.5t-18.5 179.5q0 167 117 252q82 60 231 63q13 -26 13 -90q0 -19 -7 -28t-24 -15q-76 -27 -109.5 -63.5
t-33.5 -110.5q0 -51 20.5 -159.5t20.5 -159.5q3 -172 -162 -234q51 -19 84.5 -47.5t49.5 -65t22 -70.5t6 -77q0 -71 -21.5 -200.5t-21.5 -178.5q0 -128 149 -158q17 -4 23 -10t6 -18z" />
    <glyph glyph-name="braceright.cap" horiz-adv-x="679" 
d="M94 1401q0 28 7 60.5t16 47.5q344 -6 344 -286q0 -52 -20.5 -193t-20.5 -186q0 -81 32 -120t113 -48q14 -2 24 -37t7 -72q-105 -22 -140.5 -63t-35.5 -111q0 -40 17.5 -168.5t17.5 -193.5q0 -169 -111 -248q-92 -67 -238 -70q-12 24 -12 90q0 20 6.5 28.5t24.5 14.5
q76 27 109.5 63.5t33.5 110.5q0 48 -20.5 164.5t-20.5 180.5q0 175 162 237q-50 19 -83.5 47.5t-50 63t-22.5 66.5t-6 71q0 68 21.5 191t21.5 176q0 123 -149 155q-27 5 -27 29z" />
    <glyph glyph-name="bracketleft.cap" horiz-adv-x="679" 
d="M188 516q0 160 6.5 480.5t12.5 433.5q6 6 148 20t212 14q21 -35 21 -106q0 -12 -7.5 -16t-31.5 -7q-88 -14 -141 -24q-26 -6 -29 -45q-12 -85 -17 -764q-2 -534 7 -596q6 -37 45 -43q99 -15 131 -19q26 -3 24 -32q-3 -66 -20 -97q-80 0 -165.5 7t-137.5 16t-56 14
q-5 53 -5.5 167t1.5 305t2 292z" />
    <glyph glyph-name="bracketright.cap" horiz-adv-x="679" 
d="M494 664q0 -529 -21 -914q-6 -6 -147.5 -20.5t-210.5 -14.5q-21 35 -21 107q0 12 6.5 15.5t32.5 8.5q51 6 139 23q25 6 31 45q9 131 14 764q2 540 -6 596q-6 37 -45 43q-40 6 -129 18q-27 3 -24 33q3 65 20 96q79 0 164.5 -7.5t137.5 -16t57 -13.5q5 -53 5.5 -166.5
t-1.5 -304.5t-2 -292z" />
    <glyph glyph-name="parenleft.cap" horiz-adv-x="684" 
d="M102 578q0 303 110 542t304 389q35 -10 59 -52t15 -75q-146 -148 -224.5 -349.5t-78.5 -430.5q0 -240 80.5 -445t222.5 -333q-6 -54 -38.5 -91t-55.5 -34q-123 70 -215 220.5t-135.5 321t-43.5 337.5z" />
    <glyph glyph-name="parenright.cap" horiz-adv-x="684" 
d="M596 633q0 -290 -105 -533t-305 -401q-33 13 -58 49.5t-19 77.5q146 148 224.5 349t78.5 431q0 240 -80.5 445t-222.5 333q6 54 37.5 91t56.5 34q75 -44 145.5 -128.5t125.5 -197t88.5 -257t33.5 -293.5z" />
    <glyph glyph-name="periodcentered.cap" horiz-adv-x="403" 
d="M211 780q58 0 93.5 -41.5t35.5 -99.5q0 -68 -38.5 -109t-102.5 -41q-52 0 -92.5 37.5t-40.5 104.5q0 66 37.5 107.5t107.5 41.5z" />
    <glyph glyph-name="acute.cap" horiz-adv-x="819" 
d="M616 1649q35 -7 60 -46t35 -79q5 -26 -31 -37q-58 -17 -126.5 -41t-142.5 -51.5t-94 -34.5q-8 9 -34 51q-19 40 12 62q73 59 174.5 117.5t146.5 58.5z" />
    <glyph glyph-name="cedilla.cap" horiz-adv-x="829" 
d="M387 8h133l-78 -108q62 -19 97.5 -62t35.5 -98q0 -87 -83.5 -147t-186.5 -66q-23 5 -40 30.5t-17 43.5q0 19 18 26q135 32 135 92q0 35 -42 55t-103 15v45z" />
    <glyph glyph-name="dieresis.cap" horiz-adv-x="819" 
d="M223 1608q45 0 76 -33t31 -78q0 -58 -32 -90.5t-85 -32.5q-45 0 -78 29t-33 84q0 54 31.5 87.5t89.5 33.5zM612 1608q47 0 77 -32t30 -79q0 -58 -31.5 -90.5t-85.5 -32.5q-43 0 -75.5 29.5t-32.5 83.5t30.5 87.5t87.5 33.5z" />
    <glyph glyph-name="grave.cap" horiz-adv-x="819" 
d="M233 1671q28 0 127.5 -68.5t161.5 -125.5q33 -27 8 -68q-12 -22 -34 -49q-244 119 -355 158q-22 8 -12 38q15 43 44.5 79t59.5 36z" />
    <glyph glyph-name="macron.cap" horiz-adv-x="819" 
d="M623 1360h-422q-27 0 -27 33q0 31 13 76t22 53h428q27 0 27 -27q0 -30 -13.5 -72t-27.5 -63z" />
    <glyph glyph-name="tilde.cap" horiz-adv-x="819" 
d="M328 1647q62 0 121 -72q13 -17 19.5 -25t15 -15t16.5 -7q33 0 49 96q6 23 20 23q13 0 45.5 -10t49.5 -21q-23 -246 -160 -246q-25 0 -49 13t-36.5 24.5t-39.5 40.5q-22 27 -34 37t-26 10q-30 -3 -51 -96q-4 -21 -16 -21q-18 0 -53.5 6t-46.5 11q19 252 176 252z" />
    <glyph glyph-name="c_t" horiz-adv-x="1605" 
d="M819 193l6 -7q-10 -107 -75 -161q-79 -50 -222 -50q-205 0 -338 118t-133 337q0 221 144.5 358.5t361.5 137.5q47 0 84 -6q13 136 114 222.5t281 86.5q119 0 279 -19q-11 -49 -23 -153.5t-12 -155.5h301q-6 -48 -17.5 -78.5t-28.5 -43.5t-29 -17t-33 -6q-94 -8 -199 -8
q-12 -321 2 -467q14 -140 135 -140q71 0 146 39q10 -25 10 -49q0 -54 -41 -92q-36 -30 -96 -47t-127 -17q-75 0 -129.5 22.5t-85 62t-44.5 86t-14 100.5v499q-44 0 -88.5 9.5t-48.5 19.5q2 17 23 59t39 56q7 3 42 7t41 5q5 20 20 85t23 93q-23 2 -71 2q-112 0 -165 -51
t-69 -149q28 -14 39 -25q2 -38 -20.5 -80t-61.5 -47q-73 33 -159 33q-122 0 -198.5 -77t-76.5 -220q0 -82 26 -144t69.5 -97t95 -52.5t108.5 -17.5q115 0 215 39z" />
    <glyph glyph-name="s_p" horiz-adv-x="1781" 
d="M858 1098h-22q-113 0 -163.5 -60t-64.5 -166q3 -3 11.5 -8.5t11.5 -7.5q5 -41 -16.5 -81t-65.5 -44q-72 35 -143 35q-51 0 -82 -22t-31 -64q0 -30 19.5 -51.5t58.5 -44.5q22 -14 82.5 -42.5t83.5 -41.5q141 -78 141 -224q0 -74 -30 -132.5t-81 -94.5t-115.5 -55
t-136.5 -19q-138 0 -225 62q-38 30 -35 63q2 30 18 62t40 45q104 -70 221 -70q56 0 87.5 25t31.5 63q0 31 -19.5 54.5t-64.5 46.5q-130 69 -152 82q-64 35 -102.5 94.5t-38.5 134.5q0 132 98 210.5t234 78.5q25 0 65 -4q8 150 108.5 236.5t282.5 86.5q99 0 250 -18
q-29 -131 -29 -412q144 111 275 111q162 0 264 -118t102 -312q0 -141 -59.5 -259t-171.5 -190t-254 -72q-80 0 -156 43v-385q0 -29 -8 -40t-39 -17q-88 -10 -202 -10q6 117 6 332v819q0 227 16 381zM1085 680v-526q56 -27 117 -27q52 0 99.5 20t86.5 59t62 105.5t23 151.5
q0 124 -58 203t-160 79q-93 0 -170 -65z" />
    <glyph glyph-name="aacute.end" horiz-adv-x="1236" 
d="M545 543v43q0 71 -45 116.5t-121 45.5q-89 0 -199 -68q-51 -11 -75.5 26t-24.5 85q78 56 177.5 95.5t191.5 39.5q141 0 235 -90.5t94 -251.5q0 -37 -2 -167t-2 -202q0 -30 8.5 -45t28.5 -23q41 -14 80 -14q110 0 153 42.5t52 162.5q40 7 87 -6.5t48 -44.5q0 -54 -7.5 -95
t-33.5 -84.5t-70 -72t-122 -46.5t-185 -18q-167 0 -225 43q-33 25 -39 82q-44 -48 -111.5 -84.5t-134.5 -36.5q-104 0 -178 71t-74 181q0 44 16 81.5t38.5 64.5t61.5 51t69.5 38t78.5 28.5t73.5 20.5t68.5 15q22 5 53.5 10.5t34.5 6.5zM541 262v162q-127 -17 -192.5 -59.5
t-65.5 -98.5q0 -57 36 -91t91 -34q56 0 114 54q17 20 17 67zM530 1391q38 0 76.5 -17.5t63.5 -40.5q11 -8 10.5 -16t-14.5 -25q-85 -95 -226 -276q-37 7 -69 31q-21 17 -4 57q21 56 45 110.5t60 115t58 61.5z" />
    <glyph glyph-name="acircumflex.end" horiz-adv-x="1236" 
d="M545 543v43q0 71 -45 116.5t-121 45.5q-89 0 -199 -68q-51 -11 -75.5 26t-24.5 85q78 56 177.5 95.5t191.5 39.5q141 0 235 -90.5t94 -251.5q0 -37 -2 -167t-2 -202q0 -30 8.5 -45t28.5 -23q41 -14 80 -14q110 0 153 42.5t52 162.5q40 7 87 -6.5t48 -44.5q0 -54 -7.5 -95
t-33.5 -84.5t-70 -72t-122 -46.5t-185 -18q-167 0 -225 43q-33 25 -39 82q-44 -48 -111.5 -84.5t-134.5 -36.5q-104 0 -178 71t-74 181q0 44 16 81.5t38.5 64.5t61.5 51t69.5 38t78.5 28.5t73.5 20.5t68.5 15q22 5 53.5 10.5t34.5 6.5zM541 262v162q-127 -17 -192.5 -59.5
t-65.5 -98.5q0 -57 36 -91t91 -34q56 0 114 54q17 20 17 67zM305 1040q-37 0 -112 27q12 18 38.5 57.5t40 59.5t33.5 52t36.5 59.5t31.5 56.5q16 25 41 30q46 9 84 9q87 -151 198 -314q-77 -37 -112 -37q-28 0 -39 19q-86 128 -105 158q-52 -90 -98 -150q-24 -27 -37 -27z
" />
    <glyph glyph-name="adieresis.end" horiz-adv-x="1236" 
d="M545 543v43q0 71 -45 116.5t-121 45.5q-89 0 -199 -68q-51 -11 -75.5 26t-24.5 85q78 56 177.5 95.5t191.5 39.5q141 0 235 -90.5t94 -251.5q0 -37 -2 -167t-2 -202q0 -30 8.5 -45t28.5 -23q41 -14 80 -14q110 0 153 42.5t52 162.5q40 7 87 -6.5t48 -44.5q0 -54 -7.5 -95
t-33.5 -84.5t-70 -72t-122 -46.5t-185 -18q-167 0 -225 43q-33 25 -39 82q-44 -48 -111.5 -84.5t-134.5 -36.5q-104 0 -178 71t-74 181q0 44 16 81.5t38.5 64.5t61.5 51t69.5 38t78.5 28.5t73.5 20.5t68.5 15q22 5 53.5 10.5t34.5 6.5zM541 262v162q-127 -17 -192.5 -59.5
t-65.5 -98.5q0 -57 36 -91t91 -34q56 0 114 54q17 20 17 67zM262 1323q46 0 78.5 -35t32.5 -82q0 -58 -32.5 -91.5t-88.5 -33.5q-45 0 -79 31.5t-34 87.5q0 54 32.5 88.5t90.5 34.5zM639 1323q48 0 79.5 -34.5t31.5 -82.5q0 -58 -33 -91.5t-88 -33.5q-44 0 -78.5 31.5
t-34.5 87.5q0 54 32.5 88.5t90.5 34.5z" />
    <glyph glyph-name="agrave.end" horiz-adv-x="1236" 
d="M545 543v43q0 71 -45 116.5t-121 45.5q-89 0 -199 -68q-51 -11 -75.5 26t-24.5 85q78 56 177.5 95.5t191.5 39.5q141 0 235 -90.5t94 -251.5q0 -37 -2 -167t-2 -202q0 -30 8.5 -45t28.5 -23q41 -14 80 -14q110 0 153 42.5t52 162.5q40 7 87 -6.5t48 -44.5q0 -54 -7.5 -95
t-33.5 -84.5t-70 -72t-122 -46.5t-185 -18q-167 0 -225 43q-33 25 -39 82q-44 -48 -111.5 -84.5t-134.5 -36.5q-104 0 -178 71t-74 181q0 44 16 81.5t38.5 64.5t61.5 51t69.5 38t78.5 28.5t73.5 20.5t68.5 15q22 5 53.5 10.5t34.5 6.5zM541 262v162q-127 -17 -192.5 -59.5
t-65.5 -98.5q0 -57 36 -91t91 -34q56 0 114 54q17 20 17 67zM367 1393q28 -1 79 -105.5t74 -189.5q13 -32 -12 -51q-34 -24 -70 -27q-100 151 -223 274q-8 5 -6.5 17.5t14.5 23.5q26 24 66.5 41.5t77.5 16.5z" />
    <glyph glyph-name="aring.end" horiz-adv-x="1236" 
d="M545 543v43q0 71 -45 116.5t-121 45.5q-89 0 -199 -68q-51 -11 -75.5 26t-24.5 85q78 56 177.5 95.5t191.5 39.5q141 0 235 -90.5t94 -251.5q0 -37 -2 -167t-2 -202q0 -30 8.5 -45t28.5 -23q41 -14 80 -14q110 0 153 42.5t52 162.5q40 7 87 -6.5t48 -44.5q0 -54 -7.5 -95
t-33.5 -84.5t-70 -72t-122 -46.5t-185 -18q-167 0 -225 43q-33 25 -39 82q-44 -48 -111.5 -84.5t-134.5 -36.5q-104 0 -178 71t-74 181q0 44 16 81.5t38.5 64.5t61.5 51t69.5 38t78.5 28.5t73.5 20.5t68.5 15q22 5 53.5 10.5t34.5 6.5zM541 262v162q-127 -17 -192.5 -59.5
t-65.5 -98.5q0 -57 36 -91t91 -34q56 0 114 54q17 20 17 67zM446 1405q86 0 142.5 -55.5t56.5 -141.5q0 -82 -57.5 -138t-143.5 -56q-83 0 -141.5 51t-58.5 143q0 81 55.5 139t146.5 58zM442 1303q-34 0 -55.5 -28t-21.5 -63q0 -45 24.5 -71.5t59.5 -26.5q35 1 54 27.5
t19 64.5q0 41 -20 69t-60 28z" />
    <glyph glyph-name="atilde.end" horiz-adv-x="1236" 
d="M545 543v43q0 71 -45 116.5t-121 45.5q-89 0 -199 -68q-51 -11 -75.5 26t-24.5 85q78 56 177.5 95.5t191.5 39.5q141 0 235 -90.5t94 -251.5q0 -37 -2 -167t-2 -202q0 -30 8.5 -45t28.5 -23q41 -14 80 -14q110 0 153 42.5t52 162.5q40 7 87 -6.5t48 -44.5q0 -54 -7.5 -95
t-33.5 -84.5t-70 -72t-122 -46.5t-185 -18q-167 0 -225 43q-33 25 -39 82q-44 -48 -111.5 -84.5t-134.5 -36.5q-104 0 -178 71t-74 181q0 44 16 81.5t38.5 64.5t61.5 51t69.5 38t78.5 28.5t73.5 20.5t68.5 15q22 5 53.5 10.5t34.5 6.5zM541 262v162q-127 -17 -192.5 -59.5
t-65.5 -98.5q0 -57 36 -91t91 -34q56 0 114 54q17 20 17 67zM365 1350q62 0 118 -70q35 -47 54 -47q33 0 49 96q6 21 20 21t46 -9t48 -20q-12 -129 -51 -188.5t-108 -59.5q-36 0 -64 19.5t-61 58.5q-18 19 -25.5 26.5t-16.5 13t-18 5.5q-32 -3 -53 -94q-3 -21 -16 -21
q-18 0 -54 6t-47 11q18 252 179 252z" />
    <glyph glyph-name="eacute.end" horiz-adv-x="1331" 
d="M803 199l2 -4q0 -61 -36 -116t-69 -69q-21 -11 -78 -23t-106 -12q-221 0 -341 118.5t-120 344.5q0 128 50 238t150 180t230 70q93 0 162 -29.5t108 -81t57 -113t17 -133.5q106 -4 162 -4q110 0 149.5 53.5t45.5 188.5q46 5 90 -10t45 -49q1 -67 -16 -124t-56 -107.5
t-112 -79.5t-174 -29q-20 0 -176.5 3t-208.5 3q-228 4 -279 -8q4 -123 86 -188.5t203 -65.5q57 0 117.5 15t97.5 32zM469 793q-71 0 -117 -69.5t-51 -168.5q43 14 287 14q13 0 23 9.5t10 25.5q0 82 -38.5 135.5t-113.5 53.5zM563 1391q38 0 76 -17.5t63 -40.5
q11 -8 10.5 -16t-14.5 -25q-77 -87 -225 -276q-38 7 -70 31q-21 17 -4 57q21 55 45 110.5t60.5 115.5t58.5 61z" />
    <glyph glyph-name="ecircumflex.end" horiz-adv-x="1331" 
d="M803 199l2 -4q0 -61 -36 -116t-69 -69q-21 -11 -78 -23t-106 -12q-221 0 -341 118.5t-120 344.5q0 128 50 238t150 180t230 70q93 0 162 -29.5t108 -81t57 -113t17 -133.5q106 -4 162 -4q110 0 149.5 53.5t45.5 188.5q46 5 90 -10t45 -49q1 -67 -16 -124t-56 -107.5
t-112 -79.5t-174 -29q-20 0 -176.5 3t-208.5 3q-228 4 -279 -8q4 -123 86 -188.5t203 -65.5q57 0 117.5 15t97.5 32zM469 793q-71 0 -117 -69.5t-51 -168.5q43 14 287 14q13 0 23 9.5t10 25.5q0 82 -38.5 135.5t-113.5 53.5zM348 1040q-37 0 -112 27q12 18 38.5 57.5
t40 59.5t33.5 52t36.5 59.5t31.5 56.5q16 25 41 30q47 9 84 9q87 -151 198 -314q-77 -37 -112 -37q-28 0 -39 19q-86 128 -105 158q-52 -90 -98 -150q-24 -27 -37 -27z" />
    <glyph glyph-name="edieresis.end" horiz-adv-x="1331" 
d="M803 199l2 -4q0 -61 -36 -116t-69 -69q-21 -11 -78 -23t-106 -12q-221 0 -341 118.5t-120 344.5q0 128 50 238t150 180t230 70q93 0 162 -29.5t108 -81t57 -113t17 -133.5q106 -4 162 -4q110 0 149.5 53.5t45.5 188.5q46 5 90 -10t45 -49q1 -67 -16 -124t-56 -107.5
t-112 -79.5t-174 -29q-20 0 -176.5 3t-208.5 3q-228 4 -279 -8q4 -123 86 -188.5t203 -65.5q57 0 117.5 15t97.5 32zM469 793q-71 0 -117 -69.5t-51 -168.5q43 14 287 14q13 0 23 9.5t10 25.5q0 82 -38.5 135.5t-113.5 53.5zM305 1323q46 0 78.5 -35t32.5 -82
q0 -58 -32.5 -91.5t-88.5 -33.5q-45 0 -79 31.5t-34 87.5q0 54 32.5 88.5t90.5 34.5zM682 1323q48 0 79.5 -34.5t31.5 -82.5q0 -58 -33 -91.5t-88 -33.5q-44 0 -78.5 31.5t-34.5 87.5q0 54 32.5 88.5t90.5 34.5z" />
    <glyph glyph-name="egrave.end" horiz-adv-x="1331" 
d="M803 199l2 -4q0 -61 -36 -116t-69 -69q-21 -11 -78 -23t-106 -12q-221 0 -341 118.5t-120 344.5q0 128 50 238t150 180t230 70q93 0 162 -29.5t108 -81t57 -113t17 -133.5q106 -4 162 -4q110 0 149.5 53.5t45.5 188.5q46 5 90 -10t45 -49q1 -67 -16 -124t-56 -107.5
t-112 -79.5t-174 -29q-20 0 -176.5 3t-208.5 3q-228 4 -279 -8q4 -123 86 -188.5t203 -65.5q57 0 117.5 15t97.5 32zM469 793q-71 0 -117 -69.5t-51 -168.5q43 14 287 14q13 0 23 9.5t10 25.5q0 82 -38.5 135.5t-113.5 53.5zM414 1393q28 -1 80 -106t75 -189q10 -32 -12 -51
q-40 -24 -72 -27q-100 151 -223 274q-8 5 -6.5 17.5t14.5 23.5q27 24 67.5 41.5t76.5 16.5z" />
    <glyph glyph-name="ntilde.end" horiz-adv-x="1415" 
d="M950 571l-2 -366q0 -44 35 -58q25 -10 80 -10q108 0 153 43t54 162q39 7 87 -7t48 -44q1 -53 -7 -94.5t-33.5 -84.5t-69 -71.5t-118.5 -47t-178 -18.5q-153 0 -235 27q-57 20 -57 76l2 485q0 89 -44 137t-110 48q-98 0 -178 -80v-617q0 -30 -8 -39.5t-39 -13.5
q-85 -10 -201 -10q6 159 6 372v338q0 90 -39 109v12q10 44 53 75.5t84 31.5q107 0 132 -138q158 138 282 138q72 0 128 -23.5t88 -59.5t52.5 -85t27.5 -94t7 -93zM455 1350q64 0 120 -70q35 -47 54 -47q33 0 49 96q6 21 20 21t46.5 -9t48.5 -20q-23 -248 -160 -248
q-36 0 -63.5 19.5t-63.5 58.5q-23 27 -34 36t-23 9q-33 -3 -54 -94q-3 -21 -16 -21q-19 0 -54 6t-46 11q18 252 176 252z" />
    <glyph glyph-name="oacute.end" horiz-adv-x="1304" 
d="M506 -25q-202 0 -326.5 125.5t-124.5 343.5q0 208 136.5 345t345.5 137q94 0 217 -29q82 -20 168 -20q76 0 124 15t72.5 48t33 70.5t11.5 97.5q43 6 92.5 -18.5t49.5 -57.5q0 -71 -19 -126.5t-51 -91.5t-78 -59.5t-97 -33.5t-110 -10q-35 0 -55 4q33 -45 53.5 -113.5
t20.5 -140.5q0 -219 -127 -352.5t-336 -133.5zM512 784q-95 0 -149 -88t-54 -231q0 -173 63 -260.5t158 -87.5q93 0 140 88t47 241t-51.5 245.5t-153.5 92.5zM610 1391q38 0 76.5 -17.5t63.5 -40.5q10 -9 9.5 -16.5t-14.5 -24.5q-67 -73 -225 -276q-33 6 -71 31
q-19 19 -3 57q32 90 81.5 188t82.5 99z" />
    <glyph glyph-name="ocircumflex.end" horiz-adv-x="1304" 
d="M506 -25q-202 0 -326.5 125.5t-124.5 343.5q0 208 136.5 345t345.5 137q94 0 217 -29q82 -20 168 -20q76 0 124 15t72.5 48t33 70.5t11.5 97.5q43 6 92.5 -18.5t49.5 -57.5q0 -71 -19 -126.5t-51 -91.5t-78 -59.5t-97 -33.5t-110 -10q-35 0 -55 4q33 -45 53.5 -113.5
t20.5 -140.5q0 -219 -127 -352.5t-336 -133.5zM512 784q-95 0 -149 -88t-54 -231q0 -173 63 -260.5t158 -87.5q93 0 140 88t47 241t-51.5 245.5t-153.5 92.5zM393 1040q-37 0 -112 27q127 185 180 285q16 25 41 30q46 9 84 9q103 -171 198 -314q-77 -37 -112 -37
q-28 0 -39 19q-86 128 -105 158q-52 -90 -98 -150q-20 -27 -37 -27z" />
    <glyph glyph-name="odieresis.end" horiz-adv-x="1304" 
d="M506 -25q-202 0 -326.5 125.5t-124.5 343.5q0 208 136.5 345t345.5 137q94 0 217 -29q82 -20 168 -20q76 0 124 15t72.5 48t33 70.5t11.5 97.5q43 6 92.5 -18.5t49.5 -57.5q0 -71 -19 -126.5t-51 -91.5t-78 -59.5t-97 -33.5t-110 -10q-35 0 -55 4q33 -45 53.5 -113.5
t20.5 -140.5q0 -219 -127 -352.5t-336 -133.5zM512 784q-95 0 -149 -88t-54 -231q0 -173 63 -260.5t158 -87.5q93 0 140 88t47 241t-51.5 245.5t-153.5 92.5zM350 1323q46 0 78.5 -35t32.5 -82q0 -58 -32.5 -91.5t-88.5 -33.5q-45 0 -79 31.5t-34 87.5q0 54 32.5 88.5
t90.5 34.5zM727 1323q48 0 79.5 -34.5t31.5 -82.5q0 -58 -32.5 -91.5t-88.5 -33.5q-43 0 -78 31.5t-35 87.5q0 54 32.5 88.5t90.5 34.5z" />
    <glyph glyph-name="ograve.end" horiz-adv-x="1304" 
d="M506 -25q-202 0 -326.5 125.5t-124.5 343.5q0 208 136.5 345t345.5 137q94 0 217 -29q82 -20 168 -20q76 0 124 15t72.5 48t33 70.5t11.5 97.5q43 6 92.5 -18.5t49.5 -57.5q0 -71 -19 -126.5t-51 -91.5t-78 -59.5t-97 -33.5t-110 -10q-35 0 -55 4q33 -45 53.5 -113.5
t20.5 -140.5q0 -219 -127 -352.5t-336 -133.5zM512 784q-95 0 -149 -88t-54 -231q0 -173 63 -260.5t158 -87.5q93 0 140 88t47 241t-51.5 245.5t-153.5 92.5zM451 1393q28 -1 80 -106t75 -189q12 -30 -12 -51q-34 -24 -72 -27q-100 151 -223 274q-8 5 -6.5 17.5t14.5 23.5
q27 24 67.5 41.5t76.5 16.5z" />
    <glyph glyph-name="oslash.end" horiz-adv-x="1316" 
d="M172 8l41 64q-158 132 -158 372q0 208 138.5 345t345.5 137q97 0 202 -23l43 68q20 30 33 31.5t27 -17.5q34 -34 41 -63l-25 -39q38 -6 80 -6q76 0 124 15t72 48t33.5 70t12.5 98q43 6 90 -18t47 -58q0 -88 -28.5 -152t-79 -100t-111.5 -52.5t-135 -16.5q-38 0 -58 4
q31 -44 52.5 -113.5t21.5 -140.5q0 -215 -129.5 -350.5t-341.5 -135.5q-109 0 -201 39l-45 -73q-25 -41 -49 -7q-38 51 -43 74zM340 272l301 476q-45 36 -115 36q-97 0 -161 -89.5t-64 -229.5q0 -117 39 -193zM711 649l-303 -481q57 -51 131 -51q94 0 152.5 91t58.5 238
q0 124 -39 203z" />
    <glyph glyph-name="otilde.end" horiz-adv-x="1304" 
d="M506 -25q-202 0 -326.5 125.5t-124.5 343.5q0 208 136.5 345t345.5 137q94 0 217 -29q82 -20 168 -20q76 0 124 15t72.5 48t33 70.5t11.5 97.5q43 6 92.5 -18.5t49.5 -57.5q0 -71 -19 -126.5t-51 -91.5t-78 -59.5t-97 -33.5t-110 -10q-35 0 -55 4q33 -45 53.5 -113.5
t20.5 -140.5q0 -219 -127 -352.5t-336 -133.5zM512 784q-95 0 -149 -88t-54 -231q0 -173 63 -260.5t158 -87.5q93 0 140 88t47 241t-51.5 245.5t-153.5 92.5zM453 1350q60 0 120 -70q31 -47 52 -47q33 0 49 96q6 21 20 21q15 0 46.5 -9t47.5 -20q-12 -129 -51 -188.5
t-108 -59.5q-36 0 -64 19.5t-61 58.5q-39 45 -60 45q-32 -3 -53 -94q-3 -21 -16 -21q-18 0 -53 6t-48 11q18 252 179 252z" />
    <glyph glyph-name="uacute.end" horiz-adv-x="1392" 
d="M688 221v600q0 43 7.5 58.5t33.5 21.5q132 12 207 12q0 -4 -3 -132.5t-3 -235.5v-336q0 -39 35 -59q33 -17 86 -17q110 0 152.5 42.5t45.5 164.5q42 7 87 -8t48 -47q3 -46 -2 -84.5t-29 -83t-66 -75t-121 -51t-187 -20.5q-97 0 -149 10.5t-82 34.5q-14 9 -27 33t-14 55
q-54 -56 -129 -92.5t-148 -36.5q-154 0 -229.5 92t-75.5 250v345q0 149 -8 227q31 10 100.5 17t112.5 7q23 0 30 -21.5t7 -107.5q2 -133 2 -432q0 -194 159 -194q100 0 160 63zM612 1391q38 0 76.5 -17.5t63.5 -40.5q11 -9 10 -16.5t-14 -24.5q-85 -95 -226 -276
q-34 6 -71 31q-18 18 -2 57q17 49 43 109t62 118.5t58 59.5z" />
    <glyph glyph-name="ucircumflex.end" horiz-adv-x="1392" 
d="M688 221v600q0 43 7.5 58.5t33.5 21.5q132 12 207 12q0 -4 -3 -132.5t-3 -235.5v-336q0 -39 35 -59q33 -17 86 -17q110 0 152.5 42.5t45.5 164.5q42 7 87 -8t48 -47q3 -46 -2 -84.5t-29 -83t-66 -75t-121 -51t-187 -20.5q-97 0 -149 10.5t-82 34.5q-14 9 -27 33t-14 55
q-54 -56 -129 -92.5t-148 -36.5q-154 0 -229.5 92t-75.5 250v345q0 149 -8 227q31 10 100.5 17t112.5 7q23 0 30 -21.5t7 -107.5q2 -133 2 -432q0 -194 159 -194q100 0 160 63zM385 1040q-38 0 -113 27q9 14 33 48.5t34.5 49.5t30 44t31 48t26.5 45t28 50q12 24 41 30
q43 9 82 9q103 -171 198 -314q-71 -37 -112 -37q-28 0 -39 19q-10 16 -46.5 70t-56.5 88q-54 -92 -100 -150q-20 -27 -37 -27z" />
    <glyph glyph-name="udieresis.end" horiz-adv-x="1392" 
d="M688 221v600q0 43 7.5 58.5t33.5 21.5q132 12 207 12q0 -4 -3 -132.5t-3 -235.5v-336q0 -39 35 -59q33 -17 86 -17q110 0 152.5 42.5t45.5 164.5q42 7 87 -8t48 -47q3 -46 -2 -84.5t-29 -83t-66 -75t-121 -51t-187 -20.5q-97 0 -149 10.5t-82 34.5q-14 9 -27 33t-14 55
q-54 -56 -129 -92.5t-148 -36.5q-154 0 -229.5 92t-75.5 250v345q0 149 -8 227q31 10 100.5 17t112.5 7q23 0 30 -21.5t7 -107.5q2 -133 2 -432q0 -194 159 -194q100 0 160 63zM342 1323q48 0 79.5 -35t31.5 -82q0 -58 -32.5 -91.5t-86.5 -33.5q-45 0 -80 31.5t-35 87.5
q0 54 32.5 88.5t90.5 34.5zM719 1323q50 0 81 -34t31 -83q0 -58 -32.5 -91.5t-87.5 -33.5q-44 0 -78.5 31.5t-34.5 87.5q0 55 31.5 89t89.5 34z" />
    <glyph glyph-name="ugrave.end" horiz-adv-x="1392" 
d="M688 221v600q0 43 7.5 58.5t33.5 21.5q132 12 207 12q0 -4 -3 -132.5t-3 -235.5v-336q0 -39 35 -59q33 -17 86 -17q110 0 152.5 42.5t45.5 164.5q42 7 87 -8t48 -47q3 -46 -2 -84.5t-29 -83t-66 -75t-121 -51t-187 -20.5q-97 0 -149 10.5t-82 34.5q-14 9 -27 33t-14 55
q-54 -56 -129 -92.5t-148 -36.5q-154 0 -229.5 92t-75.5 250v345q0 149 -8 227q31 10 100.5 17t112.5 7q23 0 30 -21.5t7 -107.5q2 -133 2 -432q0 -194 159 -194q100 0 160 63zM444 1393q28 -1 79.5 -105.5t74.5 -189.5q12 -30 -12 -51q-34 -24 -70 -27q-107 155 -223 274
q-19 16 6 41q28 24 68 41.5t77 16.5z" />
    </font>
</defs>
</svg>
