<?xml version="1.0" standalone="no"?>
<!DOCTYPE svg PUBLIC "-//W3C//DTD SVG 1.1//EN" "http://www.w3.org/Graphics/SVG/1.1/DTD/svg11.dtd" >
<svg>
<metadata>
Created by FontForge 20090622 at Tue Apr  7 09:44:15 2015
 By deploy user
Samsung Sharp Sans is a customized version of Sharp Sans, which is copyright (c) 2015 by Lucas Sharp. All rights reserved.
</metadata>
<defs>
<font id="SamsungSharpSans-Medium" horiz-adv-x="461" >
  <font-face 
    font-family="Samsung Sharp Sans Medium"
    font-weight="700"
    font-stretch="normal"
    units-per-em="1000"
    panose-1="0 0 0 0 0 0 0 0 0 0"
    ascent="800"
    descent="-200"
    x-height="585"
    cap-height="730"
    bbox="-75 -285 1370 1085"
    underline-thickness="50"
    underline-position="-50"
    unicode-range="U+000D-U+FB79"
  />
<missing-glyph horiz-adv-x="926" 
d="M100 730h726v-730h-726v730zM236 130h454v470h-454v-470zM260 240l123 127l-124 129l80 78l122 -126l124 127l80 -78l-126 -130l125 -128l-80 -78l-123 126l-121 -125z" />
    <glyph glyph-name="interrobang" unicode="&#x21;&#x3f;" horiz-adv-x="533" 
d="M223 189q-1 40 -2.5 92.5t-2.5 109.5t-1.5 114.5t-0.5 107.5v39q-36 -9 -58.5 -32t-36.5 -55l-88 34q23 61 81 101t145 40q50 0 91.5 -14t71.5 -39t47 -60.5t17 -79.5q0 -47 -14 -76.5t-35.5 -50.5t-46.5 -38.5t-46.5 -40t-35.5 -56t-14 -86.5v-10h-71zM179 63
q0 32 20 52t52 20q35 0 54.5 -20t19.5 -52t-19.5 -52t-54.5 -20q-34 0 -53 20t-19 52zM389 548q0 38 -23 65t-63 38v-38q0 -51 -2 -106.5t-5 -110.5q16 19 32.5 34t30 31t22 36.5t8.5 50.5z" />
    <glyph glyph-name="interrobangdown" unicode="&#xa1;&#xbf;" horiz-adv-x="533" 
d="M275 -240q-49 0 -91 14t-72 39t-47 60.5t-17 79.5q0 47 14 76.5t35.5 50.5t46.5 38.5t46.5 40.5t35.5 56t14 86v10h72q1 -40 2 -92l2 -109t1.5 -115t0.5 -108v-39q35 9 58.5 32t37.5 55l88 -34q-23 -61 -81.5 -101t-145.5 -40zM206 431q0 32 20 52t52 20q35 0 54.5 -20
t19.5 -52t-19.5 -52t-54.5 -20q-34 0 -53 20t-19 52zM146 -48q0 -38 22.5 -65t62.5 -38v38q0 50 2 105.5t5 110.5q-16 -19 -32 -34t-29.5 -31t-22 -36t-8.5 -50z" />
    <glyph glyph-name="r.smcp.alt" unicode="&#x683;" horiz-adv-x="512" arabic-form="isolated" 
d="M57 596h205q48 0 87.5 -15.5t67 -42t42.5 -62t15 -76.5q0 -57 -29 -103.5t-83 -71.5l123 -225h-108l-104 199h-120v-199h-96v596zM153 508v-220h100q30 0 53 9t38.5 24.5t23.5 35.5t8 42q0 49 -30 79t-90 30h-103z" />
    <glyph glyph-name="racute.smcp.alt" unicode="&#x683;" horiz-adv-x="512" arabic-form="final" 
d="M57 596h205q48 0 87.5 -15.5t67 -42t42.5 -62t15 -76.5q0 -57 -29 -103.5t-83 -71.5l123 -225h-108l-104 199h-120v-199h-96v596zM153 508v-220h100q30 0 53 9t38.5 24.5t23.5 35.5t8 42q0 49 -30 79t-90 30h-103zM309 816h105l-146 -163h-75z" />
    <glyph glyph-name="rcaron.smcp.alt" unicode="&#x683;" horiz-adv-x="512" arabic-form="initial" 
d="M57 596h205q48 0 87.5 -15.5t67 -42t42.5 -62t15 -76.5q0 -57 -29 -103.5t-83 -71.5l123 -225h-108l-104 199h-120v-199h-96v596zM153 508v-220h100q30 0 53 9t38.5 24.5t23.5 35.5t8 42q0 49 -30 79t-90 30h-103zM100 816h85l68 -98l70 98h84l-119 -163h-69z" />
    <glyph glyph-name="rcommaaccent.smcp.alt" unicode="&#x683;" horiz-adv-x="512" arabic-form="medial" 
d="M57 596h205q48 0 87.5 -15.5t67 -42t42.5 -62t15 -76.5q0 -57 -29 -103.5t-83 -71.5l123 -225h-108l-104 199h-120v-199h-96v596zM153 508v-220h100q30 0 53 9t38.5 24.5t23.5 35.5t8 42q0 49 -30 79t-90 30h-103zM174 -255l40 204h86l-63 -204h-63z" />
    <glyph glyph-name=".notdef" horiz-adv-x="926" 
d="M100 730h726v-730h-726v730zM236 130h454v470h-454v-470zM260 240l123 127l-124 129l80 78l122 -126l124 127l80 -78l-126 -130l125 -128l-80 -78l-123 126l-121 -125z" />
    <glyph glyph-name=".null" horiz-adv-x="0" 
 />
    <glyph glyph-name=".null" horiz-adv-x="0" 
 />
    <glyph glyph-name="nonmarkingreturn" unicode="&#xd;" horiz-adv-x="250" 
 />
    <glyph glyph-name="space" unicode=" " horiz-adv-x="249" 
 />
    <glyph glyph-name="exclam" unicode="!" horiz-adv-x="228" 
d="M88 195q-4 39 -8 90t-7 107.5t-4.5 113.5t-1.5 107v117h96v-117q0 -50 -1.5 -107t-4.5 -113.5t-7 -107.5t-9 -90h-53zM42 63q0 32 20 52t52 20q35 0 54.5 -20t19.5 -52t-19.5 -52t-54.5 -20q-34 0 -53 20t-19 52z" />
    <glyph glyph-name="quotedbl" unicode="&#x22;" horiz-adv-x="307" 
d="M76 500q-3 9 -7 27.5t-8 40t-7 42.5t-3 36v84h79v-84q0 -15 -3 -36t-7 -42.5t-8 -40t-7 -27.5h-29zM202 500q-3 9 -7 27.5t-8 40t-7 42.5t-3 36v84h80v-84q0 -15 -3 -36t-7.5 -42.5l-8.5 -40t-7 -27.5h-29z" />
    <glyph glyph-name="numbersign" unicode="#" horiz-adv-x="821" 
d="M506 179h-195v-179h-96v179h-177v92h177v196h-177v93h177v170h96v-170h195v170h98v-170h179v-93h-179v-196h179v-92h-179v-179h-98v179zM311 271h195v196h-195v-196z" />
    <glyph glyph-name="dollar" unicode="$" horiz-adv-x="588" 
d="M552 206q0 -38 -14 -73.5t-40.5 -64t-64 -48.5t-85.5 -27v-113h-97v113q-75 9 -129 41t-94 79l81 70q26 -39 61.5 -64t82.5 -34v263q-35 11 -70.5 26t-64 37.5t-46 55t-17.5 77.5q0 38 14 71t39.5 58.5t61.5 42t81 21.5v103h97v-104q65 -9 109.5 -36.5t78.5 -68.5
l-79 -59q-20 29 -47 48.5t-64 28.5v-233q36 -12 73 -27.5t66.5 -39.5t48 -58.5t18.5 -84.5zM454 206q0 46 -32 71t-76 41v-233q51 11 79.5 43.5t28.5 77.5zM152 547q0 -41 29 -63.5t72 -37.5v205q-47 -8 -74 -36t-27 -68z" />
    <glyph glyph-name="percent" unicode="%" horiz-adv-x="844" 
d="M133 568q0 -38 26.5 -65t63.5 -27t63 27t26 65t-26 64.5t-63 26.5t-63.5 -26.5t-26.5 -64.5zM458 162q0 36 13.5 67t36.5 54.5t54.5 37t67.5 13.5t67 -13.5t54.5 -37t37 -54.5t13.5 -67t-13.5 -67.5t-37 -55t-54.5 -37t-67 -13.5t-67.5 13.5t-54.5 37t-36.5 55
t-13.5 67.5zM679 730h122l-627 -730h-122zM540 162q0 -38 26 -65t64 -27q37 0 63 27t26 65t-26 64.5t-63 26.5q-38 0 -64 -26.5t-26 -64.5zM51 568q0 36 13.5 67.5t37 54.5t54.5 36.5t67 13.5t67 -13.5t54.5 -36.5t37 -54.5t13.5 -67.5t-13.5 -67.5t-37 -55t-54.5 -37
t-67 -13.5t-67 13.5t-54.5 37t-37 55t-13.5 67.5z" />
    <glyph glyph-name="ampersand" unicode="&#x26;" horiz-adv-x="756" 
d="M532 66q-45 -35 -97.5 -56t-112.5 -21q-78 0 -132 21.5t-88 56t-49.5 76.5t-15.5 84q0 72 37 126.5t95 87.5q-19 28 -29 57.5t-10 65.5t13.5 68t39 56t61.5 38t81 14q75 0 121.5 -33t69.5 -77l-88 -41q-14 26 -38.5 46t-63.5 20q-44 0 -70 -26.5t-26 -64.5
q0 -22 6.5 -40.5t20.5 -39t37 -45l57 -58.5l188 -188q31 39 50.5 84.5t27.5 90.5h-127v91h222v-42q0 -69 -29.5 -145t-82.5 -140l131 -132h-132zM321 75q42 0 80 14t70 37l-199 200l-24.5 24.5l-22.5 23.5q-45 -26 -68.5 -61t-23.5 -85q0 -28 11.5 -55t35 -49t58.5 -35.5
t83 -13.5z" />
    <glyph glyph-name="quotesingle" unicode="'" horiz-adv-x="181" 
d="M76 500q-3 9 -7 27.5t-8 40t-7 42.5t-3 36v84h79v-84q0 -15 -3 -36t-7 -42.5t-8 -40t-7 -27.5h-29z" />
    <glyph glyph-name="parenleft" unicode="(" horiz-adv-x="411" 
d="M316 -250q-59 40 -109.5 90.5t-88 112t-58.5 135.5t-21 162t20.5 160.5t57 133t86 110.5t107.5 92l66 -72q-51 -35 -94 -78t-74.5 -95t-49 -114t-17.5 -136q0 -73 17 -135t48 -114.5t75 -95.5t98 -78z" />
    <glyph glyph-name="parenright" unicode=")" horiz-adv-x="411" 
d="M270 249q0 74 -17.5 136.5t-48.5 115t-74 95t-94 77.5l65 72q58 -42 107.5 -92t86 -110.5t57 -133t20.5 -160.5t-21 -162t-58.5 -135.5t-88 -112t-109.5 -90.5l-62 77q54 36 98 79.5t74.5 95.5t47.5 113.5t17 134.5z" />
    <glyph glyph-name="asterisk" unicode="*" horiz-adv-x="424" 
d="M234 515l20 -138h-84l19 138l-110 -86l-42 74l129 51l-129 53l43 73l110 -88l-20 139h84l-20 -138l110 86l42 -74l-131 -51l131 -52l-44 -73z" />
    <glyph glyph-name="plus" unicode="+" 
d="M46 406h145v143h80v-143h145v-82h-145v-145h-80v145h-145v82z" />
    <glyph glyph-name="comma" unicode="," horiz-adv-x="202" 
d="M68 87h106l-86 -204h-67z" />
    <glyph glyph-name="hyphen" unicode="-" 
d="M46 294h370v-83h-370v83z" />
    <glyph glyph-name="period" unicode="." horiz-adv-x="230" 
d="M42 63q0 32 20 52t52 20q35 0 54.5 -20t19.5 -52t-19.5 -52t-54.5 -20q-34 0 -53 20t-19 52z" />
    <glyph glyph-name="slash" unicode="/" horiz-adv-x="489" 
d="M367 730h103l-346 -730h-103z" />
    <glyph glyph-name="zero" unicode="0" horiz-adv-x="588" 
d="M293 83q69 0 105.5 39.5t36.5 103.5v272q0 70 -36 110t-104 40q-69 0 -105.5 -42t-36.5 -108v-270q0 -66 35.5 -105.5t104.5 -39.5zM294 -10q-57 0 -101.5 17t-74.5 47.5t-45.5 74t-15.5 96.5v274q0 52 17 96t48.5 76.5t75 50.5t96.5 18q54 0 98 -18.5t75 -51t48 -76
t17 -94.5v-276q0 -109 -63 -171.5t-175 -62.5z" />
    <glyph glyph-name="one" unicode="1" horiz-adv-x="323" 
d="M148 0v639h-119v91h215v-730h-96z" />
    <glyph glyph-name="two" unicode="2" horiz-adv-x="565" 
d="M52 94q0 44 17.5 81t45.5 68.5t63.5 58.5l71.5 52l61 44t52 43.5t36.5 46t13.5 50.5q0 51 -35.5 84t-98.5 33q-54 0 -91 -30t-60 -78l-84 44q32 66 92 107.5t143 41.5q54 0 97 -16t73 -43.5t46.5 -64.5t16.5 -79q0 -43 -17 -78t-44.5 -64.5t-62 -55.5l-69.5 -50
l-62.5 -44t-54 -45.5t-37.5 -49.5t-14 -56v-1h367v-93h-466v94z" />
    <glyph glyph-name="three" unicode="3" horiz-adv-x="543" 
d="M260 -10q-70 0 -130 25t-104 78l82 63q28 -38 66 -58t86 -20q66 0 105.5 35.5t39.5 91.5q0 29 -12 52.5t-33.5 40t-50.5 25.5t-63 9h-72v90h72q68 0 106 33t38 85q0 53 -37.5 84t-100.5 31q-47 0 -81.5 -21.5t-56.5 -55.5l-81 49q33 50 89.5 81.5t130.5 31.5
q54 0 97 -14.5t73 -40.5t46 -63t16 -81q0 -54 -25.5 -95t-70.5 -66q52 -25 82.5 -69t30.5 -106q0 -46 -16.5 -85.5t-47.5 -68.5t-76 -45t-102 -16z" />
    <glyph glyph-name="four" unicode="4" horiz-adv-x="617" 
d="M374 168h-333v89l330 473h99v-474h107v-88h-107v-168h-96v168zM374 256v325l-228 -325h228z" />
    <glyph glyph-name="five" unicode="5" horiz-adv-x="579" 
d="M291 -10q-89 0 -152.5 38.5t-94.5 97.5l90 54q21 -42 59.5 -71t97.5 -29q32 0 59.5 11t48 31t32.5 48t12 62q0 36 -12.5 65t-33.5 49.5t-49 31t-58 10.5q-57 0 -94 -26t-59 -69l-89 39l56 398h394v-91h-314l-31 -214q26 22 61.5 36.5t81.5 14.5q48 0 92.5 -15t78 -45.5
t54 -76.5t20.5 -107q0 -54 -19 -98.5t-52 -76.5t-79 -49.5t-100 -17.5z" />
    <glyph glyph-name="six" unicode="6" horiz-adv-x="594" 
d="M297 -10q-56 0 -103.5 19.5t-82 53.5t-54 80t-19.5 98q0 51 15 98t41 83l205 308h115l-166 -245q16 5 32.5 7.5t34.5 2.5q50 0 94 -19t76.5 -52.5t51.5 -80t19 -101.5q0 -54 -20 -100t-54.5 -80t-82 -53t-102.5 -19zM296 78q34 0 63.5 13t52 35.5t35.5 53t13 64.5
t-13 63.5t-35.5 52t-52 35.5t-63.5 13t-64 -13t-52 -35t-34.5 -52t-12.5 -64t12.5 -64.5t34.5 -53t52 -35.5t64 -13z" />
    <glyph glyph-name="seven" unicode="7" horiz-adv-x="530" 
d="M390 637h-352v93h452v-84l-290 -646h-103z" />
    <glyph glyph-name="eight" unicode="8" horiz-adv-x="549" 
d="M275 -10q-54 0 -97 16.5t-73.5 46t-47 69.5t-16.5 88q0 58 28 104.5t73 74.5q-35 26 -56 65t-21 88q0 44 16 80t44 62.5t67 41t85 14.5q45 0 83.5 -14.5t67 -41t44.5 -62.5t16 -80q0 -50 -22 -88.5t-57 -64.5q45 -28 72.5 -74.5t27.5 -104.5q0 -48 -16.5 -88t-47 -69.5
t-74 -46t-96.5 -16.5zM274 78q32 0 57.5 10.5t44.5 28.5t29 42t10 51t-10 51.5t-28 42.5t-43.5 28.5t-57.5 10.5q-31 0 -57 -10.5t-45 -28.5t-29 -42.5t-10 -51.5t10 -51t28.5 -42t44 -28.5t56.5 -10.5zM275 427q54 0 88 33.5t34 81.5t-33 81.5t-87 33.5t-88 -33.5
t-34 -81.5q0 -49 33 -82t87 -33z" />
    <glyph glyph-name="nine" unicode="9" horiz-adv-x="591" 
d="M345 248q-16 -5 -33 -7.5t-34 -2.5q-50 0 -94 19t-76.5 52.5t-51.5 79t-19 99.5q0 55 20 101t54.5 79.5t82 52.5t101.5 19q56 0 103 -19.5t81.5 -53.5t54 -79.5t19.5 -98.5q0 -48 -14.5 -94.5t-40.5 -82.5l-205 -312h-115zM296 325q34 0 63.5 13t51.5 35t34.5 51.5
t12.5 63.5t-12.5 64t-34.5 52.5t-51.5 35.5t-63.5 13q-33 0 -63 -13t-52 -35.5t-35 -52.5t-13 -64t13 -64t35 -52t52 -34.5t63 -12.5z" />
    <glyph glyph-name="colon" unicode=":" horiz-adv-x="230" 
d="M42 63q0 32 20 52t52 20q35 0 54.5 -20t19.5 -52t-19.5 -52t-54.5 -20q-34 0 -53 20t-19 52zM42 426q0 32 20 52t52 20q35 0 54.5 -20t19.5 -52t-19.5 -52t-54.5 -20q-34 0 -53 20t-19 52z" />
    <glyph glyph-name="semicolon" unicode=";" horiz-adv-x="230" 
d="M42 426q0 32 20 52t52 20q35 0 54.5 -20t19.5 -52t-19.5 -52t-54.5 -20q-34 0 -53 20t-19 52zM68 87h106l-86 -204h-67z" />
    <glyph glyph-name="less" unicode="&#x3c;" 
d="M46 324v82l370 138v-85l-270 -94l270 -95v-86z" />
    <glyph glyph-name="equal" unicode="=" 
d="M46 487h370v-83h-370v83zM46 322h370v-82h-370v82z" />
    <glyph glyph-name="greater" unicode="&#x3e;" 
d="M46 270l270 95l-270 94v85l370 -138v-82l-370 -140v86z" />
    <glyph glyph-name="question" unicode="?" horiz-adv-x="533" 
d="M207 199q0 62 13.5 102.5t33.5 68t43.5 46t43.5 36.5t33.5 40.5t13.5 56.5q0 47 -35 77t-89 30q-53 0 -84.5 -25.5t-48.5 -65.5l-88 34q23 61 79 101t143 40q48 0 88.5 -14t70 -39t46 -60.5t16.5 -78.5q0 -47 -14 -77.5t-35.5 -52t-46.5 -39t-46.5 -40.5t-35.5 -55.5
t-14 -84.5v-10h-87v10zM179 63q0 32 20 52t52 20q35 0 54.5 -20t19.5 -52t-19.5 -52t-54.5 -20q-34 0 -53 20t-19 52z" />
    <glyph glyph-name="at" unicode="@" horiz-adv-x="825" 
d="M412 -125q-78 0 -146 29.5t-118.5 80t-79.5 119t-29 146.5t30 146t81.5 119t120 80.5t146.5 29.5q83 0 151 -28.5t116.5 -75.5t75 -107.5t26.5 -125.5q0 -42 -10.5 -80t-31.5 -66.5t-51 -45.5t-69 -17q-45 0 -73 17t-43 41q-19 -26 -51.5 -42.5t-77.5 -16.5
q-31 0 -60.5 12t-52 35t-34.5 56.5t-8 77.5q5 45 23 79t43.5 56t55 33t58.5 11q36 0 63 -13t43 -34q2 14 2.5 22t1.5 12v7h84l-20 -181q-5 -48 8 -69t44 -21q35 0 54.5 35t19.5 91q0 49 -20.5 95.5t-58 82.5t-90.5 58t-119 22q-61 0 -114 -23t-93 -63t-63 -94t-23 -115
t22.5 -115t61.5 -94t91.5 -63t113.5 -23q65 0 118.5 24t94.5 67l62 -52q-48 -52 -119.5 -85.5t-155.5 -33.5zM397 156q43 0 69.5 31t30.5 73q5 41 -16.5 71.5t-63.5 30.5q-40 0 -71.5 -27.5t-34.5 -74.5q-6 -44 19 -74t67 -30z" />
    <glyph glyph-name="A" unicode="A" horiz-adv-x="696" 
d="M298 730h101l270 -730h-101l-62 167h-316l-61 -167h-102zM224 260h248l-124 337z" />
    <glyph glyph-name="B" unicode="B" horiz-adv-x="610" 
d="M60 730h255q53 0 96 -13.5t73.5 -39t47 -62t16.5 -82.5q0 -50 -22 -89.5t-67 -62.5q54 -22 82.5 -66t28.5 -106q0 -49 -17 -88t-48.5 -66t-75.5 -41t-98 -14h-271v730zM156 331v-242h175q66 0 104 33.5t38 87.5q0 55 -35.5 88t-110.5 33h-171zM156 642v-221h164
q66 0 98.5 31.5t32.5 80.5q0 51 -35.5 80t-101.5 29h-158z" />
    <glyph glyph-name="C" unicode="C" horiz-adv-x="769" 
d="M414 -10q-80 0 -148.5 29.5t-119 80.5t-79 119t-28.5 146q0 80 29.5 148.5t80 118.5t119 79t146.5 29q52 0 99.5 -13.5t89 -37.5t76 -58t58.5 -75l-85 -52q-35 65 -96 104t-142 39q-59 0 -110 -22t-88 -60.5t-58 -89.5t-21 -110q0 -58 21 -109t58 -89t87.5 -60t109.5 -22
q88 0 150.5 42.5t96.5 111.5l87 -46q-24 -45 -58 -82.5t-76.5 -64.5t-92.5 -41.5t-106 -14.5z" />
    <glyph glyph-name="D" unicode="D" horiz-adv-x="684" 
d="M60 730h203q87 0 158 -28t120.5 -77t76.5 -115.5t27 -144.5t-28.5 -145t-79 -115.5t-120 -76.5t-150.5 -28h-207v730zM156 641v-551h101q65 0 118 21t91.5 58t59.5 87.5t21 108.5q0 59 -20 109.5t-57.5 87.5t-92 58t-123.5 21h-98z" />
    <glyph glyph-name="E" unicode="E" horiz-adv-x="550" 
d="M60 730h440v-92h-344v-226h344v-92h-344v-227h344v-93h-440v730z" />
    <glyph glyph-name="F" unicode="F" horiz-adv-x="524" 
d="M60 730h413v-92h-317v-226h317v-92h-317v-320h-96v730z" />
    <glyph glyph-name="G" unicode="G" horiz-adv-x="820" 
d="M418 -10q-82 0 -151.5 30t-120 81t-79 119t-28.5 145q0 78 28.5 146.5t79 119t120 80t151.5 29.5q54 0 103 -13.5t90.5 -38t75 -59t57.5 -76.5l-84 -51q-37 68 -99 106.5t-143 38.5q-62 0 -113.5 -22.5t-89 -61t-58 -89.5t-20.5 -109t21 -109t58 -89.5t89 -60.5t113 -22
q56 0 101 16.5t78 45.5t54 69.5t29 88.5h-274v92h375v-34q0 -75 -24.5 -142.5t-71.5 -118.5t-114 -81t-153 -30z" />
    <glyph glyph-name="H" unicode="H" horiz-adv-x="665" 
d="M508 320h-352v-320h-96v730h96v-317h352v317h97v-730h-97v320z" />
    <glyph glyph-name="I" unicode="I" horiz-adv-x="233" 
d="M68 730h97v-730h-97v730z" />
    <glyph glyph-name="J" unicode="J" horiz-adv-x="484" 
d="M230 -10q-75 0 -127.5 35.5t-73.5 92.5l92 43q12 -35 39.5 -58t67.5 -23q49 0 75 32t26 86v532h97v-526q0 -101 -52 -157.5t-144 -56.5z" />
    <glyph glyph-name="K" unicode="K" horiz-adv-x="634" 
d="M276 375l-120 -142v-233h-96v730h96v-370l312 370h119l-243 -289l272 -441h-112z" />
    <glyph glyph-name="L" unicode="L" horiz-adv-x="512" 
d="M60 730h96v-637h309v-93h-405v730z" />
    <glyph glyph-name="M" unicode="M" horiz-adv-x="836" 
d="M60 730h97l259 -359l263 353v6h96v-730h-96v575l-265 -358l-258 353v-570h-96v730z" />
    <glyph glyph-name="N" unicode="N" horiz-adv-x="720" 
d="M60 730h110l393 -574v574h96v-730h-103l-400 582v-582h-96v730z" />
    <glyph glyph-name="O" unicode="O" horiz-adv-x="827" 
d="M413 -10q-78 0 -146 29.5t-118.5 80.5t-80 119t-29.5 146t29.5 146t80 119t118.5 80.5t146 29.5t146.5 -29.5t119 -80.5t80 -119t29.5 -146t-29.5 -146t-80 -119t-119 -80.5t-146.5 -29.5zM413 84q59 0 109.5 22.5t88 60.5t59 89t21.5 109t-21.5 109t-59 89.5t-88 60.5
t-109.5 22q-58 0 -108.5 -22t-87.5 -60.5t-58.5 -89.5t-21.5 -109t21.5 -109t58.5 -89t87.5 -60.5t108.5 -22.5z" />
    <glyph glyph-name="P" unicode="P" horiz-adv-x="603" 
d="M60 730h236q59 0 107.5 -19.5t83.5 -54t54.5 -80.5t19.5 -100t-19.5 -100.5t-54.5 -81t-84 -54t-108 -19.5h-139v-221h-96v730zM156 641v-329h133q40 0 72.5 12.5t55 35t34.5 52.5t12 64q0 35 -12 65t-34.5 52.5t-55 35t-72.5 12.5h-133z" />
    <glyph glyph-name="Q" unicode="Q" horiz-adv-x="827" 
d="M398 330h117l113 -139q29 35 46 79t17 95q0 58 -21.5 109t-59 89.5t-88 60.5t-109.5 22q-58 0 -108.5 -22t-87.5 -60.5t-58.5 -89.5t-21.5 -109t21.5 -109t58.5 -89t87.5 -60.5t108.5 -22.5q31 0 57.5 6.5t51.5 17.5l60 -76q-38 -20 -80.5 -31t-88.5 -11q-78 0 -146 29.5
t-118.5 80.5t-80 119t-29.5 146t29.5 146t80 119t118.5 80.5t146 29.5t146.5 -29.5t119 -80.5t80 -119t29.5 -146q0 -73 -26.5 -136.5t-71.5 -114.5l93 -114h-121z" />
    <glyph glyph-name="R" unicode="R" horiz-adv-x="593" 
d="M60 730h234q57 0 103.5 -18.5t80 -50t52 -74.5t18.5 -93q0 -36 -11 -69.5t-30.5 -62t-47 -50.5t-60.5 -36l160 -276h-109l-144 254h-151v-254h-95v730zM155 640v-297h128q41 0 72.5 13.5t52.5 35t31.5 48.5t10.5 54q0 65 -42.5 105.5t-123.5 40.5h-129z" />
    <glyph glyph-name="S" unicode="S" horiz-adv-x="562" 
d="M282 -10q-91 0 -155.5 35.5t-109.5 94.5l85 66q33 -51 77.5 -78t101.5 -27q64 0 103 35.5t39 89.5q0 30 -14 51t-37.5 36t-54 26t-63.5 21q-37 12 -73.5 27t-66 37.5t-47.5 56.5t-18 83q0 41 17.5 77t48 62.5t73 41.5t91.5 15q81 0 135.5 -29t95.5 -77l-79 -59
q-52 79 -152 79q-59 0 -95 -30.5t-36 -77.5q0 -28 14 -48t37 -34t53 -24.5l62 -21.5q38 -13 75.5 -28.5t67 -39.5t48 -58.5t18.5 -85.5q0 -42 -17 -81t-48 -69t-75.5 -48t-100.5 -18z" />
    <glyph glyph-name="T" unicode="T" horiz-adv-x="597" 
d="M251 639h-212v91h520v-91h-212v-639h-96v639z" />
    <glyph glyph-name="U" unicode="U" horiz-adv-x="625" 
d="M312 -10q-55 0 -101.5 18t-80.5 51.5t-53 80.5t-19 104v486h96v-492q0 -32 12 -60.5t33.5 -50t50.5 -34t62 -12.5t62 12.5t50.5 34t34 50t12.5 60.5v492h96v-486q0 -57 -19.5 -104t-53.5 -80.5t-80.5 -51.5t-101.5 -18z" />
    <glyph glyph-name="V" unicode="V" horiz-adv-x="671" 
d="M27 730h101l208 -589l207 589h101l-260 -730h-98z" />
    <glyph glyph-name="W" unicode="W" horiz-adv-x="1051" 
d="M29 730h102l162 -578l185 578h95l184 -579l167 579h99l-217 -730h-97l-184 579l-186 -579h-99z" />
    <glyph glyph-name="X" unicode="X" horiz-adv-x="644" 
d="M322 292l-188 -292h-109l241 373l-229 357h109l177 -274l176 274h109l-228 -355l240 -375h-109z" />
    <glyph glyph-name="Y" unicode="Y" horiz-adv-x="621" 
d="M263 346l-239 384h107l180 -291l180 291h107l-239 -384v-346h-96v346z" />
    <glyph glyph-name="Z" unicode="Z" horiz-adv-x="583" 
d="M50 89l369 549h-357v92h471v-88l-369 -549h370v-93h-484v89z" />
    <glyph glyph-name="bracketleft" unicode="[" horiz-adv-x="364" 
d="M46 730h273v-92h-176v-776h176v-92h-273v960z" />
    <glyph glyph-name="backslash" unicode="\" horiz-adv-x="489" 
d="M21 730h103l346 -730h-103z" />
    <glyph glyph-name="bracketright" unicode="]" horiz-adv-x="364" 
d="M46 -138h176v776h-176v92h273v-960h-273v92z" />
    <glyph glyph-name="asciicircum" unicode="^" horiz-adv-x="489" 
d="M210 704h67l123 -169h-84l-72 101l-70 -101h-84z" />
    <glyph glyph-name="underscore" unicode="_" horiz-adv-x="515" 
d="M46 -10h424v-82h-424v82z" />
    <glyph glyph-name="grave" unicode="`" horiz-adv-x="489" 
d="M125 720h104l117 -163h-75z" />
    <glyph glyph-name="a" unicode="a" horiz-adv-x="712" 
d="M339 -12q-61 0 -115.5 23t-95 63.5t-64 96.5t-23.5 121q0 66 23 121.5t63.5 96.5t95 64t116.5 23t121 -28.5t94 -80.5v97h94v-585h-94v99q-35 -53 -94.5 -82t-120.5 -29zM348 76q45 0 84 17t67.5 46t45 69t16.5 85t-16.5 84.5t-45 69t-67.5 46.5t-84 17q-44 0 -82.5 -17
t-67 -46.5t-45 -69t-16.5 -84.5t16.5 -85t45 -69t67 -46t82.5 -17z" />
    <glyph glyph-name="b" unicode="b" horiz-adv-x="710" 
d="M373 -12q-62 0 -121.5 28.5t-94.5 81.5v-98h-92v740h93v-252q35 52 93.5 80.5t120.5 28.5q63 0 117 -23t94.5 -64t63.5 -96.5t23 -121.5q0 -65 -23.5 -121t-64 -96.5t-94.5 -63.5t-115 -23zM364 76q44 0 82.5 17t67 46t44.5 69t16 85t-16 84.5t-44.5 69t-67 46.5
t-82.5 17q-46 0 -85 -17t-67.5 -46.5t-44.5 -69t-16 -84.5t16 -85t44.5 -69t67.5 -46t85 -17z" />
    <glyph glyph-name="c" unicode="c" horiz-adv-x="659" 
d="M348 -12q-66 0 -122 24t-97.5 65t-64.5 96.5t-23 118.5q0 65 24 121t65 97t97.5 64t120.5 23q48 0 91 -13t78 -36.5t62 -56.5t43 -72l-85 -36q-26 59 -75 92.5t-115 33.5q-45 0 -83.5 -17t-66.5 -46t-44 -69t-16 -85t16 -84t44.5 -68.5t67.5 -46.5t85 -17q70 0 118 38
t72 95l87 -38q-17 -40 -43.5 -73.5t-62 -58t-79 -38t-94.5 -13.5z" />
    <glyph glyph-name="d" unicode="d" horiz-adv-x="711" 
d="M339 -12q-61 0 -115.5 23t-95 63.5t-64 96.5t-23.5 121q0 66 23 121.5t63.5 96.5t95 64t116.5 23q61 0 120 -28t94 -80v251h94v-740h-93v99q-35 -53 -94.5 -82t-120.5 -29zM348 76q45 0 84 17t67.5 46t45 69t16.5 85t-16.5 84.5t-45 69t-67.5 46.5t-84 17
q-44 0 -82.5 -17t-67 -46.5t-45 -69t-16.5 -84.5t16.5 -85t45 -69t67 -46t82.5 -17z" />
    <glyph glyph-name="e" unicode="e" horiz-adv-x="688" 
d="M350 -12q-70 0 -127 23t-97.5 63.5t-62.5 95.5t-22 119q0 65 23 121.5t63.5 98t96.5 65t121 23.5q64 0 119 -21.5t95 -61t63 -94t23 -120.5v-40h-511q5 -42 22.5 -76t46 -59t66 -38.5t81.5 -13.5q70 0 119.5 33.5t75.5 90.5l81 -43q-40 -78 -108 -122t-168 -44zM345 512
q-39 0 -73 -12.5t-61 -34.5t-45.5 -53t-26.5 -67h409q-13 78 -66 122.5t-137 44.5z" />
    <glyph glyph-name="f" unicode="f" horiz-adv-x="393" 
d="M27 585h102v9q0 66 10.5 109.5t36 69.5t68.5 36.5t108 10.5h9v-89q-45 0 -72.5 -5t-41.5 -20t-18.5 -42t-4.5 -71v-8h137v-86h-137v-499h-95v499h-102v86z" />
    <glyph glyph-name="g" unicode="g" horiz-adv-x="714" 
d="M339 -12q-61 0 -115.5 23t-95 63.5t-64 96.5t-23.5 121q0 66 23 121.5t63.5 96.5t95 64t116.5 23t121 -29t94 -82v99h95v-574q0 -68 -22 -122.5t-61.5 -93t-94.5 -59.5t-122 -21q-107 0 -175 41.5t-109 113.5l84 50q16 -27 34 -48.5t41.5 -37.5t54 -24.5t71.5 -8.5
q47 0 85 15t64.5 42.5t40.5 65.5t14 84v91q-35 -53 -94.5 -82t-120.5 -29zM348 76q45 0 84 17t67.5 46t45 69t16.5 85t-16.5 84.5t-45 69t-67.5 46.5t-84 17q-44 0 -82.5 -17t-67 -46.5t-45 -69t-16.5 -84.5t16.5 -85t45 -69t67 -46t82.5 -17z" />
    <glyph glyph-name="h" unicode="h" horiz-adv-x="669" 
d="M65 740h94v-243q31 45 81.5 72.5t116.5 27.5q57 0 103.5 -18t79 -52.5t50 -83.5t17.5 -111v-332h-97v327q0 85 -43 135t-128 50q-38 0 -70.5 -14t-56.5 -39t-37.5 -59.5t-13.5 -75.5v-324h-96v740z" />
    <glyph glyph-name="i" unicode="i" horiz-adv-x="224" 
d="M64 585h96v-585h-96v585zM44 728q0 30 18.5 48.5t49.5 18.5q33 0 51 -18.5t18 -48.5q0 -31 -18 -49.5t-51 -18.5q-32 0 -50 18.5t-18 49.5z" />
    <glyph glyph-name="j" unicode="j" horiz-adv-x="224" 
d="M-75 -177q43 0 70.5 4.5t42.5 19t20.5 41t5.5 71.5v626h96v-627q0 -65 -11 -108.5t-36.5 -69.5t-67.5 -37t-105 -11h-15v91zM44 728q0 30 18.5 48.5t49.5 18.5q33 0 51 -18.5t18 -48.5q0 -31 -18 -49.5t-51 -18.5q-32 0 -50 18.5t-18 49.5z" />
    <glyph glyph-name="k" unicode="k" horiz-adv-x="606" 
d="M65 740h94v-472l301 317h118l-236 -248l242 -337h-109l-201 280l-115 -120v-160h-94v740z" />
    <glyph glyph-name="l" unicode="l" horiz-adv-x="226" 
d="M65 740h96v-740h-96v740z" />
    <glyph glyph-name="m" unicode="m" horiz-adv-x="1080" 
d="M64 585h94v-82q29 44 76.5 69t110.5 25q78 0 130 -32.5t77 -86.5q29 54 84 86.5t127 32.5q62 0 109.5 -18t79.5 -51t48.5 -79.5t16.5 -103.5v-345h-96v346q0 74 -44 120.5t-122 46.5q-35 0 -66 -12t-53.5 -34.5t-35.5 -55t-13 -74.5v-337h-96v355q0 72 -42.5 115
t-117.5 43q-37 0 -68.5 -12.5t-54.5 -36t-36 -57.5t-13 -78v-329h-95v585z" />
    <glyph glyph-name="n" unicode="n" horiz-adv-x="667" 
d="M64 585h94v-90q30 46 81 74t117 28q57 0 103.5 -18t78.5 -52.5t49.5 -83.5t17.5 -111v-332h-96v328q0 84 -43 134t-128 50q-38 0 -71 -14t-57 -39t-37.5 -59.5t-13.5 -75.5v-324h-95v585z" />
    <glyph glyph-name="o" unicode="o" horiz-adv-x="691" 
d="M344 -12q-63 0 -118 23.5t-96.5 64.5t-65 96.5t-23.5 119.5q0 65 23.5 120.5t65 96.5t96.5 64.5t118 23.5t118.5 -23.5t97 -64.5t65 -96.5t23.5 -120.5q0 -64 -23.5 -119.5t-65 -96.5t-97 -64.5t-118.5 -23.5zM344 76q44 0 82 17t66.5 46.5t44.5 68.5t16 84t-16 84.5
t-44.5 69t-66.5 46.5t-82 17q-43 0 -81 -17t-66 -46.5t-44 -69t-16 -84.5t16 -84t44 -68.5t66 -46.5t81 -17z" />
    <glyph glyph-name="p" unicode="p" horiz-adv-x="710" 
d="M372 -12q-65 0 -123 26.5t-92 77.5v-361h-93v854h93v-99q35 53 94 82t121 29t116 -23t94 -64t63 -96.5t23 -121.5q0 -65 -23.5 -121t-63.5 -96.5t-94 -63.5t-115 -23zM363 76q44 0 82 17t66.5 46t45 69t16.5 85t-16.5 84.5t-45 69t-66.5 46.5t-82 17q-46 0 -85.5 -17
t-68 -46.5t-44.5 -69t-16 -84.5t16 -85t44.5 -69t68 -46t85.5 -17z" />
    <glyph glyph-name="q" unicode="q" horiz-adv-x="711" 
d="M339 -12q-61 0 -115.5 23t-95 63.5t-64 96.5t-23.5 121q0 66 23 121.5t63.5 96.5t95 64t116.5 23t121 -29t94 -82v99h93v-854h-94v361q-35 -51 -93 -77.5t-121 -26.5zM348 76q45 0 84 17t67.5 46t45 69t16.5 85t-16.5 84.5t-45 69t-67.5 46.5t-84 17q-44 0 -82.5 -17
t-67 -46.5t-45 -69t-16.5 -84.5t16.5 -85t45 -69t67 -46t82.5 -17z" />
    <glyph glyph-name="r" unicode="r" horiz-adv-x="436" 
d="M64 585h94v-84q43 85 148 85q38 0 65 -9t49 -21l-40 -89q-17 11 -35 18.5t-54 7.5q-59 0 -95.5 -39t-36.5 -124v-17.5v-39v-53t1 -59.5v-161h-96v585z" />
    <glyph glyph-name="s" unicode="s" horiz-adv-x="533" 
d="M264 -12q-82 0 -144 32t-102 89l81 53q28 -41 71 -65.5t97 -24.5q65 0 97.5 29t32.5 68q0 23 -13 37t-35 23.5t-49.5 16l-57.5 13.5q-36 9 -71.5 20t-63 30t-45 47.5t-17.5 71.5q0 33 15 64t43 54.5t68 37.5t89 14q71 0 129.5 -25.5t93.5 -71.5l-75 -52q-27 32 -63.5 50
t-84.5 18q-59 0 -89.5 -25.5t-30.5 -61.5q0 -21 12 -35t32 -24t48 -16.5t59 -14.5q35 -9 71 -20t64.5 -29.5t46.5 -47.5t18 -73q0 -29 -13 -61t-40.5 -59t-70.5 -44.5t-103 -17.5z" />
    <glyph glyph-name="t" unicode="t" horiz-adv-x="403" 
d="M28 585h102v111l94 65v-176h137v-86h-137v-272q0 -44 5 -71t20 -41.5t42 -19.5t70 -5v-90h-14q-64 0 -106 10.5t-66.5 36.5t-34.5 69.5t-10 109.5v273h-102v86z" />
    <glyph glyph-name="u" unicode="u" horiz-adv-x="636" 
d="M302 -12q-115 0 -177.5 70t-62.5 195v332h96v-328q0 -84 38.5 -134t121.5 -50q75 0 117 52t42 135v325h95v-585h-93v82q-26 -43 -70 -68.5t-107 -25.5z" />
    <glyph glyph-name="v" unicode="v" horiz-adv-x="597" 
d="M22 585h103l175 -461l173 461h101l-228 -585h-95z" />
    <glyph glyph-name="w" unicode="w" horiz-adv-x="990" 
d="M32 585h99l144 -453l174 453h88l174 -455l149 455h99l-199 -585h-92l-176 455l-176 -455h-94z" />
    <glyph glyph-name="x" unicode="x" horiz-adv-x="610" 
d="M248 298l-221 287h116l164 -217l164 217h114l-222 -287l233 -298h-117l-174 228l-171 -228h-117z" />
    <glyph glyph-name="y" unicode="y" horiz-adv-x="635" 
d="M276 31l-252 554h104l197 -443l183 443h102l-366 -855h-100z" />
    <glyph glyph-name="z" unicode="z" horiz-adv-x="603" 
d="M45 89l391 411h-381v85h499v-89l-391 -410h395v-86h-513v89z" />
    <glyph glyph-name="braceleft" unicode="{" horiz-adv-x="391" 
d="M345 -230q-63 0 -105 11t-67.5 36.5t-36.5 67t-11 102.5v113q0 29 -3 49t-12.5 32t-28 17t-50.5 5v90q32 0 50.5 5.5t28 17.5t12.5 32t3 49v116q0 61 11 102.5t36.5 67t67.5 36.5t105 11h11v-88q-43 0 -69.5 -5.5t-41 -20t-19.5 -40t-5 -64.5v-116q0 -59 -16 -95t-55 -53
q40 -17 55.5 -52.5t15.5 -94.5v-113q0 -39 5 -64.5t19.5 -40t41 -20t69.5 -5.5v-88h-11z" />
    <glyph glyph-name="bar" unicode="|" horiz-adv-x="202" 
d="M53 730h96v-960h-96v960z" />
    <glyph glyph-name="braceright" unicode="}" horiz-adv-x="391" 
d="M36 -141q43 0 69.5 5.5t41 19.5t19.5 39.5t5 64.5v113q0 58 15 94t55 53q-39 17 -54.5 53t-15.5 95v116q0 39 -5 64.5t-19.5 39.5t-41 19.5t-69.5 5.5v89h11q63 0 105 -11t67.5 -36.5t36.5 -67t11 -102.5v-116q0 -29 3 -49t12.5 -32t28.5 -17.5t50 -5.5v-90q-31 0 -50 -5
t-28.5 -17t-12.5 -32t-3 -49v-113q0 -61 -11 -102.5t-36.5 -67t-67.5 -36.5t-105 -11h-11v89z" />
    <glyph glyph-name="asciitilde" unicode="~" horiz-adv-x="468" 
d="M66 566q2 54 28 87t71 33q25 0 43 -8t34 -17l28.5 -17.5t28.5 -8.5q33 0 36 46h64q-1 -55 -26 -87.5t-73 -32.5q-29 0 -49.5 10.5t-37.5 20.5q-12 8 -23.5 13.5t-24.5 5.5q-30 0 -33 -45h-66z" />
    <glyph glyph-name="exclamdown" unicode="&#xa1;" horiz-adv-x="228" 
d="M67 -113q0 50 1.5 107.5t4.5 113.5t7 107.5t8 90.5h53q5 -39 9 -90.5t7 -107.5t4.5 -113.5t1.5 -107.5v-117h-96v117zM42 430q0 32 20 52t52 20q35 0 54.5 -20t19.5 -52t-19.5 -52t-54.5 -20q-34 0 -53 20t-19 52z" />
    <glyph glyph-name="cent" unicode="&#xa2;" horiz-adv-x="588" 
d="M258 -5q-47 9 -86.5 32t-68.5 57.5t-45 78.5t-16 94q0 51 16.5 95t45.5 78t68.5 57t85.5 31v126h97v-125q70 -11 122 -51.5t77 -101.5l-86 -38q-21 51 -62.5 78.5t-96.5 27.5q-36 0 -67.5 -13.5t-54.5 -37t-36.5 -56t-13.5 -70.5t13.5 -70.5t37 -56.5t55 -37.5
t68.5 -13.5q57 0 98 30.5t61 78.5l87 -37q-26 -63 -78 -104.5t-124 -52.5v-124h-97v125z" />
    <glyph glyph-name="sterling" unicode="&#xa3;" horiz-adv-x="588" 
d="M61 413h78q-14 28 -23.5 59.5t-9.5 69.5q0 44 15.5 80.5t43 62.5t65 40.5t81.5 14.5q81 0 132 -34.5t78 -89.5l-89 -42q-19 39 -47.5 59.5t-73.5 20.5q-47 0 -77 -30.5t-30 -80.5q0 -36 12 -67.5t29 -62.5h210v-78h-166q18 -35 31 -74.5t13 -88.5q0 -30 -9 -59
q19 -17 36 -29t35 -12q23 0 30.5 13t7.5 42v81h99v-79q0 -77 -31 -108t-94 -31q-34 0 -63 16.5t-55 39.5q-20 -26 -49.5 -41.5t-66.5 -15.5q-66 0 -99.5 30t-33.5 78q0 46 30.5 76.5t83.5 30.5q31 0 56.5 -10.5t47.5 -25.5v4q0 48 -21.5 86.5t-47.5 76.5h-128v78zM169 60
q43 0 67 33q-19 16 -37.5 26.5t-38.5 10.5q-17 0 -27 -10t-10 -25q0 -17 13 -26t33 -9z" />
    <glyph glyph-name="currency" unicode="&#xa4;" horiz-adv-x="773" 
d="M391 102q-42 0 -79 12t-69 34l-107 -110l-64 64l107 110q-23 32 -35 70t-12 80q0 43 12 81t35 70l-109 114l65 63l109 -113q31 21 68 33t79 12q41 0 77.5 -12t67.5 -33l103 106l64 -63l-102 -105q23 -32 36 -70.5t13 -82.5q0 -45 -13.5 -84t-36.5 -71l102 -105l-65 -63
l-103 106q-31 -20 -67 -31.5t-76 -11.5zM391 191q35 0 65 13.5t52 37t35 54.5t13 66t-13 66.5t-35 54.5t-52 36.5t-65 13.5t-65 -13.5t-52 -36.5t-34.5 -54.5t-12.5 -66.5t12.5 -66t34.5 -54.5t52 -37t65 -13.5z" />
    <glyph glyph-name="yen" unicode="&#xa5;" horiz-adv-x="588" 
d="M87 384h159v16l-211 330h109l151 -245l151 245h108l-210 -329v-17h158v-79h-158v-99h158v-79h-158v-127h-98v127h-159v79h159v99h-159v79z" />
    <glyph glyph-name="brokenbar" unicode="&#xa6;" horiz-adv-x="224" 
d="M53 730h96v-420h-96v420zM53 190h96v-420h-96v420z" />
    <glyph glyph-name="section" unicode="&#xa7;" horiz-adv-x="593" 
d="M294 -10q-52 0 -93 13.5t-71 35t-48 49.5t-24 57l97 24q6 -42 42.5 -71t102.5 -29q23 0 44 4.5t37 13.5t25.5 22.5t9.5 32.5t-12 31t-33.5 20.5t-51.5 15.5l-66 15q-49 11 -88.5 24t-67 30.5t-42 41t-14.5 55.5q0 41 25 73t66 46q-46 37 -46 95q0 34 14.5 62t40.5 48
t64 31t84 10q50 0 88.5 -12t66.5 -32t44.5 -46t21.5 -54l-92 -23q-6 40 -37 66t-93 26q-47 0 -79 -17.5t-32 -54.5q0 -18 11.5 -31t32.5 -22.5t50.5 -17.5t65.5 -16q49 -11 88.5 -24t67 -30.5t42 -40.5t14.5 -55q0 -39 -24.5 -70.5t-62.5 -46.5q48 -34 48 -93q0 -34 -16 -63
t-44.5 -50t-68.5 -32.5t-87 -10.5zM306 297q22 -5 41.5 -10.5t37.5 -11.5q35 10 52 29t17 41q0 34 -46.5 52.5t-122.5 35.5q-22 5 -42 10.5t-37 11.5q-33 -5 -51.5 -24.5t-18.5 -43.5q0 -18 12.5 -31.5t35 -23.5t53.5 -18z" />
    <glyph glyph-name="dieresis" unicode="&#xa8;" horiz-adv-x="492" 
d="M82 631q0 28 17 45t46 17q31 0 47.5 -17t16.5 -45q0 -29 -16.5 -46t-47.5 -17q-30 0 -46.5 17t-16.5 46zM277 631q0 28 17 45t46 17q31 0 47.5 -17t16.5 -45q0 -29 -16.5 -46t-47.5 -17q-30 0 -46.5 17t-16.5 46z" />
    <glyph glyph-name="copyright" unicode="&#xa9;" horiz-adv-x="826" 
d="M414 -10q-78 0 -146 29.5t-119 80.5t-80.5 119t-29.5 146t29.5 146t80.5 119t119 80.5t146 29.5t146 -29.5t118.5 -80.5t80 -119t29.5 -146t-29.5 -146t-80 -119t-118.5 -80.5t-146 -29.5zM414 70q61 0 114 23t92.5 63t62 94t22.5 115t-22.5 115t-62 94t-92.5 63.5
t-114 23.5q-62 0 -115.5 -23.5t-92.5 -63.5t-61 -94t-22 -115t22 -115t61 -94t92.5 -63t115.5 -23zM418 165q-43 0 -80 15.5t-64 42.5t-42 63.5t-15 78.5t15 78.5t42 63.5t64 42.5t80 15.5q59 0 105.5 -29t69.5 -74l-29 -14l-25 -13l-23 -14q-11 26 -37 44t-62 18
q-24 0 -45 -9.5t-37 -25.5t-25 -37.5t-9 -45.5q0 -25 9 -46.5t25 -37.5t37 -25t45 -9q37 0 63.5 19t37.5 46l79 -35q-23 -48 -70.5 -80t-108.5 -32z" />
    <glyph glyph-name="ordfeminine" unicode="&#xaa;" horiz-adv-x="393" 
d="M180 435q-24 0 -48.5 9.5t-45 28.5t-33 47t-12.5 65q0 38 13 66.5t33.5 47t45 28t48.5 9.5q31 0 54.5 -11.5t39.5 -28.5v34h71v-289h-71v36q-17 -19 -41 -30.5t-54 -11.5zM196 501q35 0 58 25t23 60t-23 59.5t-58 24.5q-36 0 -60 -23.5t-24 -60.5q0 -36 24 -60.5
t60 -24.5z" />
    <glyph glyph-name="guillemotleft" unicode="&#xab;" horiz-adv-x="466" 
d="M58 224v56l169 115v-68l-111 -75l111 -75v-67zM240 224v56l168 115v-68l-110 -75l110 -75v-67z" />
    <glyph glyph-name="logicalnot" unicode="&#xac;" horiz-adv-x="603" 
d="M470 427h-441v92h538v-336h-97v244z" />
    <glyph glyph-name="uni00AD" unicode="&#xad;" 
d="M46 294h370v-83h-370v83z" />
    <glyph glyph-name="registered" unicode="&#xae;" horiz-adv-x="826" 
d="M414 -125q-78 0 -146 29.5t-119 80.5t-80.5 119t-29.5 146t29.5 146t80.5 119t119 80.5t146 29.5t146 -29.5t118.5 -80.5t80 -119t29.5 -146t-29.5 -146t-80 -119t-118.5 -80.5t-146 -29.5zM414 -46q61 0 114 23.5t92.5 63.5t62 94t22.5 115t-22.5 115t-62 94t-92.5 63.5
t-114 23.5q-62 0 -115.5 -23.5t-92.5 -63.5t-61 -94t-22 -115t22 -115t61 -94t92.5 -63.5t115.5 -23.5zM270 442h158q36 0 64.5 -10.5t48.5 -27.5t30.5 -40t10.5 -48q0 -42 -20.5 -74.5t-61.5 -45.5l80 -128h-96l-103 178h39q32 0 53 17t21 49t-22 45.5t-52 13.5h-65v-303
h-85v374z" />
    <glyph glyph-name="macron" unicode="&#xaf;" horiz-adv-x="489" 
d="M113 627h264v-70h-264v70z" />
    <glyph glyph-name="degree" unicode="&#xb0;" horiz-adv-x="419" 
d="M210 452q-30 0 -56 11.5t-45.5 31t-31 46t-11.5 56.5t11.5 56t31 45.5t45.5 30.5t56 11t56 -11t45.5 -30.5t30.5 -45.5t11 -56t-11 -56.5t-30.5 -46t-45.5 -31t-56 -11.5zM210 533q26 0 44.5 18.5t18.5 44.5t-18.5 44.5t-44.5 18.5t-44.5 -18.5t-18.5 -44.5t18.5 -44.5
t44.5 -18.5z" />
    <glyph glyph-name="plusminus" unicode="&#xb1;" 
d="M46 509h145v144h80v-144h145v-82h-145v-144h-80v144h-145v82zM46 206h370v-82h-370v82z" />
    <glyph glyph-name="twosuperior" unicode="&#xb2;" horiz-adv-x="336" 
d="M27 377q0 29 10.5 51.5t27 40.5t37 33t40.5 28q33 20 58 39.5t25 45.5q0 20 -15 34.5t-43 14.5t-46.5 -17t-29.5 -42l-71 37q20 43 57 68.5t90 25.5q66 0 105 -35t39 -86q0 -27 -10 -48.5t-26.5 -38.5t-36.5 -31l-40 -27q-32 -20 -57.5 -39t-26.5 -44h196v-79h-283v69z
" />
    <glyph glyph-name="threesuperior" unicode="&#xb3;" horiz-adv-x="324" 
d="M156 302q-42 0 -79 13.5t-63 43.5l67 55q29 -36 72 -36q28 0 46 15t18 40q0 26 -21 40t-53 14h-43v75h42q32 0 49.5 14.5t17.5 37.5t-16 36.5t-44 13.5q-23 0 -39 -10t-27 -27l-64 46q21 29 56 46t76 17q65 0 103.5 -32.5t38.5 -86.5q0 -28 -12.5 -50.5t-34.5 -38.5
q26 -15 41.5 -39.5t15.5 -57.5q0 -55 -39 -92t-108 -37z" />
    <glyph glyph-name="acute" unicode="&#xb4;" horiz-adv-x="489" 
d="M241 720h105l-146 -163h-75z" />
    <glyph glyph-name="mu" unicode="&#xb5;" horiz-adv-x="571" 
d="M54 500h97v-268q0 -74 36 -116t96 -42q30 0 55 11t43.5 30.5t29 47t10.5 61.5v276h96v-500h-95v67q-25 -35 -63.5 -56t-89.5 -21q-36 0 -66 11.5t-53 31.5v-263h-96v730z" />
    <glyph glyph-name="mu" unicode="&#x3bc;" horiz-adv-x="571" 
d="M54 500h97v-268q0 -74 36 -116t96 -42q30 0 55 11t43.5 30.5t29 47t10.5 61.5v276h96v-500h-95v67q-25 -35 -63.5 -56t-89.5 -21q-36 0 -66 11.5t-53 31.5v-263h-96v730z" />
    <glyph glyph-name="paragraph" unicode="&#xb6;" horiz-adv-x="619" 
d="M339 302h-91q-46 0 -86 16.5t-69 45.5t-45.5 68t-16.5 84t16.5 84t45.5 68t68.5 45.5t85.5 16.5h320v-730h-85v641h-60v-641h-83v302z" />
    <glyph glyph-name="periodcentered" unicode="&#xb7;" horiz-adv-x="202" 
d="M53 320h96v-137h-96v137z" />
    <glyph glyph-name="cedilla" unicode="&#xb8;" horiz-adv-x="489" 
d="M231 -235q-44 0 -80 15.5t-63 40.5l64 39q18 -15 36.5 -25t47.5 -10q27 0 46 11t19 28q0 34 -68 34h-43v102h69v-53q54 1 86 -22t32 -58q0 -23 -11.5 -41.5t-31.5 -32t-46.5 -21t-56.5 -7.5z" />
    <glyph glyph-name="onesuperior" unicode="&#xb9;" horiz-adv-x="294" 
d="M26 386h83v222q-10 -14 -28.5 -22.5t-38.5 -8.5h-6v83h3q21 0 35 6.5t22 17t11.5 23t3.5 23.5h81v-344h80v-78h-246v78z" />
    <glyph glyph-name="ordmasculine" unicode="&#xba;" horiz-adv-x="382" 
d="M191 435q-31 0 -58.5 12t-47.5 32t-32 47.5t-12 58.5q0 32 12 59.5t32 47.5t47.5 32t58.5 12q32 0 59 -12t47.5 -32t32 -47.5t11.5 -59.5q0 -31 -11.5 -58.5t-32 -47.5t-47.5 -32t-59 -12zM191 503q35 0 57.5 24.5t22.5 57.5q0 35 -22.5 59t-57.5 24q-33 0 -56.5 -24
t-23.5 -59q0 -33 23.5 -57.5t56.5 -24.5z" />
    <glyph glyph-name="guillemotright" unicode="&#xbb;" horiz-adv-x="466" 
d="M58 178l111 74l-111 76v68l169 -116v-55l-169 -115v68zM240 178l111 74l-111 76v68l168 -116v-55l-168 -115v68z" />
    <glyph glyph-name="onequarter" unicode="&#xbc;" horiz-adv-x="820" 
d="M626 730h112l-527 -730h-112zM653 92h-180v75l178 255h82v-257h61v-73h-61v-92h-80v92zM26 386h83v222q-10 -14 -28.5 -22.5t-38.5 -8.5h-6v83h3q21 0 35 6.5t22 17t11.5 23t3.5 23.5h81v-344h80v-78h-246v78zM653 165v133l-93 -133h93z" />
    <glyph glyph-name="onehalf" unicode="&#xbd;" horiz-adv-x="853" 
d="M626 730h112l-527 -730h-112zM540 69q0 29 10.5 51.5t27 40.5t37 33t40.5 28q33 20 58 39.5t25 45.5q0 20 -15 34.5t-43 14.5t-46.5 -17t-29.5 -42l-71 37q20 43 57 68.5t90 25.5q66 0 105 -35t39 -86q0 -27 -10 -48.5t-26.5 -38.5t-36.5 -31l-40 -27q-32 -20 -57.5 -39
t-26.5 -44h196v-79h-283v69zM26 386h83v222q-10 -14 -28.5 -22.5t-38.5 -8.5h-6v83h3q21 0 35 6.5t22 17t11.5 23t3.5 23.5h81v-344h80v-78h-246v78z" />
    <glyph glyph-name="threequarters" unicode="&#xbe;" horiz-adv-x="830" 
d="M635 730h112l-527 -730h-112zM662 92h-180v75l178 255h82v-257h61v-73h-61v-92h-80v92zM156 302q-42 0 -79 13.5t-63 43.5l67 55q29 -36 72 -36q28 0 46 15t18 40q0 26 -21 40t-53 14h-43v75h42q32 0 49.5 14.5t17.5 37.5t-16 36.5t-44 13.5q-23 0 -39 -10t-27 -27
l-64 46q21 29 56 46t76 17q65 0 103.5 -32.5t38.5 -86.5q0 -28 -12.5 -50.5t-34.5 -38.5q26 -15 41.5 -39.5t15.5 -57.5q0 -55 -39 -92t-108 -37zM662 165v133l-93 -133h93z" />
    <glyph glyph-name="questiondown" unicode="&#xbf;" horiz-adv-x="533" 
d="M267 -240q-48 0 -88.5 14t-70 39t-46 60.5t-16.5 78.5q0 47 14 77.5t35.5 52t46.5 39t46.5 40.5t35.5 56t14 84v10h87v-10q0 -62 -13.5 -102.5t-33.5 -68t-43.5 -46t-43.5 -36.5t-33.5 -40.5t-13.5 -56.5q0 -47 35 -77t90 -30q52 0 83.5 25.5t48.5 65.5l88 -34
q-23 -61 -79 -101t-143 -40zM209 431q0 32 20 52t52 20q35 0 54.5 -20t19.5 -52t-19.5 -52t-54.5 -20q-34 0 -53 20t-19 52z" />
    <glyph glyph-name="Agrave" unicode="&#xc0;" horiz-adv-x="696" 
d="M298 730h101l270 -730h-101l-62 167h-316l-61 -167h-102zM224 260h248l-124 337zM163 950h104l117 -163h-75z" />
    <glyph glyph-name="Aacute" unicode="&#xc1;" horiz-adv-x="696" 
d="M298 730h101l270 -730h-101l-62 167h-316l-61 -167h-102zM224 260h248l-124 337zM421 950h105l-146 -163h-75z" />
    <glyph glyph-name="Acircumflex" unicode="&#xc2;" horiz-adv-x="696" 
d="M298 730h101l270 -730h-101l-62 167h-316l-61 -167h-102zM224 260h248l-124 337zM309 950h69l119 -163h-84l-70 98l-68 -98h-85z" />
    <glyph glyph-name="Atilde" unicode="&#xc3;" horiz-adv-x="696" 
d="M298 730h101l270 -730h-101l-62 167h-316l-61 -167h-102zM224 260h248l-124 337zM173 787q0 56 27 89.5t73 33.5q25 0 44 -8t36 -19l30.5 -18.5t30.5 -8.5q36 0 36 50h66q0 -57 -25.5 -90t-75.5 -33q-29 0 -50.5 10.5t-40.5 21.5l-25.5 14.5t-25.5 6.5q-35 0 -35 -49h-65
z" />
    <glyph glyph-name="Adieresis" unicode="&#xc4;" horiz-adv-x="696" 
d="M298 730h101l270 -730h-101l-62 167h-316l-61 -167h-102zM224 260h248l-124 337zM185 861q0 28 17 45t46 17q31 0 47.5 -17t16.5 -45q0 -29 -16.5 -46t-47.5 -17q-30 0 -46.5 17t-16.5 46zM380 861q0 28 17 45t46 17q31 0 47.5 -17t16.5 -45q0 -29 -16.5 -46t-47.5 -17
q-30 0 -46.5 17t-16.5 46z" />
    <glyph glyph-name="Aring" unicode="&#xc5;" horiz-adv-x="696" 
d="M283 690q-22 14 -34.5 37.5t-12.5 52.5q0 23 8.5 43t23 35t34.5 23.5t42 8.5q23 0 43.5 -8.5t35.5 -23.5t23.5 -35t8.5 -43q0 -27 -11.5 -49t-31.5 -37l257 -694h-101l-62 167h-316l-61 -167h-102zM224 260h248l-124 337zM344 734q20 0 33.5 13t13.5 33q0 19 -13.5 33
t-33.5 14q-19 0 -32.5 -14t-13.5 -33q0 -20 13.5 -33t32.5 -13z" />
    <glyph glyph-name="AE" unicode="&#xc6;" horiz-adv-x="993" 
d="M369 730h565v-92h-441l54 -226h387v-92h-365l54 -227h311v-93h-390l-39 164h-300l-77 -164h-105zM247 254h237l-79 335z" />
    <glyph glyph-name="Ccedilla" unicode="&#xc7;" horiz-adv-x="769" 
d="M411 -235q-44 0 -80 15.5t-63 40.5l64 39q18 -15 36.5 -25t47.5 -10q27 0 46 11t19 28q0 34 -68 34h-43v95q-72 8 -132.5 40t-105 81.5t-69 114t-24.5 136.5q0 80 29.5 148.5t80 118.5t119 79t146.5 29q52 0 99.5 -13.5t89 -37.5t76 -58t58.5 -75l-85 -52q-35 65 -96 104
t-142 39q-59 0 -110 -22t-88 -60.5t-58 -89.5t-21 -110q0 -58 21 -109t58 -89t87.5 -60t109.5 -22q88 0 150.5 42.5t96.5 111.5l87 -46q-45 -86 -125 -140.5t-183 -61.5v-44q54 1 86 -22t32 -58q0 -23 -11.5 -41.5t-31.5 -32t-46.5 -21t-56.5 -7.5z" />
    <glyph glyph-name="Egrave" unicode="&#xc8;" horiz-adv-x="551" 
d="M60 730h440v-92h-344v-226h344v-92h-344v-227h344v-93h-440v730zM105 950h104l117 -163h-75z" />
    <glyph glyph-name="Eacute" unicode="&#xc9;" horiz-adv-x="551" 
d="M60 730h440v-92h-344v-226h344v-92h-344v-227h344v-93h-440v730zM342 950h105l-146 -163h-75z" />
    <glyph glyph-name="Ecircumflex" unicode="&#xca;" horiz-adv-x="551" 
d="M60 730h440v-92h-344v-226h344v-92h-344v-227h344v-93h-440v730zM242 950h69l119 -163h-84l-70 98l-68 -98h-85z" />
    <glyph glyph-name="Edieresis" unicode="&#xcb;" horiz-adv-x="551" 
d="M60 730h440v-92h-344v-226h344v-92h-344v-227h344v-93h-440v730zM316 861q0 28 17 45t46 17q31 0 47.5 -17t16.5 -45q0 -29 -16.5 -46t-47.5 -17q-30 0 -46.5 17t-16.5 46zM121 861q0 28 17 45t46 17q31 0 47.5 -17t16.5 -45q0 -29 -16.5 -46t-47.5 -17q-30 0 -46.5 17
t-16.5 46z" />
    <glyph glyph-name="Igrave" unicode="&#xcc;" horiz-adv-x="233" 
d="M68 730h97v-730h-97v730zM-67 950h104l117 -163h-75z" />
    <glyph glyph-name="Iacute" unicode="&#xcd;" horiz-adv-x="233" 
d="M68 730h97v-730h-97v730zM192 950h105l-146 -163h-75z" />
    <glyph glyph-name="Icircumflex" unicode="&#xce;" horiz-adv-x="233" 
d="M68 730h97v-730h-97v730zM81 950h69l119 -163h-84l-70 98l-68 -98h-85z" />
    <glyph glyph-name="Idieresis" unicode="&#xcf;" horiz-adv-x="233" 
d="M170 929h96v-138h-96v138zM-33 929h96v-138h-96v138zM68 730h97v-730h-97v730z" />
    <glyph glyph-name="Eth" unicode="&#xd0;" horiz-adv-x="717" 
d="M22 411h73v319h201q87 0 158 -28t120.5 -77t76.5 -115.5t27 -144.5t-28.5 -145t-79 -115.5t-120 -76.5t-150.5 -28h-205v323h-73v88zM192 641v-230h198v-88h-198v-233h97q65 0 118.5 21t92 58t60 87.5t21.5 108.5q0 59 -20 109.5t-58 87.5t-93 58t-124 21h-94z" />
    <glyph glyph-name="Ntilde" unicode="&#xd1;" horiz-adv-x="720" 
d="M60 730h110l393 -574v574h96v-730h-103l-400 582v-582h-96v730zM187 787q0 56 27 89.5t73 33.5q25 0 44 -8t36 -19l30.5 -18.5t30.5 -8.5q36 0 36 50h66q0 -57 -25.5 -90t-75.5 -33q-29 0 -50.5 10.5t-40.5 21.5l-25.5 14.5t-25.5 6.5q-35 0 -35 -49h-65z" />
    <glyph glyph-name="Ograve" unicode="&#xd2;" horiz-adv-x="827" 
d="M413 -10q-78 0 -146 29.5t-118.5 80.5t-80 119t-29.5 146t29.5 146t80 119t118.5 80.5t146 29.5t146.5 -29.5t119 -80.5t80 -119t29.5 -146t-29.5 -146t-80 -119t-119 -80.5t-146.5 -29.5zM413 84q59 0 109.5 22.5t88 60.5t59 89t21.5 109t-21.5 109t-59 89.5t-88 60.5
t-109.5 22q-58 0 -108.5 -22t-87.5 -60.5t-58.5 -89.5t-21.5 -109t21.5 -109t58.5 -89t87.5 -60.5t108.5 -22.5zM228 950h104l117 -163h-75z" />
    <glyph glyph-name="Oacute" unicode="&#xd3;" horiz-adv-x="827" 
d="M484 950h105l-146 -163h-75zM413 -10q-78 0 -146 29.5t-118.5 80.5t-80 119t-29.5 146t29.5 146t80 119t118.5 80.5t146 29.5t146.5 -29.5t119 -80.5t80 -119t29.5 -146t-29.5 -146t-80 -119t-119 -80.5t-146.5 -29.5zM413 84q59 0 109.5 22.5t88 60.5t59 89t21.5 109
t-21.5 109t-59 89.5t-88 60.5t-109.5 22q-58 0 -108.5 -22t-87.5 -60.5t-58.5 -89.5t-21.5 -109t21.5 -109t58.5 -89t87.5 -60.5t108.5 -22.5z" />
    <glyph glyph-name="Ocircumflex" unicode="&#xd4;" horiz-adv-x="827" 
d="M413 -10q-78 0 -146 29.5t-118.5 80.5t-80 119t-29.5 146t29.5 146t80 119t118.5 80.5t146 29.5t146.5 -29.5t119 -80.5t80 -119t29.5 -146t-29.5 -146t-80 -119t-119 -80.5t-146.5 -29.5zM413 84q59 0 109.5 22.5t88 60.5t59 89t21.5 109t-21.5 109t-59 89.5t-88 60.5
t-109.5 22q-58 0 -108.5 -22t-87.5 -60.5t-58.5 -89.5t-21.5 -109t21.5 -109t58.5 -89t87.5 -60.5t108.5 -22.5zM375 950h69l119 -163h-84l-70 98l-68 -98h-85z" />
    <glyph glyph-name="Otilde" unicode="&#xd5;" horiz-adv-x="827" 
d="M413 -10q-78 0 -146 29.5t-118.5 80.5t-80 119t-29.5 146t29.5 146t80 119t118.5 80.5t146 29.5t146.5 -29.5t119 -80.5t80 -119t29.5 -146t-29.5 -146t-80 -119t-119 -80.5t-146.5 -29.5zM413 84q59 0 109.5 22.5t88 60.5t59 89t21.5 109t-21.5 109t-59 89.5t-88 60.5
t-109.5 22q-58 0 -108.5 -22t-87.5 -60.5t-58.5 -89.5t-21.5 -109t21.5 -109t58.5 -89t87.5 -60.5t108.5 -22.5zM236 787q0 56 27 89.5t73 33.5q25 0 44 -8t36 -19l30.5 -18.5t30.5 -8.5q36 0 36 50h66q0 -57 -25.5 -90t-75.5 -33q-29 0 -50.5 10.5t-40.5 21.5l-25.5 14.5
t-25.5 6.5q-35 0 -35 -49h-65z" />
    <glyph glyph-name="Odieresis" unicode="&#xd6;" horiz-adv-x="827" 
d="M249 861q0 28 17 45t46 17q31 0 47.5 -17t16.5 -45q0 -29 -16.5 -46t-47.5 -17q-30 0 -46.5 17t-16.5 46zM444 861q0 28 17 45t46 17q31 0 47.5 -17t16.5 -45q0 -29 -16.5 -46t-47.5 -17q-30 0 -46.5 17t-16.5 46zM413 -10q-78 0 -146 29.5t-118.5 80.5t-80 119
t-29.5 146t29.5 146t80 119t118.5 80.5t146 29.5t146.5 -29.5t119 -80.5t80 -119t29.5 -146t-29.5 -146t-80 -119t-119 -80.5t-146.5 -29.5zM413 84q59 0 109.5 22.5t88 60.5t59 89t21.5 109t-21.5 109t-59 89.5t-88 60.5t-109.5 22q-58 0 -108.5 -22t-87.5 -60.5
t-58.5 -89.5t-21.5 -109t21.5 -109t58.5 -89t87.5 -60.5t108.5 -22.5z" />
    <glyph glyph-name="multiply" unicode="&#xd7;" 
d="M57 248l116 116l-116 117l57 57l116 -117l117 117l58 -58l-117 -117l116 -115l-57 -57l-116 115l-116 -116z" />
    <glyph glyph-name="Oslash" unicode="&#xd8;" horiz-adv-x="827" 
d="M150 98q-52 51 -81.5 119.5t-29.5 147.5q0 78 29.5 146t80 119t118.5 80.5t146 29.5q54 0 103.5 -14.5t92.5 -40.5l35 45h112l-78 -100q51 -51 80.5 -119t29.5 -146t-29.5 -146t-80 -119t-119 -80.5t-146.5 -29.5q-54 0 -102.5 13.5t-90.5 39.5l-34 -43h-112zM137 365
q0 -56 19 -104.5t54 -86.5l340 436q-30 17 -64.5 26.5t-72.5 9.5q-58 0 -108.5 -22t-87.5 -60.5t-58.5 -89.5t-21.5 -109zM413 84q59 0 109.5 22.5t88 60.5t59 89t21.5 109q0 54 -19 102.5t-53 86.5l-340 -435q29 -17 63 -26t71 -9z" />
    <glyph glyph-name="Ugrave" unicode="&#xd9;" horiz-adv-x="625" 
d="M312 -10q-55 0 -101.5 18t-80.5 51.5t-53 80.5t-19 104v486h96v-492q0 -32 12 -60.5t33.5 -50t50.5 -34t62 -12.5t62 12.5t50.5 34t34 50t12.5 60.5v492h96v-486q0 -57 -19.5 -104t-53.5 -80.5t-80.5 -51.5t-101.5 -18zM134 950h104l117 -163h-75z" />
    <glyph glyph-name="Uacute" unicode="&#xda;" horiz-adv-x="625" 
d="M379 950h105l-146 -163h-75zM312 -10q-55 0 -101.5 18t-80.5 51.5t-53 80.5t-19 104v486h96v-492q0 -32 12 -60.5t33.5 -50t50.5 -34t62 -12.5t62 12.5t50.5 34t34 50t12.5 60.5v492h96v-486q0 -57 -19.5 -104t-53.5 -80.5t-80.5 -51.5t-101.5 -18z" />
    <glyph glyph-name="Ucircumflex" unicode="&#xdb;" horiz-adv-x="625" 
d="M312 -10q-55 0 -101.5 18t-80.5 51.5t-53 80.5t-19 104v486h96v-492q0 -32 12 -60.5t33.5 -50t50.5 -34t62 -12.5t62 12.5t50.5 34t34 50t12.5 60.5v492h96v-486q0 -57 -19.5 -104t-53.5 -80.5t-80.5 -51.5t-101.5 -18zM275 950h69l119 -163h-84l-70 98l-68 -98h-85z" />
    <glyph glyph-name="Udieresis" unicode="&#xdc;" horiz-adv-x="625" 
d="M153 861q0 28 17 45t46 17q31 0 47.5 -17t16.5 -45q0 -29 -16.5 -46t-47.5 -17q-30 0 -46.5 17t-16.5 46zM348 861q0 28 17 45t46 17q31 0 47.5 -17t16.5 -45q0 -29 -16.5 -46t-47.5 -17q-30 0 -46.5 17t-16.5 46zM312 -10q-55 0 -101.5 18t-80.5 51.5t-53 80.5t-19 104
v486h96v-492q0 -32 12 -60.5t33.5 -50t50.5 -34t62 -12.5t62 12.5t50.5 34t34 50t12.5 60.5v492h96v-486q0 -57 -19.5 -104t-53.5 -80.5t-80.5 -51.5t-101.5 -18z" />
    <glyph glyph-name="Yacute" unicode="&#xdd;" horiz-adv-x="621" 
d="M263 346l-239 384h107l180 -291l180 291h107l-239 -384v-346h-96v346zM382 950h105l-146 -163h-75z" />
    <glyph glyph-name="Thorn" unicode="&#xde;" horiz-adv-x="565" 
d="M60 730h97v-142h139q50 0 92 -16.5t72 -45t46.5 -68t16.5 -85.5t-16.5 -85.5t-46.5 -68t-71.5 -45t-92.5 -16.5h-139v-158h-97v730zM157 498v-251h132q63 0 100 35.5t37 90.5q0 54 -37 89.5t-100 35.5h-132z" />
    <glyph glyph-name="germandbls" unicode="&#xdf;" horiz-adv-x="620" 
d="M-68 -179q40 0 65.5 7.5t40.5 24.5t20.5 43.5t5.5 64.5v658q-1 53 15.5 96.5t47 75.5t75.5 49.5t101 17.5q52 0 95.5 -17t75 -47.5t49 -72t17.5 -90.5q0 -62 -30.5 -109t-84.5 -72q68 -24 110.5 -78.5t42.5 -132.5q0 -54 -17.5 -99.5t-50.5 -78.5t-79 -52t-103 -19
q-32 0 -59 5.5t-47 16.5l1 89q19 -11 46.5 -17t58.5 -6q32 0 59.5 12.5t48.5 34t33 51t12 63.5q0 33 -13 62t-36.5 50.5t-57 34.5t-74.5 13h-23v88h23q30 0 56.5 11t46 30.5t31 46t11.5 58.5q0 29 -10.5 55.5t-29 46t-45 31t-58.5 11.5q-31 0 -58 -10t-46.5 -29t-31 -46.5
t-11.5 -62.5v-667q0 -62 -10.5 -105.5t-35 -71t-64 -40.5t-97.5 -13h-16v89z" />
    <glyph glyph-name="agrave" unicode="&#xe0;" horiz-adv-x="712" 
d="M339 -12q-61 0 -115.5 23t-95 63.5t-64 96.5t-23.5 121q0 66 23 121.5t63.5 96.5t95 64t116.5 23t121 -28.5t94 -80.5v97h94v-585h-94v99q-35 -53 -94.5 -82t-120.5 -29zM348 76q45 0 84 17t67.5 46t45 69t16.5 85t-16.5 84.5t-45 69t-67.5 46.5t-84 17q-44 0 -82.5 -17
t-67 -46.5t-45 -69t-16.5 -84.5t16.5 -85t45 -69t67 -46t82.5 -17zM167 815h104l117 -163h-75z" />
    <glyph glyph-name="aacute" unicode="&#xe1;" horiz-adv-x="712" 
d="M339 -12q-61 0 -115.5 23t-95 63.5t-64 96.5t-23.5 121q0 66 23 121.5t63.5 96.5t95 64t116.5 23t121 -28.5t94 -80.5v97h94v-585h-94v99q-35 -53 -94.5 -82t-120.5 -29zM348 76q45 0 84 17t67.5 46t45 69t16.5 85t-16.5 84.5t-45 69t-67.5 46.5t-84 17q-44 0 -82.5 -17
t-67 -46.5t-45 -69t-16.5 -84.5t16.5 -85t45 -69t67 -46t82.5 -17zM414 815h105l-146 -163h-75z" />
    <glyph glyph-name="acircumflex" unicode="&#xe2;" horiz-adv-x="712" 
d="M339 -12q-61 0 -115.5 23t-95 63.5t-64 96.5t-23.5 121q0 66 23 121.5t63.5 96.5t95 64t116.5 23t121 -28.5t94 -80.5v97h94v-585h-94v99q-35 -53 -94.5 -82t-120.5 -29zM348 76q45 0 84 17t67.5 46t45 69t16.5 85t-16.5 84.5t-45 69t-67.5 46.5t-84 17q-44 0 -82.5 -17
t-67 -46.5t-45 -69t-16.5 -84.5t16.5 -85t45 -69t67 -46t82.5 -17zM307 811h69l119 -163h-84l-70 98l-68 -98h-85z" />
    <glyph glyph-name="atilde" unicode="&#xe3;" horiz-adv-x="712" 
d="M339 -12q-61 0 -115.5 23t-95 63.5t-64 96.5t-23.5 121q0 66 23 121.5t63.5 96.5t95 64t116.5 23t121 -28.5t94 -80.5v97h94v-585h-94v99q-35 -53 -94.5 -82t-120.5 -29zM348 76q45 0 84 17t67.5 46t45 69t16.5 85t-16.5 84.5t-45 69t-67.5 46.5t-84 17q-44 0 -82.5 -17
t-67 -46.5t-45 -69t-16.5 -84.5t16.5 -85t45 -69t67 -46t82.5 -17zM179 652q0 56 27 89.5t73 33.5q25 0 44 -8t36 -19l30.5 -18.5t30.5 -8.5q36 0 36 50h66q0 -57 -25.5 -90t-75.5 -33q-29 0 -50.5 10.5t-40.5 21.5l-25.5 14.5t-25.5 6.5q-35 0 -35 -49h-65z" />
    <glyph glyph-name="adieresis" unicode="&#xe4;" horiz-adv-x="712" 
d="M339 -12q-61 0 -115.5 23t-95 63.5t-64 96.5t-23.5 121q0 66 23 121.5t63.5 96.5t95 64t116.5 23t121 -28.5t94 -80.5v97h94v-585h-94v99q-35 -53 -94.5 -82t-120.5 -29zM348 76q45 0 84 17t67.5 46t45 69t16.5 85t-16.5 84.5t-45 69t-67.5 46.5t-84 17q-44 0 -82.5 -17
t-67 -46.5t-45 -69t-16.5 -84.5t16.5 -85t45 -69t67 -46t82.5 -17zM185 713q0 28 17 45t46 17q31 0 47.5 -17t16.5 -45q0 -29 -16.5 -46t-47.5 -17q-30 0 -46.5 17t-16.5 46zM380 713q0 28 17 45t46 17q31 0 47.5 -17t16.5 -45q0 -29 -16.5 -46t-47.5 -17q-30 0 -46.5 17
t-16.5 46z" />
    <glyph glyph-name="aring" unicode="&#xe5;" horiz-adv-x="712" 
d="M339 -12q-61 0 -115.5 23t-95 63.5t-64 96.5t-23.5 121q0 66 23 121.5t63.5 96.5t95 64t116.5 23t121 -28.5t94 -80.5v97h94v-585h-94v99q-35 -53 -94.5 -82t-120.5 -29zM348 76q45 0 84 17t67.5 46t45 69t16.5 85t-16.5 84.5t-45 69t-67.5 46.5t-84 17q-44 0 -82.5 -17
t-67 -46.5t-45 -69t-16.5 -84.5t16.5 -85t45 -69t67 -46t82.5 -17zM349 646q-22 0 -42 8.5t-34.5 23t-23 34.5t-8.5 43t8.5 43t23 35t34.5 23.5t42 8.5q23 0 43.5 -8.5t35.5 -23.5t23.5 -35t8.5 -43t-8.5 -43t-23.5 -34.5t-35.5 -23t-43.5 -8.5zM349 709q20 0 33.5 13
t13.5 33q0 19 -13.5 33t-33.5 14q-19 0 -32.5 -14t-13.5 -33q0 -20 13.5 -33t32.5 -13z" />
    <glyph glyph-name="ae" unicode="&#xe6;" horiz-adv-x="1094" 
d="M756 -12q-89 0 -156 36.5t-106 98.5q-14 -26 -38 -50.5t-55.5 -43t-70 -30t-83.5 -11.5q-55 0 -94.5 12t-64.5 34t-37 51.5t-13 63.5q0 42 16 72.5t44.5 51.5t66.5 34.5t81 23.5l75 17t66 18.5t46.5 25.5t17.5 39q0 38 -36 64t-108 26q-81 0 -124 -38.5t-43 -96.5v-3h-88
v2q0 49 17.5 88t50 66.5t79.5 42.5t105 15q81 0 137 -26.5t82 -74.5q41 47 98.5 74t128.5 27q64 0 119 -21.5t95.5 -61t63.5 -94t23 -120.5v-37h-512q5 -42 23 -77t46.5 -60t66 -39t81.5 -14q71 0 121 35.5t76 92.5l82 -38q-38 -81 -108.5 -128t-170.5 -47zM750 512
q-39 0 -72.5 -12.5t-60 -34t-45 -52t-27.5 -66.5h409q-14 78 -68 121.5t-136 43.5zM252 68q42 0 76.5 15t61 37t43.5 48t23 48q-7 32 -7 73v16.5t1 16.5q-12 -22 -53 -34.5t-107 -26.5q-36 -7 -64.5 -15.5t-49 -21t-31 -30t-10.5 -43.5q0 -35 27 -59t90 -24z" />
    <glyph glyph-name="ccedilla" unicode="&#xe7;" horiz-adv-x="659" 
d="M341 -235q-44 0 -80 15.5t-63 40.5l64 39q18 -15 36.5 -25t47.5 -10q27 0 46 11t19 28q0 34 -68 34h-43v94q-57 8 -104.5 34.5t-82 66t-53.5 91t-19 108.5q0 65 24 121t65 97t97.5 64t120.5 23q48 0 91 -13t78 -36.5t62 -56.5t43 -72l-85 -36q-26 59 -75 92.5t-115 33.5
q-45 0 -83.5 -17t-66.5 -46t-44 -69t-16 -85t16 -84t44.5 -68.5t67.5 -46.5t85 -17q70 0 118 38t72 95l87 -38q-33 -77 -98.5 -127t-159.5 -55v-42q54 1 86 -22t32 -58q0 -23 -11.5 -41.5t-31.5 -32t-46.5 -21t-56.5 -7.5z" />
    <glyph glyph-name="egrave" unicode="&#xe8;" horiz-adv-x="688" 
d="M350 -12q-70 0 -127 23t-97.5 63.5t-62.5 95.5t-22 119q0 65 23 121.5t63.5 98t96.5 65t121 23.5q64 0 119 -21.5t95 -61t63 -94t23 -120.5v-40h-511q5 -42 22.5 -76t46 -59t66 -38.5t81.5 -13.5q70 0 119.5 33.5t75.5 90.5l81 -43q-40 -78 -108 -122t-168 -44zM345 512
q-39 0 -73 -12.5t-61 -34.5t-45.5 -53t-26.5 -67h409q-13 78 -66 122.5t-137 44.5zM169 815h104l117 -163h-75z" />
    <glyph glyph-name="eacute" unicode="&#xe9;" horiz-adv-x="688" 
d="M350 -12q-70 0 -127 23t-97.5 63.5t-62.5 95.5t-22 119q0 65 23 121.5t63.5 98t96.5 65t121 23.5q64 0 119 -21.5t95 -61t63 -94t23 -120.5v-40h-511q5 -42 22.5 -76t46 -59t66 -38.5t81.5 -13.5q70 0 119.5 33.5t75.5 90.5l81 -43q-40 -78 -108 -122t-168 -44zM345 512
q-39 0 -73 -12.5t-61 -34.5t-45.5 -53t-26.5 -67h409q-13 78 -66 122.5t-137 44.5zM431 815h105l-146 -163h-75z" />
    <glyph glyph-name="ecircumflex" unicode="&#xea;" horiz-adv-x="688" 
d="M350 -12q-70 0 -127 23t-97.5 63.5t-62.5 95.5t-22 119q0 65 23 121.5t63.5 98t96.5 65t121 23.5q64 0 119 -21.5t95 -61t63 -94t23 -120.5v-40h-511q5 -42 22.5 -76t46 -59t66 -38.5t81.5 -13.5q70 0 119.5 33.5t75.5 90.5l81 -43q-40 -78 -108 -122t-168 -44zM345 512
q-39 0 -73 -12.5t-61 -34.5t-45.5 -53t-26.5 -67h409q-13 78 -66 122.5t-137 44.5zM315 805h69l119 -163h-84l-70 98l-68 -98h-85z" />
    <glyph glyph-name="edieresis" unicode="&#xeb;" horiz-adv-x="688" 
d="M350 -12q-70 0 -127 23t-97.5 63.5t-62.5 95.5t-22 119q0 65 23 121.5t63.5 98t96.5 65t121 23.5q64 0 119 -21.5t95 -61t63 -94t23 -120.5v-40h-511q5 -42 22.5 -76t46 -59t66 -38.5t81.5 -13.5q70 0 119.5 33.5t75.5 90.5l81 -43q-40 -78 -108 -122t-168 -44zM345 512
q-39 0 -73 -12.5t-61 -34.5t-45.5 -53t-26.5 -67h409q-13 78 -66 122.5t-137 44.5zM387 709q0 28 17 45t46 17q31 0 47.5 -17t16.5 -45q0 -29 -16.5 -46t-47.5 -17q-30 0 -46.5 17t-16.5 46zM192 709q0 28 17 45t46 17q31 0 47.5 -17t16.5 -45q0 -29 -16.5 -46t-47.5 -17
q-30 0 -46.5 17t-16.5 46z" />
    <glyph glyph-name="igrave" unicode="&#xec;" horiz-adv-x="224" 
d="M64 585h96v-585h-96v585zM-67 805h104l117 -163h-75z" />
    <glyph glyph-name="iacute" unicode="&#xed;" horiz-adv-x="224" 
d="M191 805h105l-146 -163h-75zM64 585h96v-585h-96v585z" />
    <glyph glyph-name="icircumflex" unicode="&#xee;" horiz-adv-x="224" 
d="M64 585h96v-585h-96v585zM78 799h69l119 -163h-84l-70 98l-68 -98h-85z" />
    <glyph glyph-name="idieresis" unicode="&#xef;" horiz-adv-x="224" 
d="M177 814h96v-162h-96v162zM-48 814h96v-162h-96v162zM64 585h96v-585h-96v585z" />
    <glyph glyph-name="eth" unicode="&#xf0;" horiz-adv-x="682" 
d="M298 730l-75 60t-87 64h143l44 -36l41 -35l90 71h99l-143 -114q118 -115 172 -227.5t54 -227.5q0 -61 -23 -114.5t-62.5 -93t-93.5 -62t-117 -22.5q-61 0 -114.5 22t-93.5 61t-63.5 92t-23.5 115t22.5 115t61 92t90.5 61t110 22q54 0 92.5 -15t65.5 -40q-24 42 -59 83.5
t-83 86.5l-85 -67h-101zM341 81q41 0 77.5 16t63.5 43.5t43 64t16 78.5q0 41 -15.5 78t-42 64.5t-63 43.5t-78.5 16q-41 0 -77.5 -15.5t-64 -43t-43.5 -64.5t-16 -79t16 -79t43.5 -64t64 -43t76.5 -16z" />
    <glyph glyph-name="ntilde" unicode="&#xf1;" horiz-adv-x="667" 
d="M64 585h94v-90q30 46 81 74t117 28q57 0 103.5 -18t78.5 -52.5t49.5 -83.5t17.5 -111v-332h-96v328q0 84 -43 134t-128 50q-38 0 -71 -14t-57 -39t-37.5 -59.5t-13.5 -75.5v-324h-95v585zM175 652q0 56 27 89.5t73 33.5q25 0 44 -8t36 -19l30.5 -18.5t30.5 -8.5
q36 0 36 50h66q0 -57 -25.5 -90t-75.5 -33q-29 0 -50.5 10.5t-40.5 21.5l-25.5 14.5t-25.5 6.5q-35 0 -35 -49h-65z" />
    <glyph glyph-name="ograve" unicode="&#xf2;" horiz-adv-x="691" 
d="M344 -12q-63 0 -118 23.5t-96.5 64.5t-65 96.5t-23.5 119.5q0 65 23.5 120.5t65 96.5t96.5 64.5t118 23.5t118.5 -23.5t97 -64.5t65 -96.5t23.5 -120.5q0 -64 -23.5 -119.5t-65 -96.5t-97 -64.5t-118.5 -23.5zM344 76q44 0 82 17t66.5 46.5t44.5 68.5t16 84t-16 84.5
t-44.5 69t-66.5 46.5t-82 17q-43 0 -81 -17t-66 -46.5t-44 -69t-16 -84.5t16 -84t44 -68.5t66 -46.5t81 -17zM171 815h104l117 -163h-75z" />
    <glyph glyph-name="oacute" unicode="&#xf3;" horiz-adv-x="691" 
d="M418 815h105l-146 -163h-75zM344 -12q-63 0 -118 23.5t-96.5 64.5t-65 96.5t-23.5 119.5q0 65 23.5 120.5t65 96.5t96.5 64.5t118 23.5t118.5 -23.5t97 -64.5t65 -96.5t23.5 -120.5q0 -64 -23.5 -119.5t-65 -96.5t-97 -64.5t-118.5 -23.5zM344 76q44 0 82 17t66.5 46.5
t44.5 68.5t16 84t-16 84.5t-44.5 69t-66.5 46.5t-82 17q-43 0 -81 -17t-66 -46.5t-44 -69t-16 -84.5t16 -84t44 -68.5t66 -46.5t81 -17z" />
    <glyph glyph-name="ocircumflex" unicode="&#xf4;" horiz-adv-x="691" 
d="M344 -12q-63 0 -118 23.5t-96.5 64.5t-65 96.5t-23.5 119.5q0 65 23.5 120.5t65 96.5t96.5 64.5t118 23.5t118.5 -23.5t97 -64.5t65 -96.5t23.5 -120.5q0 -64 -23.5 -119.5t-65 -96.5t-97 -64.5t-118.5 -23.5zM344 76q44 0 82 17t66.5 46.5t44.5 68.5t16 84t-16 84.5
t-44.5 69t-66.5 46.5t-82 17q-43 0 -81 -17t-66 -46.5t-44 -69t-16 -84.5t16 -84t44 -68.5t66 -46.5t81 -17zM309 815h69l119 -163h-84l-70 98l-68 -98h-85z" />
    <glyph glyph-name="otilde" unicode="&#xf5;" horiz-adv-x="691" 
d="M344 -12q-63 0 -118 23.5t-96.5 64.5t-65 96.5t-23.5 119.5q0 65 23.5 120.5t65 96.5t96.5 64.5t118 23.5t118.5 -23.5t97 -64.5t65 -96.5t23.5 -120.5q0 -64 -23.5 -119.5t-65 -96.5t-97 -64.5t-118.5 -23.5zM344 76q44 0 82 17t66.5 46.5t44.5 68.5t16 84t-16 84.5
t-44.5 69t-66.5 46.5t-82 17q-43 0 -81 -17t-66 -46.5t-44 -69t-16 -84.5t16 -84t44 -68.5t66 -46.5t81 -17zM183 652q0 56 27 89.5t73 33.5q25 0 44 -8t36 -19l30.5 -18.5t30.5 -8.5q36 0 36 50h66q0 -57 -25.5 -90t-75.5 -33q-29 0 -50.5 10.5t-40.5 21.5l-25.5 14.5
t-25.5 6.5q-35 0 -35 -49h-65z" />
    <glyph glyph-name="odieresis" unicode="&#xf6;" horiz-adv-x="691" 
d="M181 704q0 28 17 45t46 17q31 0 47.5 -17t16.5 -45q0 -29 -16.5 -46t-47.5 -17q-30 0 -46.5 17t-16.5 46zM376 704q0 28 17 45t46 17q31 0 47.5 -17t16.5 -45q0 -29 -16.5 -46t-47.5 -17q-30 0 -46.5 17t-16.5 46zM344 -12q-63 0 -118 23.5t-96.5 64.5t-65 96.5
t-23.5 119.5q0 65 23.5 120.5t65 96.5t96.5 64.5t118 23.5t118.5 -23.5t97 -64.5t65 -96.5t23.5 -120.5q0 -64 -23.5 -119.5t-65 -96.5t-97 -64.5t-118.5 -23.5zM344 76q44 0 82 17t66.5 46.5t44.5 68.5t16 84t-16 84.5t-44.5 69t-66.5 46.5t-82 17q-43 0 -81 -17t-66 -46.5
t-44 -69t-16 -84.5t16 -84t44 -68.5t66 -46.5t81 -17z" />
    <glyph glyph-name="divide" unicode="&#xf7;" 
d="M46 406h370v-82h-370v82zM191 572h81v-119h-81v119zM191 276h81v-119h-81v119z" />
    <glyph glyph-name="oslash" unicode="&#xf8;" horiz-adv-x="691" 
d="M344 -12q-42 0 -80.5 10.5t-71.5 29.5l-22 -28h-101l59 77q-41 42 -64 96.5t-23 118.5q0 65 23.5 120.5t65 96.5t96.5 64.5t118 23.5q42 0 80.5 -10.5t72.5 -30.5l22 29h102l-60 -78q41 -42 64 -96.5t23 -118.5t-23.5 -119.5t-65 -96.5t-97 -64.5t-118.5 -23.5zM344 76
q44 0 82.5 17t66.5 46.5t44 68.5t16 84q0 41 -13 76.5t-36 64.5l-257 -333q42 -24 97 -24zM137 292q0 -41 12.5 -76.5t35.5 -63.5l256 332q-45 25 -97 25q-44 0 -82 -17t-65.5 -46t-43.5 -69t-16 -85z" />
    <glyph glyph-name="ugrave" unicode="&#xf9;" horiz-adv-x="636" 
d="M302 -12q-115 0 -177.5 70t-62.5 195v332h96v-328q0 -84 38.5 -134t121.5 -50q75 0 117 52t42 135v325h95v-585h-93v82q-26 -43 -70 -68.5t-107 -25.5zM139 795h104l117 -163h-75z" />
    <glyph glyph-name="uacute" unicode="&#xfa;" horiz-adv-x="636" 
d="M302 -12q-115 0 -177.5 70t-62.5 195v332h96v-328q0 -84 38.5 -134t121.5 -50q75 0 117 52t42 135v325h95v-585h-93v82q-26 -43 -70 -68.5t-107 -25.5zM384 784h105l-146 -163h-75z" />
    <glyph glyph-name="ucircumflex" unicode="&#xfb;" horiz-adv-x="636" 
d="M302 -12q-115 0 -177.5 70t-62.5 195v332h96v-328q0 -84 38.5 -134t121.5 -50q75 0 117 52t42 135v325h95v-585h-93v82q-26 -43 -70 -68.5t-107 -25.5zM286 805h69l119 -163h-84l-70 98l-68 -98h-85z" />
    <glyph glyph-name="udieresis" unicode="&#xfc;" horiz-adv-x="636" 
d="M302 -12q-115 0 -177.5 70t-62.5 195v332h96v-328q0 -84 38.5 -134t121.5 -50q75 0 117 52t42 135v325h95v-585h-93v82q-26 -43 -70 -68.5t-107 -25.5zM346 702q0 28 17 45t46 17q31 0 47.5 -17t16.5 -45q0 -29 -16.5 -46t-47.5 -17q-30 0 -46.5 17t-16.5 46zM151 702
q0 28 17 45t46 17q31 0 47.5 -17t16.5 -45q0 -29 -16.5 -46t-47.5 -17q-30 0 -46.5 17t-16.5 46z" />
    <glyph glyph-name="yacute" unicode="&#xfd;" horiz-adv-x="635" 
d="M276 31l-252 554h104l197 -443l183 443h102l-366 -855h-100zM381 781h105l-146 -163h-75z" />
    <glyph glyph-name="thorn" unicode="&#xfe;" horiz-adv-x="710" 
d="M373 -12q-70 0 -126 30t-90 78v-365h-92v1123h92v-368q35 49 92 80t126 31q62 0 116 -22.5t94 -63t62.5 -95.5t22.5 -121t-23 -122t-63.5 -97.5t-94.5 -64.5t-116 -23zM365 76q46 0 84.5 17.5t66.5 47.5t43.5 69.5t15.5 84.5q0 44 -15 83t-43 68.5t-66 46.5t-85 17
q-45 0 -84 -17t-67.5 -46.5t-45 -69t-16.5 -84.5q0 -44 16.5 -83.5t45 -69t67.5 -47t83 -17.5z" />
    <glyph glyph-name="ydieresis" unicode="&#xff;" horiz-adv-x="635" 
d="M276 31l-252 554h104l197 -443l183 443h102l-366 -855h-100zM359 694q0 28 17 45t46 17q31 0 47.5 -17t16.5 -45q0 -29 -16.5 -46t-47.5 -17q-30 0 -46.5 17t-16.5 46zM164 694q0 28 17 45t46 17q31 0 47.5 -17t16.5 -45q0 -29 -16.5 -46t-47.5 -17q-30 0 -46.5 17
t-16.5 46z" />
    <glyph glyph-name="Amacron" unicode="&#x100;" horiz-adv-x="696" 
d="M298 730h101l270 -730h-101l-62 167h-316l-61 -167h-102zM224 260h248l-124 337zM214 857h264v-70h-264v70z" />
    <glyph glyph-name="amacron" unicode="&#x101;" horiz-adv-x="712" 
d="M339 -12q-61 0 -115.5 23t-95 63.5t-64 96.5t-23.5 121q0 66 23 121.5t63.5 96.5t95 64t116.5 23t121 -28.5t94 -80.5v97h94v-585h-94v99q-35 -53 -94.5 -82t-120.5 -29zM348 76q45 0 84 17t67.5 46t45 69t16.5 85t-16.5 84.5t-45 69t-67.5 46.5t-84 17q-44 0 -82.5 -17
t-67 -46.5t-45 -69t-16.5 -84.5t16.5 -85t45 -69t67 -46t82.5 -17zM215 723h264v-70h-264v70z" />
    <glyph glyph-name="Abreve" unicode="&#x102;" horiz-adv-x="696" 
d="M298 730h101l270 -730h-101l-62 167h-316l-61 -167h-102zM224 260h248l-124 337zM344 782q-41 0 -71.5 13t-50.5 35t-29.5 52t-9.5 64h70q0 -48 23 -75t68 -28q44 1 67.5 28t23.5 75h71q0 -34 -11 -64t-32 -52t-51 -35t-68 -13z" />
    <glyph glyph-name="abreve" unicode="&#x103;" horiz-adv-x="712" 
d="M339 -12q-61 0 -115.5 23t-95 63.5t-64 96.5t-23.5 121q0 66 23 121.5t63.5 96.5t95 64t116.5 23t121 -28.5t94 -80.5v97h94v-585h-94v99q-35 -53 -94.5 -82t-120.5 -29zM348 76q45 0 84 17t67.5 46t45 69t16.5 85t-16.5 84.5t-45 69t-67.5 46.5t-84 17q-44 0 -82.5 -17
t-67 -46.5t-45 -69t-16.5 -84.5t16.5 -85t45 -69t67 -46t82.5 -17zM347 647q-41 0 -71.5 13t-50.5 35t-29.5 52t-9.5 64h70q0 -48 23 -75t68 -28q44 1 67.5 28t23.5 75h71q0 -34 -11 -64t-32 -52t-51 -35t-68 -13z" />
    <glyph glyph-name="Aogonek" unicode="&#x104;" horiz-adv-x="696" 
d="M597 -219q-62 0 -99.5 29.5t-37.5 73.5q0 33 21.5 64t81.5 65l-57 154h-316l-61 -167h-102l271 730h101l270 -730h-3l2 -1l-62.5 -40t-38.5 -28.5t-19 -22.5t-5 -21q0 -19 15.5 -28.5t38.5 -9.5t39.5 9.5t31.5 23.5l65 -44q-26 -23 -62.5 -40t-73.5 -17zM224 260h248
l-124 337z" />
    <glyph glyph-name="aogonek" unicode="&#x105;" horiz-adv-x="712" 
d="M339 -12q-61 0 -115.5 23t-95 63.5t-64 96.5t-23.5 121q0 66 23 121.5t63.5 96.5t95 64t116.5 23t121 -28.5t94 -80.5v97h94v-585q-47 -34 -68 -61t-21 -49q0 -20 13 -31.5t33 -11.5t34 8.5t27 21.5l55 -52q-23 -20 -53 -34t-65 -14q-60 0 -91.5 32t-32.5 76
q-1 36 19.5 67t55.5 59v88q-35 -53 -94.5 -82t-120.5 -29zM348 76q45 0 84 17t67.5 46t45 69t16.5 85t-16.5 84.5t-45 69t-67.5 46.5t-84 17q-44 0 -82.5 -17t-67 -46.5t-45 -69t-16.5 -84.5t16.5 -85t45 -69t67 -46t82.5 -17z" />
    <glyph glyph-name="Cacute" unicode="&#x106;" horiz-adv-x="769" 
d="M487 950h105l-146 -163h-75zM414 -10q-80 0 -148.5 29.5t-119 80.5t-79 119t-28.5 146q0 80 29.5 148.5t80 118.5t119 79t146.5 29q52 0 99.5 -13.5t89 -37.5t76 -58t58.5 -75l-85 -52q-35 65 -96 104t-142 39q-59 0 -110 -22t-88 -60.5t-58 -89.5t-21 -110
q0 -58 21 -109t58 -89t87.5 -60t109.5 -22q88 0 150.5 42.5t96.5 111.5l87 -46q-24 -45 -58 -82.5t-76.5 -64.5t-92.5 -41.5t-106 -14.5z" />
    <glyph glyph-name="cacute" unicode="&#x107;" horiz-adv-x="659" 
d="M419 815h105l-146 -163h-75zM348 -12q-66 0 -122 24t-97.5 65t-64.5 96.5t-23 118.5q0 65 24 121t65 97t97.5 64t120.5 23q48 0 91 -13t78 -36.5t62 -56.5t43 -72l-85 -36q-26 59 -75 92.5t-115 33.5q-45 0 -83.5 -17t-66.5 -46t-44 -69t-16 -85t16 -84t44.5 -68.5
t67.5 -46.5t85 -17q70 0 118 38t72 95l87 -38q-17 -40 -43.5 -73.5t-62 -58t-79 -38t-94.5 -13.5z" />
    <glyph glyph-name="Ccircumflex" unicode="&#x108;" horiz-adv-x="769" 
d="M414 -10q-80 0 -148.5 29.5t-119 80.5t-79 119t-28.5 146q0 80 29.5 148.5t80 118.5t119 79t146.5 29q52 0 99.5 -13.5t89 -37.5t76 -58t58.5 -75l-85 -52q-35 65 -96 104t-142 39q-59 0 -110 -22t-88 -60.5t-58 -89.5t-21 -110q0 -58 21 -109t58 -89t87.5 -60t109.5 -22
q88 0 150.5 42.5t96.5 111.5l87 -46q-24 -45 -58 -82.5t-76.5 -64.5t-92.5 -41.5t-106 -14.5zM380 950h69l119 -163h-84l-70 98l-68 -98h-85z" />
    <glyph glyph-name="ccircumflex" unicode="&#x109;" horiz-adv-x="659" 
d="M348 -12q-66 0 -122 24t-97.5 65t-64.5 96.5t-23 118.5q0 65 24 121t65 97t97.5 64t120.5 23q48 0 91 -13t78 -36.5t62 -56.5t43 -72l-85 -36q-26 59 -75 92.5t-115 33.5q-45 0 -83.5 -17t-66.5 -46t-44 -69t-16 -85t16 -84t44.5 -68.5t67.5 -46.5t85 -17q70 0 118 38
t72 95l87 -38q-17 -40 -43.5 -73.5t-62 -58t-79 -38t-94.5 -13.5zM318 811h69l119 -163h-84l-70 98l-68 -98h-85z" />
    <glyph glyph-name="Cdotaccent" unicode="&#x10a;" horiz-adv-x="769" 
d="M414 -10q-80 0 -148.5 29.5t-119 80.5t-79 119t-28.5 146q0 80 29.5 148.5t80 118.5t119 79t146.5 29q52 0 99.5 -13.5t89 -37.5t76 -58t58.5 -75l-85 -52q-35 65 -96 104t-142 39q-59 0 -110 -22t-88 -60.5t-58 -89.5t-21 -110q0 -58 21 -109t58 -89t87.5 -60t109.5 -22
q88 0 150.5 42.5t96.5 111.5l87 -46q-24 -45 -58 -82.5t-76.5 -64.5t-92.5 -41.5t-106 -14.5zM356 861q0 29 18 46.5t47 17.5q32 0 49 -17.5t17 -46.5t-17 -47t-49 -18q-31 0 -48 18t-17 47z" />
    <glyph glyph-name="cdotaccent" unicode="&#x10b;" horiz-adv-x="659" 
d="M348 -12q-66 0 -122 24t-97.5 65t-64.5 96.5t-23 118.5q0 65 24 121t65 97t97.5 64t120.5 23q48 0 91 -13t78 -36.5t62 -56.5t43 -72l-85 -36q-26 59 -75 92.5t-115 33.5q-45 0 -83.5 -17t-66.5 -46t-44 -69t-16 -85t16 -84t44.5 -68.5t67.5 -46.5t85 -17q70 0 118 38
t72 95l87 -38q-17 -40 -43.5 -73.5t-62 -58t-79 -38t-94.5 -13.5zM283 715q0 29 18 46.5t47 17.5q32 0 49 -17.5t17 -46.5t-17 -47t-49 -18q-31 0 -48 18t-17 47z" />
    <glyph glyph-name="Ccaron" unicode="&#x10c;" horiz-adv-x="769" 
d="M414 -10q-80 0 -148.5 29.5t-119 80.5t-79 119t-28.5 146q0 80 29.5 148.5t80 118.5t119 79t146.5 29q52 0 99.5 -13.5t89 -37.5t76 -58t58.5 -75l-85 -52q-35 65 -96 104t-142 39q-59 0 -110 -22t-88 -60.5t-58 -89.5t-21 -110q0 -58 21 -109t58 -89t87.5 -60t109.5 -22
q88 0 150.5 42.5t96.5 111.5l87 -46q-24 -45 -58 -82.5t-76.5 -64.5t-92.5 -41.5t-106 -14.5zM258 950h85l68 -98l70 98h84l-119 -163h-69z" />
    <glyph glyph-name="ccaron" unicode="&#x10d;" horiz-adv-x="659" 
d="M348 -12q-66 0 -122 24t-97.5 65t-64.5 96.5t-23 118.5q0 65 24 121t65 97t97.5 64t120.5 23q48 0 91 -13t78 -36.5t62 -56.5t43 -72l-85 -36q-26 59 -75 92.5t-115 33.5q-45 0 -83.5 -17t-66.5 -46t-44 -69t-16 -85t16 -84t44.5 -68.5t67.5 -46.5t85 -17q70 0 118 38
t72 95l87 -38q-17 -40 -43.5 -73.5t-62 -58t-79 -38t-94.5 -13.5zM198 815h85l68 -98l70 98h84l-119 -163h-69z" />
    <glyph glyph-name="Dcaron" unicode="&#x10e;" horiz-adv-x="684" 
d="M60 730h203q87 0 158 -28t120.5 -77t76.5 -115.5t27 -144.5t-28.5 -145t-79 -115.5t-120 -76.5t-150.5 -28h-207v730zM156 641v-551h101q65 0 118 21t91.5 58t59.5 87.5t21 108.5q0 59 -20 109.5t-57.5 87.5t-92 58t-123.5 21h-98zM130 950h85l68 -98l70 98h84l-119 -163
h-69z" />
    <glyph glyph-name="dcaron" unicode="&#x10f;" horiz-adv-x="761" 
d="M339 -12q-61 0 -115.5 23t-95 63.5t-64 96.5t-23.5 121q0 66 23 121.5t63.5 96.5t95 64t116.5 23q61 0 120 -28t94 -80v251h94v-740h-93v99q-35 -53 -94.5 -82t-120.5 -29zM348 76q45 0 84 17t67.5 46t45 69t16.5 85t-16.5 84.5t-45 69t-67.5 46.5t-84 17
q-44 0 -82.5 -17t-67 -46.5t-45 -69t-16.5 -84.5t16.5 -85t45 -69t67 -46t82.5 -17zM725 741h82l-56 -176h-62z" />
    <glyph glyph-name="Dcroat" unicode="&#x110;" horiz-adv-x="717" 
d="M22 411h73v319h201q87 0 158 -28t120.5 -77t76.5 -115.5t27 -144.5t-28.5 -145t-79 -115.5t-120 -76.5t-150.5 -28h-205v323h-73v88zM192 641v-230h198v-88h-198v-233h97q65 0 118.5 21t92 58t60 87.5t21.5 108.5q0 59 -20 109.5t-58 87.5t-93 58t-124 21h-94z" />
    <glyph glyph-name="dcroat" unicode="&#x111;" horiz-adv-x="715" 
d="M456 679h97v61h94v-61h68v-69h-68v-610h-93v99q-35 -53 -94.5 -82t-120.5 -29t-115.5 23t-95 63.5t-64 96.5t-23.5 121q0 66 23 121.5t63.5 96.5t95 64t116.5 23q61 0 120 -28t94 -80v121h-97v69zM348 76q45 0 84 17t67.5 46t45 69t16.5 85t-16.5 84.5t-45 69t-67.5 46.5
t-84 17q-44 0 -82.5 -17t-67 -46.5t-45 -69t-16.5 -84.5t16.5 -85t45 -69t67 -46t82.5 -17z" />
    <glyph glyph-name="Emacron" unicode="&#x112;" horiz-adv-x="551" 
d="M60 730h440v-92h-344v-226h344v-92h-344v-227h344v-93h-440v730zM145 857h264v-70h-264v70z" />
    <glyph glyph-name="emacron" unicode="&#x113;" horiz-adv-x="688" 
d="M350 -12q-70 0 -127 23t-97.5 63.5t-62.5 95.5t-22 119q0 65 23 121.5t63.5 98t96.5 65t121 23.5q64 0 119 -21.5t95 -61t63 -94t23 -120.5v-40h-511q5 -42 22.5 -76t46 -59t66 -38.5t81.5 -13.5q70 0 119.5 33.5t75.5 90.5l81 -43q-40 -78 -108 -122t-168 -44zM345 512
q-39 0 -73 -12.5t-61 -34.5t-45.5 -53t-26.5 -67h409q-13 78 -66 122.5t-137 44.5zM219 724h264v-70h-264v70z" />
    <glyph glyph-name="Ebreve" unicode="&#x114;" horiz-adv-x="551" 
d="M60 730h440v-92h-344v-226h344v-92h-344v-227h344v-93h-440v730zM280 782q-41 0 -71.5 13t-50.5 35t-29.5 52t-9.5 64h70q0 -48 23 -75t68 -28q44 1 67.5 28t23.5 75h71q0 -34 -11 -64t-32 -52t-51 -35t-68 -13z" />
    <glyph glyph-name="ebreve" unicode="&#x115;" horiz-adv-x="688" 
d="M350 -12q-70 0 -127 23t-97.5 63.5t-62.5 95.5t-22 119q0 65 23 121.5t63.5 98t96.5 65t121 23.5q64 0 119 -21.5t95 -61t63 -94t23 -120.5v-40h-511q5 -42 22.5 -76t46 -59t66 -38.5t81.5 -13.5q70 0 119.5 33.5t75.5 90.5l81 -43q-40 -78 -108 -122t-168 -44zM345 512
q-39 0 -73 -12.5t-61 -34.5t-45.5 -53t-26.5 -67h409q-13 78 -66 122.5t-137 44.5zM350 647q-41 0 -71.5 13t-50.5 35t-29.5 52t-9.5 64h70q0 -48 23 -75t68 -28q44 1 67.5 28t23.5 75h71q0 -34 -11 -64t-32 -52t-51 -35t-68 -13z" />
    <glyph glyph-name="Edotaccent" unicode="&#x116;" horiz-adv-x="551" 
d="M60 730h440v-92h-344v-226h344v-92h-344v-227h344v-93h-440v730zM227 861q0 29 18 46.5t47 17.5q32 0 49 -17.5t17 -46.5t-17 -47t-49 -18q-31 0 -48 18t-17 47z" />
    <glyph glyph-name="edotaccent" unicode="&#x117;" horiz-adv-x="688" 
d="M350 -12q-70 0 -127 23t-97.5 63.5t-62.5 95.5t-22 119q0 65 23 121.5t63.5 98t96.5 65t121 23.5q64 0 119 -21.5t95 -61t63 -94t23 -120.5v-40h-511q5 -42 22.5 -76t46 -59t66 -38.5t81.5 -13.5q70 0 119.5 33.5t75.5 90.5l81 -43q-40 -78 -108 -122t-168 -44zM345 512
q-39 0 -73 -12.5t-61 -34.5t-45.5 -53t-26.5 -67h409q-13 78 -66 122.5t-137 44.5zM283 713q0 29 18 46.5t47 17.5q32 0 49 -17.5t17 -46.5t-17 -47t-49 -18q-31 0 -48 18t-17 47z" />
    <glyph glyph-name="Eogonek" unicode="&#x118;" horiz-adv-x="551" 
d="M60 730h440v-92h-344v-226h344v-92h-344v-227h344v-93h-2l2 -1l-62.5 -40t-38.5 -28.5t-19 -22.5t-5 -21q0 -19 15.5 -28.5t38.5 -9.5t39.5 9.5t31.5 23.5l65 -44q-26 -23 -62.5 -40t-73.5 -17q-62 0 -99.5 29.5t-37.5 73.5q0 29 17.5 57.5t63.5 58.5h-313v730z" />
    <glyph glyph-name="eogonek" unicode="&#x119;" horiz-adv-x="688" 
d="M360 -219q-62 0 -99.5 29.5t-37.5 73.5q0 28 15 54.5t55 54.5q-58 9 -104.5 34.5t-79.5 64.5t-50.5 89.5t-17.5 107.5q0 65 23 121.5t63.5 98t96.5 65t121 23.5q64 0 119 -21.5t95 -61t63 -94t23 -120.5v-40h-511q5 -42 22.5 -76t46 -59t66 -38.5t81.5 -13.5
q70 0 119.5 33.5t75.5 90.5l81 -43q-32 -62 -82 -103t-119 -55l-59.5 -38.5t-36.5 -27.5t-18 -22t-5 -21q0 -19 15.5 -28.5t38.5 -9.5t39.5 9.5t31.5 23.5l65 -44q-26 -23 -62.5 -40t-73.5 -17zM345 512q-39 0 -73 -12.5t-61 -34.5t-45.5 -53t-26.5 -67h409
q-13 78 -66 122.5t-137 44.5z" />
    <glyph glyph-name="Ecaron" unicode="&#x11a;" horiz-adv-x="552" 
d="M60 730h440v-92h-344v-226h344v-92h-344v-227h344v-93h-440v730zM122 950h85l68 -98l70 98h84l-119 -163h-69z" />
    <glyph glyph-name="ecaron" unicode="&#x11b;" horiz-adv-x="688" 
d="M350 -12q-70 0 -127 23t-97.5 63.5t-62.5 95.5t-22 119q0 65 23 121.5t63.5 98t96.5 65t121 23.5q64 0 119 -21.5t95 -61t63 -94t23 -120.5v-40h-511q5 -42 22.5 -76t46 -59t66 -38.5t81.5 -13.5q70 0 119.5 33.5t75.5 90.5l81 -43q-40 -78 -108 -122t-168 -44zM345 512
q-39 0 -73 -12.5t-61 -34.5t-45.5 -53t-26.5 -67h409q-13 78 -66 122.5t-137 44.5zM197 815h85l68 -98l70 98h84l-119 -163h-69z" />
    <glyph glyph-name="Gcircumflex" unicode="&#x11c;" horiz-adv-x="820" 
d="M418 -10q-82 0 -151.5 30t-120 81t-79 119t-28.5 145q0 78 28.5 146.5t79 119t120 80t151.5 29.5q54 0 103 -13.5t90.5 -38t75 -59t57.5 -76.5l-84 -51q-37 68 -99 106.5t-143 38.5q-62 0 -113.5 -22.5t-89 -61t-58 -89.5t-20.5 -109t21 -109t58 -89.5t89 -60.5t113 -22
q56 0 101 16.5t78 45.5t54 69.5t29 88.5h-274v92h375v-34q0 -75 -24.5 -142.5t-71.5 -118.5t-114 -81t-153 -30zM377 950h69l119 -163h-84l-70 98l-68 -98h-85z" />
    <glyph glyph-name="gcircumflex" unicode="&#x11d;" horiz-adv-x="714" 
d="M339 -12q-61 0 -115.5 23t-95 63.5t-64 96.5t-23.5 121q0 66 23 121.5t63.5 96.5t95 64t116.5 23t121 -29t94 -82v99h95v-574q0 -68 -22 -122.5t-61.5 -93t-94.5 -59.5t-122 -21q-107 0 -175 41.5t-109 113.5l84 50q16 -27 34 -48.5t41.5 -37.5t54 -24.5t71.5 -8.5
q47 0 85 15t64.5 42.5t40.5 65.5t14 84v91q-35 -53 -94.5 -82t-120.5 -29zM348 76q45 0 84 17t67.5 46t45 69t16.5 85t-16.5 84.5t-45 69t-67.5 46.5t-84 17q-44 0 -82.5 -17t-67 -46.5t-45 -69t-16.5 -84.5t16.5 -85t45 -69t67 -46t82.5 -17zM309 813h69l119 -163h-84
l-70 98l-68 -98h-85z" />
    <glyph glyph-name="Gbreve" unicode="&#x11e;" horiz-adv-x="820" 
d="M418 -10q-82 0 -151.5 30t-120 81t-79 119t-28.5 145q0 78 28.5 146.5t79 119t120 80t151.5 29.5q54 0 103 -13.5t90.5 -38t75 -59t57.5 -76.5l-84 -51q-37 68 -99 106.5t-143 38.5q-62 0 -113.5 -22.5t-89 -61t-58 -89.5t-20.5 -109t21 -109t58 -89.5t89 -60.5t113 -22
q56 0 101 16.5t78 45.5t54 69.5t29 88.5h-274v92h375v-34q0 -75 -24.5 -142.5t-71.5 -118.5t-114 -81t-153 -30zM410 782q-41 0 -71.5 13t-50.5 35t-29.5 52t-9.5 64h70q0 -48 23 -75t68 -28q44 1 67.5 28t23.5 75h71q0 -34 -11 -64t-32 -52t-51 -35t-68 -13z" />
    <glyph glyph-name="gbreve" unicode="&#x11f;" horiz-adv-x="714" 
d="M339 -12q-61 0 -115.5 23t-95 63.5t-64 96.5t-23.5 121q0 66 23 121.5t63.5 96.5t95 64t116.5 23t121 -29t94 -82v99h95v-574q0 -68 -22 -122.5t-61.5 -93t-94.5 -59.5t-122 -21q-107 0 -175 41.5t-109 113.5l84 50q16 -27 34 -48.5t41.5 -37.5t54 -24.5t71.5 -8.5
q47 0 85 15t64.5 42.5t40.5 65.5t14 84v91q-35 -53 -94.5 -82t-120.5 -29zM348 76q45 0 84 17t67.5 46t45 69t16.5 85t-16.5 84.5t-45 69t-67.5 46.5t-84 17q-44 0 -82.5 -17t-67 -46.5t-45 -69t-16.5 -84.5t16.5 -85t45 -69t67 -46t82.5 -17zM359 650q-41 0 -71.5 13
t-50.5 35t-29.5 52t-9.5 64h70q0 -48 23 -75t68 -28q44 1 67.5 28t23.5 75h71q0 -34 -11 -64t-32 -52t-51 -35t-68 -13z" />
    <glyph glyph-name="Gdotaccent" unicode="&#x120;" horiz-adv-x="820" 
d="M418 -10q-82 0 -151.5 30t-120 81t-79 119t-28.5 145q0 78 28.5 146.5t79 119t120 80t151.5 29.5q54 0 103 -13.5t90.5 -38t75 -59t57.5 -76.5l-84 -51q-37 68 -99 106.5t-143 38.5q-62 0 -113.5 -22.5t-89 -61t-58 -89.5t-20.5 -109t21 -109t58 -89.5t89 -60.5t113 -22
q56 0 101 16.5t78 45.5t54 69.5t29 88.5h-274v92h375v-34q0 -75 -24.5 -142.5t-71.5 -118.5t-114 -81t-153 -30zM348 861q0 29 18 46.5t47 17.5q32 0 49 -17.5t17 -46.5t-17 -47t-49 -18q-31 0 -48 18t-17 47z" />
    <glyph glyph-name="gdotaccent" unicode="&#x121;" horiz-adv-x="714" 
d="M339 -12q-61 0 -115.5 23t-95 63.5t-64 96.5t-23.5 121q0 66 23 121.5t63.5 96.5t95 64t116.5 23t121 -29t94 -82v99h95v-574q0 -68 -22 -122.5t-61.5 -93t-94.5 -59.5t-122 -21q-107 0 -175 41.5t-109 113.5l84 50q16 -27 34 -48.5t41.5 -37.5t54 -24.5t71.5 -8.5
q47 0 85 15t64.5 42.5t40.5 65.5t14 84v91q-35 -53 -94.5 -82t-120.5 -29zM348 76q45 0 84 17t67.5 46t45 69t16.5 85t-16.5 84.5t-45 69t-67.5 46.5t-84 17q-44 0 -82.5 -17t-67 -46.5t-45 -69t-16.5 -84.5t16.5 -85t45 -69t67 -46t82.5 -17zM275 716q0 29 18 46.5t47 17.5
q32 0 49 -17.5t17 -46.5t-17 -47t-49 -18q-31 0 -48 18t-17 47z" />
    <glyph glyph-name="Gcommaaccent" unicode="&#x122;" horiz-adv-x="820" 
d="M418 -10q-82 0 -151.5 30t-120 81t-79 119t-28.5 145q0 78 28.5 146.5t79 119t120 80t151.5 29.5q54 0 103 -13.5t90.5 -38t75 -59t57.5 -76.5l-84 -51q-37 68 -99 106.5t-143 38.5q-62 0 -113.5 -22.5t-89 -61t-58 -89.5t-20.5 -109t21 -109t58 -89.5t89 -60.5t113 -22
q56 0 101 16.5t78 45.5t54 69.5t29 88.5h-274v92h375v-34q0 -75 -24.5 -142.5t-71.5 -118.5t-114 -81t-153 -30zM339 -259l40 204h86l-63 -204h-63z" />
    <glyph glyph-name="gcommaaccent" unicode="&#x123;" horiz-adv-x="714" 
d="M339 -12q-61 0 -115.5 23t-95 63.5t-64 96.5t-23.5 121q0 66 23 121.5t63.5 96.5t95 64t116.5 23t121 -29t94 -82v99h95v-574q0 -68 -22 -122.5t-61.5 -93t-94.5 -59.5t-122 -21q-107 0 -175 41.5t-109 113.5l84 50q16 -27 34 -48.5t41.5 -37.5t54 -24.5t71.5 -8.5
q47 0 85 15t64.5 42.5t40.5 65.5t14 84v91q-35 -53 -94.5 -82t-120.5 -29zM348 76q45 0 84 17t67.5 46t45 69t16.5 85t-16.5 84.5t-45 69t-67.5 46.5t-84 17q-44 0 -82.5 -17t-67 -46.5t-45 -69t-16.5 -84.5t16.5 -85t45 -69t67 -46t82.5 -17zM304 652l40 204h86l-63 -204
h-63z" />
    <glyph glyph-name="Hcircumflex" unicode="&#x124;" horiz-adv-x="666" 
d="M508 320h-352v-320h-96v730h96v-317h352v317h97v-730h-97v320zM297 950h69l119 -163h-84l-70 98l-68 -98h-85z" />
    <glyph glyph-name="hcircumflex" unicode="&#x125;" horiz-adv-x="669" 
d="M65 740h94v-243q31 45 81.5 72.5t116.5 27.5q57 0 103.5 -18t79 -52.5t50 -83.5t17.5 -111v-332h-97v327q0 85 -43 135t-128 50q-38 0 -70.5 -14t-56.5 -39t-37.5 -59.5t-13.5 -75.5v-324h-96v740zM73 951h69l119 -163h-84l-70 98l-68 -98h-85z" />
    <glyph glyph-name="Hbar" unicode="&#x126;" horiz-adv-x="712" 
d="M18 609h64v121h96v-121h352v121h97v-121h61v-74h-61v-535h-97v320h-352v-320h-96v535h-64v74zM178 413h352v122h-352v-122z" />
    <glyph glyph-name="hbar" unicode="&#x127;" horiz-adv-x="680" 
d="M8 689h68v51h94v-51h86v-65h-86v-127q31 45 81.5 72.5t116.5 27.5q57 0 103.5 -18t79 -52.5t50 -83.5t17.5 -111v-332h-97v327q0 85 -43 135t-128 50q-38 0 -70.5 -14t-56.5 -39t-37.5 -59.5t-13.5 -75.5v-324h-96v624h-68v65z" />
    <glyph glyph-name="Itilde" unicode="&#x128;" horiz-adv-x="232" 
d="M68 730h97v-730h-97v730zM-47 787q0 56 27 89.5t73 33.5q25 0 44 -8t36 -19l30.5 -18.5t30.5 -8.5q36 0 36 50h66q0 -57 -25.5 -90t-75.5 -33q-29 0 -50.5 10.5t-40.5 21.5l-25.5 14.5t-25.5 6.5q-35 0 -35 -49h-65z" />
    <glyph glyph-name="itilde" unicode="&#x129;" horiz-adv-x="224" 
d="M64 585h96v-585h-96v585zM-58 652q0 56 27 89.5t73 33.5q25 0 44 -8t36 -19l30.5 -18.5t30.5 -8.5q36 0 36 50h66q0 -57 -25.5 -90t-75.5 -33q-29 0 -50.5 10.5t-40.5 21.5l-25.5 14.5t-25.5 6.5q-35 0 -35 -49h-65z" />
    <glyph glyph-name="Imacron" unicode="&#x12a;" horiz-adv-x="233" 
d="M68 730h97v-730h-97v730zM-16 857h264v-70h-264v70z" />
    <glyph glyph-name="imacron" unicode="&#x12b;" horiz-adv-x="224" 
d="M64 585h96v-585h-96v585zM-20 712h264v-70h-264v70z" />
    <glyph glyph-name="Ibreve" unicode="&#x12c;" horiz-adv-x="233" 
d="M68 730h97v-730h-97v730zM114 782q-41 0 -71.5 13t-50.5 35t-29.5 52t-9.5 64h70q0 -48 23 -75t68 -28q44 1 67.5 28t23.5 75h71q0 -34 -11 -64t-32 -52t-51 -35t-68 -13z" />
    <glyph glyph-name="ibreve" unicode="&#x12d;" horiz-adv-x="224" 
d="M64 585h96v-585h-96v585zM113 638q-41 0 -71.5 13t-50.5 35t-29.5 52t-9.5 64h70q0 -48 23 -75t68 -28q44 1 67.5 28t23.5 75h71q0 -34 -11 -64t-32 -52t-51 -35t-68 -13z" />
    <glyph glyph-name="Iogonek" unicode="&#x12e;" horiz-adv-x="233" 
d="M118 -223q-60 0 -91.5 32t-32.5 76q-1 36 19 66.5t55 58.5v720h97v-730h-2q-47 -34 -68 -61t-21 -49q0 -20 13 -31.5t33 -11.5t34 8.5t27 21.5l55 -52q-23 -20 -53 -34t-65 -14z" />
    <glyph glyph-name="iogonek" unicode="&#x12f;" horiz-adv-x="224" 
d="M116 -223q-60 0 -91.5 32t-32.5 76q-1 35 18.5 65.5t53.5 57.5v577h96v-585h1q-47 -34 -68 -61t-21 -49q0 -20 13 -31.5t33 -11.5t34 8.5t27 21.5l55 -52q-23 -20 -53 -34t-65 -14zM44 728q0 30 18.5 48.5t49.5 18.5q33 0 51 -18.5t18 -48.5q0 -31 -18 -49.5t-51 -18.5
q-32 0 -50 18.5t-18 49.5z" />
    <glyph glyph-name="Idotaccent" unicode="&#x130;" horiz-adv-x="233" 
d="M68 730h97v-730h-97v730zM51 861q0 29 18 46.5t47 17.5q32 0 49 -17.5t17 -46.5t-17 -47t-49 -18q-31 0 -48 18t-17 47z" />
    <glyph glyph-name="dotlessi" unicode="&#x131;" horiz-adv-x="224" 
d="M64 585h96v-585h-96v585z" />
    <glyph glyph-name="IJ" unicode="&#x132;" horiz-adv-x="538" 
d="M233 93h56q53 0 75.5 24.5t22.5 82.5v530h97v-528q0 -103 -41.5 -152.5t-145.5 -49.5h-64v93zM54 730h98v-730h-98v730z" />
    <glyph glyph-name="ij" unicode="&#x133;" horiz-adv-x="445" 
d="M64 585h96v-585h-96v585zM44 728q0 30 18.5 48.5t49.5 18.5q33 0 51 -18.5t18 -48.5q0 -31 -18 -49.5t-51 -18.5q-32 0 -50 18.5t-18 49.5zM381 -25q0 -64 -10.5 -107t-36 -69t-67 -37t-103.5 -11h-100v91h85q43 0 69.5 5t41.5 19t20 40.5t5 69.5v609h96v-610zM265 728
q0 30 18.5 48.5t49.5 18.5q33 0 51 -18.5t18 -48.5q0 -31 -18 -49.5t-51 -18.5q-32 0 -50 18.5t-18 49.5z" />
    <glyph glyph-name="Jcircumflex" unicode="&#x134;" horiz-adv-x="484" 
d="M230 -10q-75 0 -127.5 35.5t-73.5 92.5l92 43q12 -35 39.5 -58t67.5 -23q49 0 75 32t26 86v532h97v-526q0 -101 -52 -157.5t-144 -56.5zM340 950h69l119 -163h-84l-70 98l-68 -98h-85z" />
    <glyph glyph-name="jcircumflex" unicode="&#x135;" horiz-adv-x="225" 
d="M-75 -177q43 0 70.5 4.5t42.5 19t20.5 41t5.5 71.5v626h96v-627q0 -66 -10.5 -109.5t-36 -69.5t-68 -36.5t-105.5 -10.5h-15v91zM78 805h69l119 -163h-84l-70 98l-68 -98h-85z" />
    <glyph glyph-name="Kcommaaccent" unicode="&#x136;" horiz-adv-x="635" 
d="M277 375l-120 -142v-233h-96v730h96v-370l312 370h119l-243 -289l272 -441h-112zM245 -259l40 204h86l-63 -204h-63z" />
    <glyph glyph-name="kcommaaccent" unicode="&#x137;" horiz-adv-x="606" 
d="M65 740h94v-472l301 317h118l-236 -248l242 -337h-109l-201 280l-115 -120v-160h-94v740zM180 -254l40 204h86l-63 -204h-63z" />
    <glyph glyph-name="kgreenlandic" unicode="&#x138;" horiz-adv-x="606" 
d="M274 279l-115 -119v-160h-94v585h94v-317l300 317h118l-235 -248l242 -337h-110z" />
    <glyph glyph-name="Lacute" unicode="&#x139;" horiz-adv-x="512" 
d="M60 730h96v-637h309v-93h-405v730zM183 950h105l-146 -163h-75z" />
    <glyph glyph-name="lacute" unicode="&#x13a;" horiz-adv-x="226" 
d="M193 970h105l-146 -163h-75zM65 740h96v-740h-96v740z" />
    <glyph glyph-name="Lcommaaccent" unicode="&#x13b;" horiz-adv-x="512" 
d="M60 730h96v-637h309v-93h-405v730zM178 -259l40 204h86l-63 -204h-63z" />
    <glyph glyph-name="lcommaaccent" unicode="&#x13c;" horiz-adv-x="226" 
d="M29 -254l40 204h86l-63 -204h-63zM65 740h96v-740h-96v740z" />
    <glyph glyph-name="Lcaron" unicode="&#x13d;" horiz-adv-x="512" 
d="M60 730h96v-637h309v-93h-405v730zM302 730h82l-56 -176h-62z" />
    <glyph glyph-name="lcaron" unicode="&#x13e;" horiz-adv-x="270" 
d="M228 740h82l-56 -176h-62zM60 740h96v-740h-96v740z" />
    <glyph glyph-name="Ldot" unicode="&#x13f;" horiz-adv-x="516" 
d="M60 730h96v-637h309v-93h-405v730zM351 362q0 29 18 46.5t47 17.5q32 0 49 -17.5t17 -46.5t-17 -47t-49 -18q-31 0 -48 18t-17 47z" />
    <glyph glyph-name="ldot" unicode="&#x140;" horiz-adv-x="366" 
d="M65 740h96v-740h-96v740zM230 294q0 29 18 46.5t47 17.5q32 0 49 -17.5t17 -46.5t-17 -47t-49 -18q-31 0 -48 18t-17 47z" />
    <glyph glyph-name="Lslash" unicode="&#x141;" horiz-adv-x="546" 
d="M14 392l80 24v314h96v-284l132 40v-70l-132 -40v-283h309v-93h-405v346l-80 -24v70z" />
    <glyph glyph-name="lslash" unicode="&#x142;" horiz-adv-x="329" 
d="M8 436l107 34v384h97v-353l110 36v-71l-110 -36v-430h-97v399l-107 -34v71z" />
    <glyph glyph-name="Nacute" unicode="&#x143;" horiz-adv-x="720" 
d="M60 730h110l393 -574v574h96v-730h-103l-400 582v-582h-96v730zM443 950h105l-146 -163h-75z" />
    <glyph glyph-name="nacute" unicode="&#x144;" horiz-adv-x="667" 
d="M64 585h94v-90q30 46 81 74t117 28q57 0 103.5 -18t78.5 -52.5t49.5 -83.5t17.5 -111v-332h-96v328q0 84 -43 134t-128 50q-38 0 -71 -14t-57 -39t-37.5 -59.5t-13.5 -75.5v-324h-95v585zM426 815h105l-146 -163h-75z" />
    <glyph glyph-name="Ncommaaccent" unicode="&#x145;" horiz-adv-x="720" 
d="M60 730h110l393 -574v574h96v-730h-103l-400 582v-582h-96v730zM274 -259l40 204h86l-63 -204h-63z" />
    <glyph glyph-name="ncommaaccent" unicode="&#x146;" horiz-adv-x="667" 
d="M64 585h94v-90q30 46 81 74t117 28q57 0 103.5 -18t78.5 -52.5t49.5 -83.5t17.5 -111v-332h-96v328q0 84 -43 134t-128 50q-38 0 -71 -14t-57 -39t-37.5 -59.5t-13.5 -75.5v-324h-95v585zM253 -254l40 204h86l-63 -204h-63z" />
    <glyph glyph-name="Ncaron" unicode="&#x147;" horiz-adv-x="720" 
d="M60 730h110l393 -574v574h96v-730h-103l-400 582v-582h-96v730zM207 950h85l68 -98l70 98h84l-119 -163h-69z" />
    <glyph glyph-name="ncaron" unicode="&#x148;" horiz-adv-x="667" 
d="M64 585h94v-90q30 46 81 74t117 28q57 0 103.5 -18t78.5 -52.5t49.5 -83.5t17.5 -111v-332h-96v328q0 84 -43 134t-128 50q-38 0 -71 -14t-57 -39t-37.5 -59.5t-13.5 -75.5v-324h-95v585zM201 815h85l68 -98l70 98h84l-119 -163h-69z" />
    <glyph glyph-name="Eng" unicode="&#x14a;" horiz-adv-x="720" 
d="M449 -119h21q54 1 73.5 22.5t19.5 78.5v29l-405 571v-582h-98v730h110l393 -556v556h96v-747q0 -101 -40 -148.5t-140 -47.5h-30v94z" />
    <glyph glyph-name="eng" unicode="&#x14b;" horiz-adv-x="667" 
d="M370 -177q43 0 70 4.5t42.5 19t21 41t5.5 71.5v369q0 84 -43 134t-128 50q-38 0 -71 -14t-57 -39t-37.5 -59.5t-13.5 -75.5v-324h-95v585h94v-90q30 46 81 74t117 28q57 0 103.5 -18t78.5 -52.5t49.5 -83.5t17.5 -111v-374q0 -66 -11 -109.5t-36.5 -69.5t-68 -36.5
t-105.5 -10.5h-14v91z" />
    <glyph glyph-name="Omacron" unicode="&#x14c;" horiz-adv-x="827" 
d="M277 857h264v-70h-264v70zM413 -10q-78 0 -146 29.5t-118.5 80.5t-80 119t-29.5 146t29.5 146t80 119t118.5 80.5t146 29.5t146.5 -29.5t119 -80.5t80 -119t29.5 -146t-29.5 -146t-80 -119t-119 -80.5t-146.5 -29.5zM413 84q59 0 109.5 22.5t88 60.5t59 89t21.5 109
t-21.5 109t-59 89.5t-88 60.5t-109.5 22q-58 0 -108.5 -22t-87.5 -60.5t-58.5 -89.5t-21.5 -109t21.5 -109t58.5 -89t87.5 -60.5t108.5 -22.5z" />
    <glyph glyph-name="omacron" unicode="&#x14d;" horiz-adv-x="691" 
d="M216 725h264v-70h-264v70zM344 -12q-63 0 -118 23.5t-96.5 64.5t-65 96.5t-23.5 119.5q0 65 23.5 120.5t65 96.5t96.5 64.5t118 23.5t118.5 -23.5t97 -64.5t65 -96.5t23.5 -120.5q0 -64 -23.5 -119.5t-65 -96.5t-97 -64.5t-118.5 -23.5zM344 76q44 0 82 17t66.5 46.5
t44.5 68.5t16 84t-16 84.5t-44.5 69t-66.5 46.5t-82 17q-43 0 -81 -17t-66 -46.5t-44 -69t-16 -84.5t16 -84t44 -68.5t66 -46.5t81 -17z" />
    <glyph glyph-name="Obreve" unicode="&#x14e;" horiz-adv-x="827" 
d="M413 -10q-78 0 -146 29.5t-118.5 80.5t-80 119t-29.5 146t29.5 146t80 119t118.5 80.5t146 29.5t146.5 -29.5t119 -80.5t80 -119t29.5 -146t-29.5 -146t-80 -119t-119 -80.5t-146.5 -29.5zM413 84q59 0 109.5 22.5t88 60.5t59 89t21.5 109t-21.5 109t-59 89.5t-88 60.5
t-109.5 22q-58 0 -108.5 -22t-87.5 -60.5t-58.5 -89.5t-21.5 -109t21.5 -109t58.5 -89t87.5 -60.5t108.5 -22.5zM408 783q-41 0 -71.5 13t-50.5 35t-29.5 52t-9.5 64h70q0 -48 23 -75t68 -28q44 1 67.5 28t23.5 75h71q0 -34 -11 -64t-32 -52t-51 -35t-68 -13z" />
    <glyph glyph-name="obreve" unicode="&#x14f;" horiz-adv-x="691" 
d="M344 -12q-63 0 -118 23.5t-96.5 64.5t-65 96.5t-23.5 119.5q0 65 23.5 120.5t65 96.5t96.5 64.5t118 23.5t118.5 -23.5t97 -64.5t65 -96.5t23.5 -120.5q0 -64 -23.5 -119.5t-65 -96.5t-97 -64.5t-118.5 -23.5zM344 76q44 0 82 17t66.5 46.5t44.5 68.5t16 84t-16 84.5
t-44.5 69t-66.5 46.5t-82 17q-43 0 -81 -17t-66 -46.5t-44 -69t-16 -84.5t16 -84t44 -68.5t66 -46.5t81 -17zM344 651q-41 0 -71.5 13t-50.5 35t-29.5 52t-9.5 64h70q0 -48 23 -75t68 -28q44 1 67.5 28t23.5 75h71q0 -34 -11 -64t-32 -52t-51 -35t-68 -13z" />
    <glyph glyph-name="Ohungarumlaut" unicode="&#x150;" horiz-adv-x="827" 
d="M407 950h100l-147 -163h-69zM555 950h99l-146 -163h-70zM413 -10q-78 0 -146 29.5t-118.5 80.5t-80 119t-29.5 146t29.5 146t80 119t118.5 80.5t146 29.5t146.5 -29.5t119 -80.5t80 -119t29.5 -146t-29.5 -146t-80 -119t-119 -80.5t-146.5 -29.5zM413 84q59 0 109.5 22.5
t88 60.5t59 89t21.5 109t-21.5 109t-59 89.5t-88 60.5t-109.5 22q-58 0 -108.5 -22t-87.5 -60.5t-58.5 -89.5t-21.5 -109t21.5 -109t58.5 -89t87.5 -60.5t108.5 -22.5z" />
    <glyph glyph-name="ohungarumlaut" unicode="&#x151;" horiz-adv-x="691" 
d="M354 815h100l-147 -163h-69zM502 815h99l-146 -163h-70zM344 -12q-63 0 -118 23.5t-96.5 64.5t-65 96.5t-23.5 119.5q0 65 23.5 120.5t65 96.5t96.5 64.5t118 23.5t118.5 -23.5t97 -64.5t65 -96.5t23.5 -120.5q0 -64 -23.5 -119.5t-65 -96.5t-97 -64.5t-118.5 -23.5z
M344 76q44 0 82 17t66.5 46.5t44.5 68.5t16 84t-16 84.5t-44.5 69t-66.5 46.5t-82 17q-43 0 -81 -17t-66 -46.5t-44 -69t-16 -84.5t16 -84t44 -68.5t66 -46.5t81 -17z" />
    <glyph glyph-name="OE" unicode="&#x152;" horiz-adv-x="1181" 
d="M691 122q-48 -61 -119 -96.5t-159 -35.5q-78 0 -146 29.5t-118.5 80.5t-80 119t-29.5 146t29.5 146t80 119t118.5 80.5t146 29.5q88 0 159 -36t119 -97v123h440v-92h-343v-226h343v-92h-343v-227h343v-93h-440v122zM413 86q58 0 109 22t88.5 60t59 89t21.5 108v11
q-2 56 -24.5 105t-60 85.5t-87 57.5t-106.5 21q-58 0 -108.5 -22t-88 -60t-59 -89t-21.5 -109q0 -57 21.5 -108t59 -89t88 -60t108.5 -22z" />
    <glyph glyph-name="oe" unicode="&#x153;" horiz-adv-x="1203" 
d="M344 -12q-63 0 -118 23.5t-96.5 64.5t-65 96.5t-23.5 119.5q0 65 23.5 120.5t65 96.5t96.5 64.5t118 23.5q85 0 152.5 -39.5t105.5 -105.5q38 66 104 105.5t153 39.5q64 0 118.5 -21.5t95 -61t63.5 -94t23 -120.5v-37h-512q5 -42 23 -77t46.5 -60t66.5 -39t81 -14
q72 0 122.5 35.5t75.5 92.5l82 -38q-37 -81 -108 -128t-172 -47q-91 0 -158.5 38t-105.5 103q-39 -65 -105.5 -103t-150.5 -38zM344 76q44 0 82.5 17t66.5 46.5t44 68.5t16 84t-16 85t-44 69t-66.5 46t-82.5 17t-82 -17t-65.5 -46t-43.5 -69t-16 -85t16 -84t43.5 -68.5
t65.5 -46.5t82 -17zM860 512q-39 0 -73 -12.5t-61 -34t-45.5 -52t-27.5 -66.5h410q-14 78 -68 121.5t-135 43.5z" />
    <glyph glyph-name="Racute" unicode="&#x154;" horiz-adv-x="593" 
d="M60 730h234q57 0 103.5 -18.5t80 -50t52 -74.5t18.5 -93q0 -36 -11 -69.5t-30.5 -62t-47 -50.5t-60.5 -36l160 -276h-109l-144 254h-151v-254h-95v730zM155 640v-297h128q41 0 72.5 13.5t52.5 35t31.5 48.5t10.5 54q0 65 -42.5 105.5t-123.5 40.5h-129zM332 950h105
l-146 -163h-75z" />
    <glyph glyph-name="racute" unicode="&#x155;" horiz-adv-x="434" 
d="M64 585h94v-84q43 85 148 85q38 0 65 -9t49 -21l-40 -89q-17 11 -35 18.5t-54 7.5q-59 0 -95.5 -39t-36.5 -124v-17.5v-39v-53t1 -59.5v-161h-96v585zM306 805h105l-146 -163h-75z" />
    <glyph glyph-name="Rcommaaccent" unicode="&#x156;" horiz-adv-x="593" 
d="M60 730h234q57 0 103.5 -18.5t80 -50t52 -74.5t18.5 -93q0 -36 -11 -69.5t-30.5 -62t-47 -50.5t-60.5 -36l160 -276h-109l-144 254h-151v-254h-95v730zM155 640v-297h128q41 0 72.5 13.5t52.5 35t31.5 48.5t10.5 54q0 65 -42.5 105.5t-123.5 40.5h-129zM227 -281l40 204
h86l-63 -204h-63z" />
    <glyph glyph-name="rcommaaccent" unicode="&#x157;" horiz-adv-x="434" 
d="M64 585h94v-84q43 85 148 85q38 0 65 -9t49 -21l-40 -89q-17 11 -35 18.5t-54 7.5q-59 0 -95.5 -39t-36.5 -124v-17.5v-39v-53t1 -59.5v-161h-96v585zM27 -254l40 204h86l-63 -204h-63z" />
    <glyph glyph-name="Rcaron" unicode="&#x158;" horiz-adv-x="593" 
d="M60 730h234q57 0 103.5 -18.5t80 -50t52 -74.5t18.5 -93q0 -36 -11 -69.5t-30.5 -62t-47 -50.5t-60.5 -36l160 -276h-109l-144 254h-151v-254h-95v730zM155 640v-297h128q41 0 72.5 13.5t52.5 35t31.5 48.5t10.5 54q0 65 -42.5 105.5t-123.5 40.5h-129zM147 950h85
l68 -98l70 98h84l-119 -163h-69z" />
    <glyph glyph-name="rcaron" unicode="&#x159;" horiz-adv-x="434" 
d="M64 585h94v-84q43 85 148 85q38 0 65 -9t49 -21l-40 -89q-17 11 -35 18.5t-54 7.5q-59 0 -95.5 -39t-36.5 -124v-17.5v-39v-53t1 -59.5v-161h-96v585zM83 807h85l68 -98l70 98h84l-119 -163h-69z" />
    <glyph glyph-name="Sacute" unicode="&#x15a;" horiz-adv-x="562" 
d="M351 950h105l-146 -163h-75zM282 -10q-91 0 -155.5 35.5t-109.5 94.5l85 66q33 -51 77.5 -78t101.5 -27q64 0 103 35.5t39 89.5q0 30 -14 51t-37.5 36t-54 26t-63.5 21q-37 12 -73.5 27t-66 37.5t-47.5 56.5t-18 83q0 41 17.5 77t48 62.5t73 41.5t91.5 15q81 0 135.5 -29
t95.5 -77l-79 -59q-52 79 -152 79q-59 0 -95 -30.5t-36 -77.5q0 -28 14 -48t37 -34t53 -24.5l62 -21.5q38 -13 75.5 -28.5t67 -39.5t48 -58.5t18.5 -85.5q0 -42 -17 -81t-48 -69t-75.5 -48t-100.5 -18z" />
    <glyph glyph-name="sacute" unicode="&#x15b;" horiz-adv-x="533" 
d="M343 815h105l-146 -163h-75zM264 -12q-82 0 -144 32t-102 89l81 53q28 -41 71 -65.5t97 -24.5q65 0 97.5 29t32.5 68q0 23 -13 37t-35 23.5t-49.5 16l-57.5 13.5q-36 9 -71.5 20t-63 30t-45 47.5t-17.5 71.5q0 33 15 64t43 54.5t68 37.5t89 14q71 0 129.5 -25.5
t93.5 -71.5l-75 -52q-27 32 -63.5 50t-84.5 18q-59 0 -89.5 -25.5t-30.5 -61.5q0 -21 12 -35t32 -24t48 -16.5t59 -14.5q35 -9 71 -20t64.5 -29.5t46.5 -47.5t18 -73q0 -29 -13 -61t-40.5 -59t-70.5 -44.5t-103 -17.5z" />
    <glyph glyph-name="Scircumflex" unicode="&#x15c;" horiz-adv-x="562" 
d="M282 -10q-91 0 -155.5 35.5t-109.5 94.5l85 66q33 -51 77.5 -78t101.5 -27q64 0 103 35.5t39 89.5q0 30 -14 51t-37.5 36t-54 26t-63.5 21q-37 12 -73.5 27t-66 37.5t-47.5 56.5t-18 83q0 41 17.5 77t48 62.5t73 41.5t91.5 15q81 0 135.5 -29t95.5 -77l-79 -59
q-52 79 -152 79q-59 0 -95 -30.5t-36 -77.5q0 -28 14 -48t37 -34t53 -24.5l62 -21.5q38 -13 75.5 -28.5t67 -39.5t48 -58.5t18.5 -85.5q0 -42 -17 -81t-48 -69t-75.5 -48t-100.5 -18zM245 950h69l119 -163h-84l-70 98l-68 -98h-85z" />
    <glyph glyph-name="scircumflex" unicode="&#x15d;" horiz-adv-x="533" 
d="M264 -12q-82 0 -144 32t-102 89l81 53q28 -41 71 -65.5t97 -24.5q65 0 97.5 29t32.5 68q0 23 -13 37t-35 23.5t-49.5 16l-57.5 13.5q-36 9 -71.5 20t-63 30t-45 47.5t-17.5 71.5q0 33 15 64t43 54.5t68 37.5t89 14q71 0 129.5 -25.5t93.5 -71.5l-75 -52q-27 32 -63.5 50
t-84.5 18q-59 0 -89.5 -25.5t-30.5 -61.5q0 -21 12 -35t32 -24t48 -16.5t59 -14.5q35 -9 71 -20t64.5 -29.5t46.5 -47.5t18 -73q0 -29 -13 -61t-40.5 -59t-70.5 -44.5t-103 -17.5zM233 810h69l119 -163h-84l-70 98l-68 -98h-85z" />
    <glyph glyph-name="Scedilla" unicode="&#x15e;" horiz-adv-x="562" 
d="M279 -235q-44 0 -80 15.5t-63 40.5l64 39q18 -15 36.5 -25t47.5 -10q27 0 46 11t19 28q0 34 -68 34h-43v95q-74 8 -128 42t-93 85l85 66q33 -51 77.5 -78t101.5 -27q64 0 103 35.5t39 89.5q0 30 -14 51t-37.5 36t-54 26t-63.5 21q-37 12 -73.5 27t-66 37.5t-47.5 56.5
t-18 83q0 41 17.5 77t48 62.5t73 41.5t91.5 15q81 0 135.5 -29t95.5 -77l-79 -59q-52 79 -152 79q-59 0 -95 -30.5t-36 -77.5q0 -28 14 -48t37 -34t53 -24.5l62 -21.5q38 -13 75.5 -28.5t67 -39.5t48 -58.5t18.5 -85.5q0 -40 -15 -77t-43 -66t-68 -48.5t-90 -23.5v-44
q54 1 86 -22t32 -58q0 -23 -11.5 -41.5t-31.5 -32t-46.5 -21t-56.5 -7.5z" />
    <glyph glyph-name="scedilla" unicode="&#x15f;" horiz-adv-x="533" 
d="M255 -238q-44 0 -80 15.5t-63 40.5l64 39q18 -15 36.5 -25t47.5 -10q27 0 46 11t19 28q0 34 -68 34h-43v97q-64 8 -113.5 38.5t-82.5 78.5l81 53q28 -41 71 -65.5t97 -24.5q65 0 97.5 29t32.5 68q0 23 -13 37t-35 23.5t-49.5 16l-57.5 13.5q-36 9 -71.5 20t-63 30
t-45 47.5t-17.5 71.5q0 33 15 64t43 54.5t68 37.5t89 14q71 0 129.5 -25.5t93.5 -71.5l-75 -52q-27 32 -63.5 50t-84.5 18q-59 0 -89.5 -25.5t-30.5 -61.5q0 -21 12 -35t32 -24t48 -16.5t59 -14.5q35 -9 71 -20t64.5 -29.5t46.5 -47.5t18 -73q0 -28 -12 -58.5t-37 -57
t-64.5 -44.5t-94.5 -21v-45q54 1 86 -22t32 -58q0 -23 -11.5 -41.5t-31.5 -32t-46.5 -21t-56.5 -7.5z" />
    <glyph glyph-name="Scaron" unicode="&#x160;" horiz-adv-x="562" 
d="M282 -10q-91 0 -155.5 35.5t-109.5 94.5l85 66q33 -51 77.5 -78t101.5 -27q64 0 103 35.5t39 89.5q0 30 -14 51t-37.5 36t-54 26t-63.5 21q-37 12 -73.5 27t-66 37.5t-47.5 56.5t-18 83q0 41 17.5 77t48 62.5t73 41.5t91.5 15q81 0 135.5 -29t95.5 -77l-79 -59
q-52 79 -152 79q-59 0 -95 -30.5t-36 -77.5q0 -28 14 -48t37 -34t53 -24.5l62 -21.5q38 -13 75.5 -28.5t67 -39.5t48 -58.5t18.5 -85.5q0 -42 -17 -81t-48 -69t-75.5 -48t-100.5 -18zM130 950h85l68 -98l70 98h84l-119 -163h-69z" />
    <glyph glyph-name="scaron" unicode="&#x161;" horiz-adv-x="533" 
d="M264 -12q-82 0 -144 32t-102 89l81 53q28 -41 71 -65.5t97 -24.5q65 0 97.5 29t32.5 68q0 23 -13 37t-35 23.5t-49.5 16l-57.5 13.5q-36 9 -71.5 20t-63 30t-45 47.5t-17.5 71.5q0 33 15 64t43 54.5t68 37.5t89 14q71 0 129.5 -25.5t93.5 -71.5l-75 -52q-27 32 -63.5 50
t-84.5 18q-59 0 -89.5 -25.5t-30.5 -61.5q0 -21 12 -35t32 -24t48 -16.5t59 -14.5q35 -9 71 -20t64.5 -29.5t46.5 -47.5t18 -73q0 -29 -13 -61t-40.5 -59t-70.5 -44.5t-103 -17.5zM108 815h85l68 -98l70 98h84l-119 -163h-69z" />
    <glyph glyph-name="Tcommaaccent" unicode="&#x162;" horiz-adv-x="605" 
d="M221 -259l40 204h86l-63 -204h-63zM256 639h-212v91h520v-91h-212v-639h-96v639z" />
    <glyph glyph-name="tcommaaccent" unicode="&#x163;" horiz-adv-x="403" 
d="M28 585h102v111l94 65v-176h137v-86h-137v-272q0 -44 5 -71t20 -41.5t42 -19.5t70 -5v-90h-14q-64 0 -106 10.5t-66.5 36.5t-34.5 69.5t-10 109.5v273h-102v86zM160 -257l40 204h86l-63 -204h-63z" />
    <glyph glyph-name="Tcaron" unicode="&#x164;" horiz-adv-x="605" 
d="M256 639h-212v91h520v-91h-212v-639h-96v639zM145 950h85l68 -98l70 98h84l-119 -163h-69z" />
    <glyph glyph-name="tcaron" unicode="&#x165;" horiz-adv-x="403" 
d="M28 585h102v111l94 65v-176h137v-86h-137v-272q0 -44 5 -71t20 -41.5t42 -19.5t70 -5v-90h-14q-64 0 -106 10.5t-66.5 36.5t-34.5 69.5t-10 109.5v273h-102v86zM304 810h82l-56 -176h-62z" />
    <glyph glyph-name="Tbar" unicode="&#x166;" horiz-adv-x="605" 
d="M145 437h111v202h-212v91h520v-91h-212v-202h109v-91h-109v-346h-96v346h-111v91z" />
    <glyph glyph-name="tbar" unicode="&#x167;" horiz-adv-x="403" 
d="M28 585h101v111l95 65v-176h137v-86h-137v-152h137v-81h-137v-39q0 -44 5 -71t20 -41.5t42 -19.5t70 -5v-90h-14q-64 0 -106 10.5t-67 36.5t-35 69.5t-10 109.5v40h-101v81h101v152h-101v86z" />
    <glyph glyph-name="Utilde" unicode="&#x168;" horiz-adv-x="625" 
d="M312 -10q-55 0 -101.5 18t-80.5 51.5t-53 80.5t-19 104v486h96v-492q0 -32 12 -60.5t33.5 -50t50.5 -34t62 -12.5t62 12.5t50.5 34t34 50t12.5 60.5v492h96v-486q0 -57 -19.5 -104t-53.5 -80.5t-80.5 -51.5t-101.5 -18zM139 787q0 56 27 89.5t73 33.5q25 0 44 -8t36 -19
l30.5 -18.5t30.5 -8.5q36 0 36 50h66q0 -57 -25.5 -90t-75.5 -33q-29 0 -50.5 10.5t-40.5 21.5l-25.5 14.5t-25.5 6.5q-35 0 -35 -49h-65z" />
    <glyph glyph-name="utilde" unicode="&#x169;" horiz-adv-x="636" 
d="M302 -12q-115 0 -177.5 70t-62.5 195v332h47q6 44 32 69.5t66 25.5q25 0 44 -8t36 -19l30.5 -18.5t30.5 -8.5q36 0 36 50h66q0 -57 -25.5 -90t-75.5 -33q-29 0 -50.5 10.5t-40.5 21.5l-25.5 14.5t-25.5 6.5q-35 0 -35 -49h-14v-300q0 -84 38.5 -134t121.5 -50
q75 0 117 52t42 135v325h95v-585h-93v82q-26 -43 -70 -68.5t-107 -25.5z" />
    <glyph glyph-name="Umacron" unicode="&#x16a;" horiz-adv-x="625" 
d="M312 -10q-55 0 -101.5 18t-80.5 51.5t-53 80.5t-19 104v486h96v-492q0 -32 12 -60.5t33.5 -50t50.5 -34t62 -12.5t62 12.5t50.5 34t34 50t12.5 60.5v492h96v-486q0 -57 -19.5 -104t-53.5 -80.5t-80.5 -51.5t-101.5 -18zM178 857h264v-70h-264v70z" />
    <glyph glyph-name="umacron" unicode="&#x16b;" horiz-adv-x="636" 
d="M302 -12q-115 0 -177.5 70t-62.5 195v332h96v-328q0 -84 38.5 -134t121.5 -50q75 0 117 52t42 135v325h95v-585h-93v82q-26 -43 -70 -68.5t-107 -25.5zM185 712h264v-70h-264v70z" />
    <glyph glyph-name="Ubreve" unicode="&#x16c;" horiz-adv-x="625" 
d="M312 -10q-55 0 -101.5 18t-80.5 51.5t-53 80.5t-19 104v486h96v-492q0 -32 12 -60.5t33.5 -50t50.5 -34t62 -12.5t62 12.5t50.5 34t34 50t12.5 60.5v492h96v-486q0 -57 -19.5 -104t-53.5 -80.5t-80.5 -51.5t-101.5 -18zM311 782q-41 0 -71.5 13t-50.5 35t-29.5 52
t-9.5 64h70q0 -48 23 -75t68 -28q44 1 67.5 28t23.5 75h71q0 -34 -11 -64t-32 -52t-51 -35t-68 -13z" />
    <glyph glyph-name="ubreve" unicode="&#x16d;" horiz-adv-x="636" 
d="M302 -12q-115 0 -177.5 70t-62.5 195v332h96v-328q0 -84 38.5 -134t121.5 -50q75 0 117 52t42 135v325h95v-585h-93v82q-26 -43 -70 -68.5t-107 -25.5zM322 618q-41 0 -71.5 13t-50.5 35t-29.5 52t-9.5 64h70q0 -48 23 -75t68 -28q44 1 67.5 28t23.5 75h71q0 -34 -11 -64
t-32 -52t-51 -35t-68 -13z" />
    <glyph glyph-name="Uring" unicode="&#x16e;" horiz-adv-x="625" 
d="M308 764q-22 0 -42 8.5t-34.5 23t-23 34.5t-8.5 43t8.5 43t23 35t34.5 23.5t42 8.5q23 0 43.5 -8.5t35.5 -23.5t23.5 -35t8.5 -43t-8.5 -43t-23.5 -34.5t-35.5 -23t-43.5 -8.5zM308 827q20 0 33.5 13t13.5 33q0 19 -13.5 33t-33.5 14q-19 0 -32.5 -14t-13.5 -33
q0 -20 13.5 -33t32.5 -13zM312 -10q-55 0 -101.5 18t-80.5 51.5t-53 80.5t-19 104v486h96v-492q0 -32 12 -60.5t33.5 -50t50.5 -34t62 -12.5t62 12.5t50.5 34t34 50t12.5 60.5v492h96v-486q0 -57 -19.5 -104t-53.5 -80.5t-80.5 -51.5t-101.5 -18z" />
    <glyph glyph-name="uring" unicode="&#x16f;" horiz-adv-x="636" 
d="M302 -12q-115 0 -177.5 70t-62.5 195v332h96v-328q0 -84 38.5 -134t121.5 -50q75 0 117 52t42 135v325h95v-585h-93v82q-26 -43 -70 -68.5t-107 -25.5zM279 553q-22 0 -42 8.5t-34.5 23t-23 34.5t-8.5 43t8.5 43t23 35t34.5 23.5t42 8.5q23 0 43.5 -8.5t35.5 -23.5
t23.5 -35t8.5 -43t-8.5 -43t-23.5 -34.5t-35.5 -23t-43.5 -8.5zM279 616q20 0 33.5 13t13.5 33q0 19 -13.5 33t-33.5 14q-19 0 -32.5 -14t-13.5 -33q0 -20 13.5 -33t32.5 -13z" />
    <glyph glyph-name="Uhungarumlaut" unicode="&#x170;" horiz-adv-x="625" 
d="M312 -10q-55 0 -101.5 18t-80.5 51.5t-53 80.5t-19 104v486h96v-492q0 -32 12 -60.5t33.5 -50t50.5 -34t62 -12.5t62 12.5t50.5 34t34 50t12.5 60.5v492h96v-486q0 -57 -19.5 -104t-53.5 -80.5t-80.5 -51.5t-101.5 -18zM301 950h100l-147 -163h-69zM449 950h99l-146 -163
h-70z" />
    <glyph glyph-name="uhungarumlaut" unicode="&#x171;" horiz-adv-x="636" 
d="M302 -12q-115 0 -177.5 70t-62.5 195v332h96v-328q0 -84 38.5 -134t121.5 -50q75 0 117 52t42 135v325h95v-585h-93v82q-26 -43 -70 -68.5t-107 -25.5zM464 799h99l-146 -163h-70zM316 799h100l-147 -163h-69z" />
    <glyph glyph-name="Uogonek" unicode="&#x172;" horiz-adv-x="625" 
d="M319 -217q-62 0 -99.5 29.5t-37.5 73.5q0 28 15 54.5t56 55.5q-43 9 -79 30t-61.5 53t-40 74t-14.5 91v486h96v-492q0 -32 12 -60.5t33.5 -50t50.5 -34t62 -12.5t62 12.5t50.5 34t34 50t12.5 60.5v492h96v-486q0 -47 -13 -87t-36.5 -71t-56.5 -53t-73 -33
q-38 -23 -62 -39.5t-37.5 -28.5t-18.5 -22t-5 -21q0 -19 15.5 -28.5t38.5 -9.5t39.5 9.5t31.5 23.5l65 -44q-26 -23 -62.5 -40t-73.5 -17z" />
    <glyph glyph-name="uogonek" unicode="&#x173;" horiz-adv-x="636" 
d="M500 -223q-60 0 -91.5 32t-32.5 76q-1 43 27.5 79t75.5 68v50q-26 -43 -70 -68.5t-107 -25.5q-115 0 -177.5 70t-62.5 195v332h96v-328q0 -84 38.5 -134t121.5 -50q75 0 117 52t42 135v325h95v-585h-27q-47 -34 -68 -61t-21 -49q0 -20 13 -31.5t33 -11.5t34 8.5t27 21.5
l55 -52q-23 -20 -53 -34t-65 -14z" />
    <glyph glyph-name="Wcircumflex" unicode="&#x174;" horiz-adv-x="1051" 
d="M29 730h102l162 -578l185 578h95l184 -579l167 579h99l-217 -730h-97l-184 579l-186 -579h-99zM489 950h69l119 -163h-84l-70 98l-68 -98h-85z" />
    <glyph glyph-name="wcircumflex" unicode="&#x175;" horiz-adv-x="990" 
d="M32 585h99l144 -453l174 453h88l174 -455l149 455h99l-199 -585h-92l-176 455l-176 -455h-94zM455 802h69l119 -163h-84l-70 98l-68 -98h-85z" />
    <glyph glyph-name="Ycircumflex" unicode="&#x176;" horiz-adv-x="621" 
d="M263 346l-239 384h107l180 -291l180 291h107l-239 -384v-346h-96v346zM275 950h69l119 -163h-84l-70 98l-68 -98h-85z" />
    <glyph glyph-name="ycircumflex" unicode="&#x177;" horiz-adv-x="635" 
d="M276 31l-252 554h104l197 -443l183 443h102l-366 -855h-100zM287 802h69l119 -163h-84l-70 98l-68 -98h-85z" />
    <glyph glyph-name="Ydieresis" unicode="&#x178;" horiz-adv-x="621" 
d="M263 346l-239 384h107l180 -291l180 291h107l-239 -384v-346h-96v346zM344 861q0 28 17 45t46 17q31 0 47.5 -17t16.5 -45q0 -29 -16.5 -46t-47.5 -17q-30 0 -46.5 17t-16.5 46zM149 861q0 28 17 45t46 17q31 0 47.5 -17t16.5 -45q0 -29 -16.5 -46t-47.5 -17
q-30 0 -46.5 17t-16.5 46z" />
    <glyph glyph-name="Zacute" unicode="&#x179;" horiz-adv-x="583" 
d="M50 89l369 549h-357v92h471v-88l-369 -549h370v-93h-484v89zM360 950h105l-146 -163h-75z" />
    <glyph glyph-name="zacute" unicode="&#x17a;" horiz-adv-x="603" 
d="M45 89l391 411h-381v85h499v-89l-391 -410h395v-86h-513v89zM371 805h105l-146 -163h-75z" />
    <glyph glyph-name="Zdotaccent" unicode="&#x17b;" horiz-adv-x="583" 
d="M50 89l369 549h-357v92h471v-88l-369 -549h370v-93h-484v89zM231 861q0 29 18 46.5t47 17.5q32 0 49 -17.5t17 -46.5t-17 -47t-49 -18q-31 0 -48 18t-17 47z" />
    <glyph glyph-name="zdotaccent" unicode="&#x17c;" horiz-adv-x="603" 
d="M45 89l391 411h-381v85h499v-89l-391 -410h395v-86h-513v89zM241 704q0 29 18 46.5t47 17.5q32 0 49 -17.5t17 -46.5t-17 -47t-49 -18q-31 0 -48 18t-17 47z" />
    <glyph glyph-name="Zcaron" unicode="&#x17d;" horiz-adv-x="583" 
d="M50 89l369 549h-357v92h471v-88l-369 -549h370v-93h-484v89zM141 950h85l68 -98l70 98h84l-119 -163h-69z" />
    <glyph glyph-name="zcaron" unicode="&#x17e;" horiz-adv-x="603" 
d="M45 89l391 411h-381v85h499v-89l-391 -410h395v-86h-513v89zM152 805h85l68 -98l70 98h84l-119 -163h-69z" />
    <glyph glyph-name="florin" unicode="&#x192;" horiz-adv-x="588" 
d="M89 415h172l35 114q17 58 39 96.5t50 62t63 33t78 9.5h8v-88q-30 0 -51.5 -5.5t-38 -18.5t-28.5 -35.5t-22 -57.5l-34 -110h152v-86h-178l-39 -128q-17 -57 -36.5 -95.5t-46 -62t-62 -33.5t-83.5 -10h-12v89q32 0 54 5.5t38.5 18.5t28 36t22.5 57l37 123h-146v86z" />
    <glyph glyph-name="Aringacute" unicode="&#x1fa;" horiz-adv-x="696" 
d="M283 691q-20 15 -31 37.5t-11 49.5q0 23 8.5 43t23 35t34.5 23.5t42 8.5q23 0 43.5 -8.5t35.5 -23.5t23.5 -35t8.5 -43q0 -28 -12.5 -51t-33.5 -38l255 -689h-101l-62 167h-316l-61 -167h-102zM224 260h248l-124 337zM426 1085h105l-146 -163h-75zM349 732q20 0 33.5 13
t13.5 33q0 19 -13.5 33t-33.5 14q-19 0 -32.5 -14t-13.5 -33q0 -20 13.5 -33t32.5 -13z" />
    <glyph glyph-name="aringacute" unicode="&#x1fb;" horiz-adv-x="712" 
d="M339 -12q-61 0 -115.5 23t-95 63.5t-64 96.5t-23.5 121q0 53 15.5 100t43.5 85t66 65t84 41q-17 26 -17 60q0 23 8.5 43t23 35t34.5 23.5t42 8.5q23 0 43.5 -8.5t35.5 -23.5t23.5 -35t8.5 -43q0 -35 -20 -63q37 -14 68.5 -37t53.5 -55v97h94v-585h-94v99
q-35 -53 -94.5 -82t-120.5 -29zM348 76q45 0 84 17t67.5 46t45 69t16.5 85t-16.5 84.5t-45 69t-67.5 46.5t-84 17q-44 0 -82.5 -17t-67 -46.5t-45 -69t-16.5 -84.5t16.5 -85t45 -69t67 -46t82.5 -17zM416 948h105l-146 -163h-75zM341 597q20 0 33.5 13t13.5 33
q0 19 -13.5 33t-33.5 14q-19 0 -32.5 -14t-13.5 -33q0 -20 13 -32.5t31 -13.5h2z" />
    <glyph glyph-name="AEacute" unicode="&#x1fc;" horiz-adv-x="993" 
d="M369 730h565v-92h-441l54 -226h387v-92h-365l54 -227h311v-93h-390l-39 164h-300l-77 -164h-105zM247 254h237l-79 335zM614 960h105l-146 -163h-75z" />
    <glyph glyph-name="aeacute" unicode="&#x1fd;" horiz-adv-x="1094" 
d="M756 -12q-89 0 -156 36.5t-106 98.5q-14 -26 -38 -50.5t-55.5 -43t-70 -30t-83.5 -11.5q-55 0 -94.5 12t-64.5 34t-37 51.5t-13 63.5q0 42 16 72.5t44.5 51.5t66.5 34.5t81 23.5l75 17t66 18.5t46.5 25.5t17.5 39q0 38 -36 64t-108 26q-81 0 -124 -38.5t-43 -96.5v-3h-88
v2q0 49 17.5 88t50 66.5t79.5 42.5t105 15q81 0 137 -26.5t82 -74.5q41 47 98.5 74t128.5 27q64 0 119 -21.5t95.5 -61t63.5 -94t23 -120.5v-37h-512q5 -42 23 -77t46.5 -60t66 -39t81.5 -14q71 0 121 35.5t76 92.5l82 -38q-38 -81 -108.5 -128t-170.5 -47zM750 512
q-39 0 -72.5 -12.5t-60 -34t-45 -52t-27.5 -66.5h409q-14 78 -68 121.5t-136 43.5zM252 68q42 0 76.5 15t61 37t43.5 48t23 48q-7 32 -7 73v16.5t1 16.5q-12 -22 -53 -34.5t-107 -26.5q-36 -7 -64.5 -15.5t-49 -21t-31 -30t-10.5 -43.5q0 -35 27 -59t90 -24zM613 811h105
l-146 -163h-75z" />
    <glyph glyph-name="Oslashacute" unicode="&#x1fe;" horiz-adv-x="827" 
d="M150 98q-52 51 -81.5 119.5t-29.5 147.5q0 78 29.5 146t80 119t118.5 80.5t146 29.5q54 0 103.5 -14.5t92.5 -40.5l35 45h112l-78 -100q51 -51 80.5 -119t29.5 -146t-29.5 -146t-80 -119t-119 -80.5t-146.5 -29.5q-54 0 -102.5 13.5t-90.5 39.5l-34 -43h-112zM137 365
q0 -56 19 -104.5t54 -86.5l340 436q-30 17 -64.5 26.5t-72.5 9.5q-58 0 -108.5 -22t-87.5 -60.5t-58.5 -89.5t-21.5 -109zM413 84q59 0 109.5 22.5t88 60.5t59 89t21.5 109q0 54 -19 102.5t-53 86.5l-340 -435q29 -17 63 -26t71 -9zM480 950h105l-146 -163h-75z" />
    <glyph glyph-name="oslashacute" unicode="&#x1ff;" horiz-adv-x="691" 
d="M344 -12q-42 0 -80.5 10.5t-71.5 29.5l-22 -28h-101l59 77q-41 42 -64 96.5t-23 118.5q0 65 23.5 120.5t65 96.5t96.5 64.5t118 23.5q42 0 80.5 -10.5t72.5 -30.5l22 29h102l-60 -78q41 -42 64 -96.5t23 -118.5t-23.5 -119.5t-65 -96.5t-97 -64.5t-118.5 -23.5zM344 76
q44 0 82.5 17t66.5 46.5t44 68.5t16 84q0 41 -13 76.5t-36 64.5l-257 -333q42 -24 97 -24zM137 292q0 -41 12.5 -76.5t35.5 -63.5l256 332q-45 25 -97 25q-44 0 -82 -17t-65.5 -46t-43.5 -69t-16 -85zM429 811h105l-146 -163h-75z" />
    <glyph glyph-name="Scommaaccent" unicode="&#x218;" horiz-adv-x="562" 
d="M202 -252l40 204h86l-63 -204h-63zM282 -10q-91 0 -155.5 35.5t-109.5 94.5l85 66q33 -51 77.5 -78t101.5 -27q64 0 103 35.5t39 89.5q0 30 -14 51t-37.5 36t-54 26t-63.5 21q-37 12 -73.5 27t-66 37.5t-47.5 56.5t-18 83q0 41 17.5 77t48 62.5t73 41.5t91.5 15
q81 0 135.5 -29t95.5 -77l-79 -59q-52 79 -152 79q-59 0 -95 -30.5t-36 -77.5q0 -28 14 -48t37 -34t53 -24.5l62 -21.5q38 -13 75.5 -28.5t67 -39.5t48 -58.5t18.5 -85.5q0 -42 -17 -81t-48 -69t-75.5 -48t-100.5 -18z" />
    <glyph glyph-name="scommaaccent" unicode="&#x219;" horiz-adv-x="533" 
d="M180 -259l40 204h86l-63 -204h-63zM264 -12q-82 0 -144 32t-102 89l81 53q28 -41 71 -65.5t97 -24.5q65 0 97.5 29t32.5 68q0 23 -13 37t-35 23.5t-49.5 16l-57.5 13.5q-36 9 -71.5 20t-63 30t-45 47.5t-17.5 71.5q0 33 15 64t43 54.5t68 37.5t89 14q71 0 129.5 -25.5
t93.5 -71.5l-75 -52q-27 32 -63.5 50t-84.5 18q-59 0 -89.5 -25.5t-30.5 -61.5q0 -21 12 -35t32 -24t48 -16.5t59 -14.5q35 -9 71 -20t64.5 -29.5t46.5 -47.5t18 -73q0 -29 -13 -61t-40.5 -59t-70.5 -44.5t-103 -17.5z" />
    <glyph glyph-name="dotlessj" unicode="&#x237;" horiz-adv-x="224" 
d="M-75 -177q43 0 70.5 4.5t42.5 19t20.5 41t5.5 71.5v626h96v-627q0 -66 -10.5 -109.5t-36 -69.5t-68 -36.5t-105.5 -10.5h-15v91z" />
    <glyph glyph-name="circumflex" unicode="&#x2c6;" horiz-adv-x="489" 
d="M210 720h69l119 -163h-84l-70 98l-68 -98h-85z" />
    <glyph glyph-name="caron" unicode="&#x2c7;" horiz-adv-x="489" 
d="M90 720h85l68 -98l70 98h84l-119 -163h-69z" />
    <glyph glyph-name="breve" unicode="&#x2d8;" horiz-adv-x="489" 
d="M243 551q-41 0 -71.5 13t-50.5 35t-29.5 52t-9.5 64h70q0 -48 23 -75t68 -28q44 1 67.5 28t23.5 75h71q0 -34 -11 -64t-32 -52t-51 -35t-68 -13z" />
    <glyph glyph-name="dotaccent" unicode="&#x2d9;" horiz-adv-x="492" 
d="M171 631q0 29 18 46.5t47 17.5q32 0 49 -17.5t17 -46.5t-17 -47t-49 -18q-31 0 -48 18t-17 47z" />
    <glyph glyph-name="ring" unicode="&#x2da;" horiz-adv-x="489" 
d="M242 553q-22 0 -42 8.5t-34.5 23t-23 34.5t-8.5 43t8.5 43t23 35t34.5 23.5t42 8.5q23 0 43.5 -8.5t35.5 -23.5t23.5 -35t8.5 -43t-8.5 -43t-23.5 -34.5t-35.5 -23t-43.5 -8.5zM242 616q20 0 33.5 13t13.5 33q0 19 -13.5 33t-33.5 14q-19 0 -32.5 -14t-13.5 -33
q0 -20 13.5 -33t32.5 -13z" />
    <glyph glyph-name="ogonek" unicode="&#x2db;" horiz-adv-x="489" 
d="M239 -219q-62 0 -99.5 29.5t-37.5 73.5q0 19 6.5 37t23 36.5t44 37.5t68.5 39l66 -35l-62.5 -40t-38.5 -28.5t-19 -22.5t-5 -21q0 -19 15.5 -28.5t38.5 -9.5t39.5 9.5t31.5 23.5l65 -44q-26 -23 -62.5 -40t-73.5 -17z" />
    <glyph glyph-name="tilde" unicode="&#x2dc;" horiz-adv-x="489" 
d="M71 557q0 56 27 89.5t73 33.5q25 0 44 -8t36 -19l30.5 -18.5t30.5 -8.5q36 0 36 50h66q0 -57 -25.5 -90t-75.5 -33q-29 0 -50.5 10.5t-40.5 21.5l-25.5 14.5t-25.5 6.5q-35 0 -35 -49h-65z" />
    <glyph glyph-name="hungarumlaut" unicode="&#x2dd;" horiz-adv-x="489" 
d="M178 720h100l-147 -163h-69zM326 720h99l-146 -163h-70z" />
    <glyph glyph-name="uni0328" unicode="&#x328;" horiz-adv-x="489" 
d="M267 -223q-60 0 -91.5 32t-32.5 76t28.5 80t77.5 69l63 -34q-47 -34 -68 -61t-21 -49q0 -20 13 -31.5t33 -11.5t34 8.5t27 21.5l55 -52q-23 -20 -53 -34t-65 -14z" />
    <glyph glyph-name="pi" unicode="&#x3c0;" horiz-adv-x="760" 
d="M41 730h680v-93h-138v-440q0 -57 18 -80.5t69 -23.5h36v-93h-44q-51 0 -85 12t-54 36.5t-28.5 61.5t-8.5 88v439h-222v-637h-96v637h-127v93z" />
    <glyph glyph-name="pi" unicode="&#x3d6;" horiz-adv-x="760" 
d="M41 730h680v-93h-138v-440q0 -57 18 -80.5t69 -23.5h36v-93h-44q-51 0 -85 12t-54 36.5t-28.5 61.5t-8.5 88v439h-222v-637h-96v637h-127v93z" />
    <glyph glyph-name="uni0E3F" unicode="&#xe3f;" horiz-adv-x="514" 
d="M53 661h173v69h64v-70q84 -4 131.5 -46t47.5 -116q0 -42 -19.5 -74t-54.5 -51q39 -20 60 -53.5t21 -81.5q1 -81 -50 -124.5t-136 -48.5v-65h-64v65h-173v596zM148 151h78v175h-78v-175zM148 415h78v159h-78v-159zM380 239q0 37 -22 59.5t-68 26.5v-174q42 4 66 28t24 60z
M374 496q0 34 -22 54t-62 23v-158q42 3 63 25.5t21 55.5z" />
    <glyph glyph-name="Wgrave" unicode="&#x1e80;" horiz-adv-x="1051" 
d="M29 730h102l162 -578l185 578h95l184 -579l167 579h99l-217 -730h-97l-184 579l-186 -579h-99zM338 950h104l117 -163h-75z" />
    <glyph glyph-name="wgrave" unicode="&#x1e81;" horiz-adv-x="990" 
d="M32 585h99l144 -453l174 453h88l174 -455l149 455h99l-199 -585h-92l-176 455l-176 -455h-94zM311 805h104l117 -163h-75z" />
    <glyph glyph-name="Wacute" unicode="&#x1e82;" horiz-adv-x="1051" 
d="M29 730h102l162 -578l185 578h95l184 -579l167 579h99l-217 -730h-97l-184 579l-186 -579h-99zM598 950h105l-146 -163h-75z" />
    <glyph glyph-name="wacute" unicode="&#x1e83;" horiz-adv-x="990" 
d="M32 585h99l144 -453l174 453h88l174 -455l149 455h99l-199 -585h-92l-176 455l-176 -455h-94zM574 805h105l-146 -163h-75z" />
    <glyph glyph-name="Wdieresis" unicode="&#x1e84;" horiz-adv-x="1051" 
d="M29 730h102l162 -578l185 578h95l184 -579l167 579h99l-217 -730h-97l-184 579l-186 -579h-99zM559 861q0 28 17 45t46 17q31 0 47.5 -17t16.5 -45q0 -29 -16.5 -46t-47.5 -17q-30 0 -46.5 17t-16.5 46zM364 861q0 28 17 45t46 17q31 0 47.5 -17t16.5 -45
q0 -29 -16.5 -46t-47.5 -17q-30 0 -46.5 17t-16.5 46z" />
    <glyph glyph-name="wdieresis" unicode="&#x1e85;" horiz-adv-x="990" 
d="M32 585h99l144 -453l174 453h88l174 -455l149 455h99l-199 -585h-92l-176 455l-176 -455h-94zM527 703q0 28 17 45t46 17q31 0 47.5 -17t16.5 -45q0 -29 -16.5 -46t-47.5 -17q-30 0 -46.5 17t-16.5 46zM332 703q0 28 17 45t46 17q31 0 47.5 -17t16.5 -45q0 -29 -16.5 -46
t-47.5 -17q-30 0 -46.5 17t-16.5 46z" />
    <glyph glyph-name="Ygrave" unicode="&#x1ef2;" horiz-adv-x="621" 
d="M263 346l-239 384h107l180 -291l180 291h107l-239 -384v-346h-96v346zM125 937h104l117 -163h-75z" />
    <glyph glyph-name="ygrave" unicode="&#x1ef3;" horiz-adv-x="635" 
d="M276 31l-252 554h104l197 -443l183 443h102l-366 -855h-100zM130 807h104l117 -163h-75z" />
    <glyph glyph-name="figuredash" unicode="&#x2012;" horiz-adv-x="654" 
d="M46 294h562v-83h-562v83z" />
    <glyph glyph-name="endash" unicode="&#x2013;" horiz-adv-x="504" 
d="M46 294h412v-83h-412v83z" />
    <glyph glyph-name="emdash" unicode="&#x2014;" horiz-adv-x="704" 
d="M46 294h612v-83h-612v83z" />
    <glyph glyph-name="uni2015" unicode="&#x2015;" horiz-adv-x="1004" 
d="M46 294h912v-83h-912v83z" />
    <glyph glyph-name="doublebar" unicode="&#x2016;" horiz-adv-x="382" 
d="M53 730h96v-960h-96v960zM232 730h97v-960h-97v960z" />
    <glyph glyph-name="quoteleft" unicode="&#x2018;" horiz-adv-x="201" 
d="M162 526h-63l-65 204h88z" />
    <glyph glyph-name="quoteright" unicode="&#x2019;" horiz-adv-x="201" 
d="M37 526l39 204h89l-67 -204h-61z" />
    <glyph glyph-name="quotesinglbase" unicode="&#x201a;" horiz-adv-x="201" 
d="M28 -117l39 204h89l-66 -204h-62z" />
    <glyph glyph-name="reversequoteleft" unicode="&#x201b;" horiz-adv-x="201" 
d="M37 526l39 204h89l-67 -204h-61z" />
    <glyph glyph-name="quotedblleft" unicode="&#x201c;" horiz-adv-x="333" 
d="M163 526h-61l-65 204h87zM296 526h-62l-64 204h86z" />
    <glyph glyph-name="quotedblright" unicode="&#x201d;" horiz-adv-x="333" 
d="M37 526l39 204h89l-67 -204h-61zM170 526l39 204h89l-66 -204h-62z" />
    <glyph glyph-name="quotedblbase" unicode="&#x201e;" horiz-adv-x="334" 
d="M30 -117l39 204h89l-67 -204h-61zM162 -117l40 204h89l-66 -204h-63z" />
    <glyph glyph-name="reversequotedblleft" unicode="&#x201f;" horiz-adv-x="333" 
d="M37 526l39 204h89l-67 -204h-61zM170 526l39 204h89l-66 -204h-62z" />
    <glyph glyph-name="dagger" unicode="&#x2020;" horiz-adv-x="558" 
d="M53 500h177v230h97v-230h179v-86h-179v-414h-97v414h-177v86z" />
    <glyph glyph-name="daggerdbl" unicode="&#x2021;" horiz-adv-x="558" 
d="M53 537h177v193h97v-193h179v-85h-179v-165h179v-85h-179v-202h-97v202h-177v85h177v165h-177v85z" />
    <glyph glyph-name="bullet" unicode="&#x2022;" horiz-adv-x="353" 
d="M177 167q-35 0 -60.5 25.5t-25.5 60.5t25.5 60t60.5 25t60 -25t25 -60t-25 -60.5t-60 -25.5z" />
    <glyph glyph-name="ellipsis" unicode="&#x2026;" horiz-adv-x="521" 
d="M32 54q0 28 17 45t46 17q30 0 47 -17t17 -45q0 -29 -17 -46t-47 -17t-46.5 17t-16.5 46zM364 54q0 28 17 45t46 17q30 0 47 -17t17 -45q0 -29 -17 -46t-47 -17t-46.5 17t-16.5 46zM198 54q0 28 17 45t46 17q30 0 47 -17t17 -45q0 -29 -17 -46t-47 -17t-46.5 17t-16.5 46z
" />
    <glyph glyph-name="perthousand" unicode="&#x2030;" horiz-adv-x="1240" 
d="M679 730h122l-627 -730h-122zM630 -11q-36 0 -67.5 13.5t-54.5 37t-36.5 55t-13.5 67.5t13.5 67t36.5 54.5t54.5 37t67.5 13.5t67 -13.5t54.5 -37t37 -54.5t13.5 -67t-13.5 -67.5t-37 -55t-54.5 -37t-67 -13.5zM630 70q37 0 63 27t26 65t-26 64.5t-63 26.5
q-38 0 -64 -26.5t-26 -64.5t26 -65t64 -27zM223 395q-36 0 -67 13.5t-54.5 37t-37 55t-13.5 67.5t13.5 67.5t37 54.5t54.5 36.5t67 13.5t67 -13.5t54.5 -36.5t37 -54.5t13.5 -67.5t-13.5 -67.5t-37 -55t-54.5 -37t-67 -13.5zM223 476q37 0 63 27t26 65t-26 64.5t-63 26.5
t-63.5 -26.5t-26.5 -64.5t26.5 -65t63.5 -27zM1018 -11q-36 0 -67.5 13.5t-55 37t-37 55t-13.5 67.5t13.5 67t37 54.5t55 37t67.5 13.5t67.5 -13.5t55 -37t37 -54.5t13.5 -67t-13.5 -67.5t-37 -55t-55 -37t-67.5 -13.5zM1018 70q37 0 63.5 27t26.5 65t-26.5 64.5t-63.5 26.5
t-63.5 -26.5t-26.5 -64.5t26.5 -65t63.5 -27z" />
    <glyph glyph-name="minute" unicode="&#x2032;" horiz-adv-x="201" 
d="M37 526l39 204h89l-67 -204h-61z" />
    <glyph glyph-name="second" unicode="&#x2033;" horiz-adv-x="333" 
d="M37 526l39 204h89l-67 -204h-61zM170 526l39 204h89l-66 -204h-62z" />
    <glyph glyph-name="tripleprime" unicode="&#x2034;" horiz-adv-x="433" 
d="M76 500q-3 9 -7 27.5t-8 40t-7 42.5t-3 36v84h79v-84q0 -15 -3 -36t-7 -42.5t-8 -40t-7 -27.5h-29zM202 500q-3 9 -7 27.5t-8 40t-7 42.5t-3 36v84h80v-84q0 -15 -3 -36t-7.5 -42.5l-8.5 -40t-7 -27.5h-29zM329 500q-3 9 -7 27.5l-8.5 40t-7.5 42.5t-3 36v84h80v-84
q0 -15 -3 -36t-7.5 -42.5l-8.5 -40t-7 -27.5h-28z" />
    <glyph glyph-name="guilsinglleft" unicode="&#x2039;" horiz-adv-x="284" 
d="M63 222v61l159 119v-75l-102 -75l102 -74v-75z" />
    <glyph glyph-name="guilsinglright" unicode="&#x203a;" horiz-adv-x="284" 
d="M63 178l103 74l-103 76v75l159 -119v-61l-159 -119v74z" />
    <glyph glyph-name="fraction" unicode="&#x2044;" horiz-adv-x="679" 
d="M548 730h112l-527 -730h-112z" />
    <glyph glyph-name="uni2070" unicode="&#x2070;" horiz-adv-x="475" 
d="M237 302q-45 0 -84 17t-68.5 46.5t-46 69t-16.5 84.5t16.5 84.5t46 69t68.5 46.5t84 17t85 -17t69 -46.5t46 -69t17 -84.5t-17 -84.5t-46 -69t-69 -46.5t-85 -17zM237 384q29 0 53.5 10.5t42.5 29t28 43t10 52.5t-10 53t-28 43.5t-42.5 29t-53.5 10.5q-28 0 -52 -10.5
t-41.5 -29t-27.5 -43.5t-10 -53t10 -52.5t27.5 -43t41.5 -29t52 -10.5z" />
    <glyph glyph-name="uni2074" unicode="&#x2074;" horiz-adv-x="372" 
d="M206 400h-180v75l178 255h82v-257h61v-73h-61v-92h-80v92zM206 473v133l-93 -133h93z" />
    <glyph glyph-name="uni2075" unicode="&#x2075;" horiz-adv-x="336" 
d="M167 302q-53 0 -90.5 22.5t-56.5 56.5l78 44q10 -20 26.5 -32.5t42.5 -12.5q27 0 46 18t19 47q0 30 -19 48t-47 18q-23 0 -40 -11.5t-26 -29.5l-75 30l31 230h235v-77h-170l-12 -85q13 8 29.5 13t37.5 5q29 0 54.5 -9t44 -27t29.5 -44t11 -61q0 -32 -11 -58.5t-30.5 -45
t-47 -29t-59.5 -10.5z" />
    <glyph glyph-name="uni2076" unicode="&#x2076;" horiz-adv-x="355" 
d="M177 302q-34 0 -62.5 11.5t-49.5 32t-32.5 48t-11.5 58.5q0 30 10.5 59.5t25.5 52.5l107 166h96l-86 -132q5 1 9 1.5t9 0.5q29 0 55 -11t45 -30.5t30 -46.5t11 -60q0 -32 -11.5 -59.5t-32.5 -47.5t-49.5 -31.5t-62.5 -11.5zM176 379q31 0 53 21.5t22 53.5q0 31 -22 52
t-53 21t-52 -21t-21 -53q0 -31 21 -52.5t52 -21.5z" />
    <glyph glyph-name="uni2077" unicode="&#x2077;" horiz-adv-x="319" 
d="M208 652h-183v78h269v-72l-153 -350h-90z" />
    <glyph glyph-name="uni2078" unicode="&#x2078;" horiz-adv-x="335" 
d="M167 302q-63 0 -101.5 37.5t-38.5 95.5q0 30 13 55t36 42q-35 32 -35 83q0 54 34.5 87.5t91.5 33.5t92.5 -33.5t35.5 -87.5q0 -26 -9.5 -46.5t-25.5 -34.5q21 -17 34 -42t13 -57q0 -58 -38 -95.5t-102 -37.5zM167 375q28 0 44.5 17.5t16.5 42.5t-16.5 42.5t-44.5 17.5
t-44 -18t-16 -42q0 -25 16 -42.5t44 -17.5zM167 566q23 0 36 14t13 35q0 20 -13 34.5t-36 14.5t-35.5 -14.5t-12.5 -34.5q0 -21 12.5 -35t35.5 -14z" />
    <glyph glyph-name="uni2079" unicode="&#x2079;" horiz-adv-x="353" 
d="M179 441q-5 -1 -9 -1h-8q-29 0 -54.5 10.5t-45 30t-30.5 46.5t-11 60q0 32 11.5 59.5t32.5 47.5t49.5 31t61.5 11q34 0 62.5 -11.5t49.5 -32t32.5 -47.5t11.5 -58q0 -29 -10 -58.5t-25 -52.5l-107 -168h-97zM177 512q31 0 52 22t21 53q0 30 -21 51.5t-52 21.5
q-30 0 -51.5 -21.5t-21.5 -52.5t21.5 -52.5t51.5 -21.5z" />
    <glyph glyph-name="uni207A" unicode="&#x207a;" horiz-adv-x="268" 
d="M27 553h74v72h67v-72h72v-68h-72v-73h-67v73h-74v68z" />
    <glyph glyph-name="uni207B" unicode="&#x207b;" horiz-adv-x="268" 
d="M27 554h213v-69h-213v69z" />
    <glyph glyph-name="uni207C" unicode="&#x207c;" horiz-adv-x="265" 
d="M27 600h213v-66h-213v66zM27 502h213v-67h-213v67z" />
    <glyph glyph-name="uni207D" unicode="&#x207d;" horiz-adv-x="269" 
d="M181 231q-74 54 -113.5 124.5t-39.5 166.5q0 97 40.5 167t111.5 123l51 -67q-56 -40 -87.5 -94t-31.5 -129q0 -73 32.5 -127.5t87.5 -94.5z" />
    <glyph glyph-name="uni207E" unicode="&#x207e;" horiz-adv-x="269" 
d="M37 300q56 40 88 94.5t32 127.5q0 75 -31.5 129t-87.5 94l52 67q71 -54 111.5 -123.5t40.5 -166.5q0 -96 -40 -166.5t-113 -124.5z" />
    <glyph glyph-name="uni2080" unicode="&#x2080;" horiz-adv-x="475" 
d="M237 -6q-45 0 -84 17t-68.5 46.5t-46 69t-16.5 84.5t16.5 84.5t46 69t68.5 46.5t84 17t85 -17t69 -46.5t46 -69t17 -84.5t-17 -84.5t-46 -69t-69 -46.5t-85 -17zM237 76q29 0 53.5 10.5t42.5 29t28 43t10 52.5t-10 53t-28 43.5t-42.5 29t-53.5 10.5q-28 0 -52 -10.5
t-41.5 -29t-27.5 -43.5t-10 -53t10 -52.5t27.5 -43t41.5 -29t52 -10.5z" />
    <glyph glyph-name="uni2081" unicode="&#x2081;" horiz-adv-x="294" 
d="M26 78h83v222q-10 -14 -28.5 -22.5t-38.5 -8.5h-6v83h3q21 0 35 6.5t22 17t11.5 23t3.5 23.5h81v-344h80v-78h-246v78z" />
    <glyph glyph-name="uni2082" unicode="&#x2082;" horiz-adv-x="336" 
d="M27 69q0 29 10.5 51.5t27 40.5t37 33t40.5 28q33 20 58 39.5t25 45.5q0 20 -15 34.5t-43 14.5t-46.5 -17t-29.5 -42l-71 37q20 43 57 68.5t90 25.5q66 0 105 -35t39 -86q0 -27 -10 -48.5t-26.5 -38.5t-36.5 -31l-40 -27q-32 -20 -57.5 -39t-26.5 -44h196v-79h-283v69z
" />
    <glyph glyph-name="uni2083" unicode="&#x2083;" horiz-adv-x="324" 
d="M156 -6q-42 0 -79 13.5t-63 43.5l67 55q29 -36 72 -36q28 0 46 15t18 40q0 26 -21 40t-53 14h-43v75h42q32 0 49.5 14.5t17.5 37.5t-16 36.5t-44 13.5q-23 0 -39 -10t-27 -27l-64 46q21 29 56 46t76 17q65 0 103.5 -32.5t38.5 -86.5q0 -28 -12.5 -50.5t-34.5 -38.5
q26 -15 41.5 -39.5t15.5 -57.5q0 -55 -39 -92t-108 -37z" />
    <glyph glyph-name="uni2084" unicode="&#x2084;" horiz-adv-x="372" 
d="M206 92h-180v75l178 255h82v-257h61v-73h-61v-92h-80v92zM206 165v133l-93 -133h93z" />
    <glyph glyph-name="uni2085" unicode="&#x2085;" horiz-adv-x="336" 
d="M167 -6q-53 0 -90.5 22.5t-56.5 56.5l78 44q10 -20 26.5 -32.5t42.5 -12.5q27 0 46 18t19 47q0 30 -19 48t-47 18q-23 0 -40 -11.5t-26 -29.5l-75 30l31 230h235v-77h-170l-12 -85q13 8 29.5 13t37.5 5q29 0 54.5 -9t44 -27t29.5 -44t11 -61q0 -32 -11 -58.5t-30.5 -45
t-47 -29t-59.5 -10.5z" />
    <glyph glyph-name="uni2086" unicode="&#x2086;" horiz-adv-x="356" 
d="M178 -6q-34 0 -62.5 11.5t-49.5 32t-32.5 48t-11.5 58.5q0 30 10.5 59.5t25.5 52.5l107 166h96l-86 -132q5 1 9 1.5t9 0.5q29 0 55 -11t45 -30.5t30 -46.5t11 -60q0 -32 -11.5 -59.5t-32.5 -47.5t-49.5 -31.5t-62.5 -11.5zM177 71q31 0 53 21.5t22 53.5q0 31 -22 52
t-53 21t-52 -21t-21 -53q0 -31 21 -52.5t52 -21.5z" />
    <glyph glyph-name="uni2087" unicode="&#x2087;" horiz-adv-x="319" 
d="M208 344h-183v78h269v-72l-153 -350h-90z" />
    <glyph glyph-name="uni2088" unicode="&#x2088;" horiz-adv-x="335" 
d="M167 -6q-63 0 -101.5 37.5t-38.5 95.5q0 30 13 55t36 42q-35 32 -35 83q0 54 34.5 87.5t91.5 33.5t92.5 -33.5t35.5 -87.5q0 -26 -9.5 -46.5t-25.5 -34.5q21 -17 34 -42t13 -57q0 -58 -38 -95.5t-102 -37.5zM167 67q28 0 44.5 17.5t16.5 42.5t-16.5 42.5t-44.5 17.5
t-44 -18t-16 -42q0 -25 16 -42.5t44 -17.5zM167 258q23 0 36 14t13 35q0 20 -13 34.5t-36 14.5t-35.5 -14.5t-12.5 -34.5q0 -21 12.5 -35t35.5 -14z" />
    <glyph glyph-name="uni2089" unicode="&#x2089;" horiz-adv-x="353" 
d="M179 133q-5 -1 -9 -1h-8q-29 0 -54.5 10.5t-45 30t-30.5 46.5t-11 60q0 32 11.5 59.5t32.5 47.5t49.5 31t61.5 11q34 0 62.5 -11.5t49.5 -32t32.5 -47.5t11.5 -58q0 -29 -10 -58.5t-25 -52.5l-107 -168h-97zM177 204q31 0 52 22t21 53q0 30 -21 51.5t-52 21.5
q-30 0 -51.5 -21.5t-21.5 -52.5t21.5 -52.5t51.5 -21.5z" />
    <glyph glyph-name="uni208A" unicode="&#x208a;" horiz-adv-x="268" 
d="M27 245h74v72h67v-72h72v-68h-72v-73h-67v73h-74v68z" />
    <glyph glyph-name="uni208B" unicode="&#x208b;" horiz-adv-x="268" 
d="M27 246h213v-69h-213v69z" />
    <glyph glyph-name="uni208C" unicode="&#x208c;" horiz-adv-x="265" 
d="M27 292h213v-66h-213v66zM27 194h213v-67h-213v67z" />
    <glyph glyph-name="uni208D" unicode="&#x208d;" horiz-adv-x="269" 
d="M181 -77q-74 54 -113.5 124.5t-39.5 166.5q0 97 40.5 167t111.5 123l51 -67q-56 -40 -87.5 -94t-31.5 -129q0 -73 32.5 -127.5t87.5 -94.5z" />
    <glyph glyph-name="uni208E" unicode="&#x208e;" horiz-adv-x="269" 
d="M37 -8q56 40 88 94.5t32 127.5q0 75 -31.5 129t-87.5 94l52 67q71 -54 111.5 -123.5t40.5 -166.5q0 -96 -40 -166.5t-113 -124.5z" />
    <glyph glyph-name="uni20A1" unicode="&#x20a1;" horiz-adv-x="768" 
d="M109 -120l76 186q-68 51 -107 129t-39 170q0 80 29.5 148.5t80 118.5t119 79t146.5 29q24 0 46 -3l42 103h66l-48 -116q30 -8 56 -21l56 137h66l-69 -168q66 -46 107 -116l-83 -52q-13 22 -28 41t-34 36l-203 -495q6 -1 12 -1h13q86 0 147.5 41t95.5 107l87 -48
q-24 -43 -57.5 -79t-75.5 -62t-91 -40t-105 -14q-17 0 -32.5 1.5t-31.5 3.5l-47 -115h-65l53 129q-14 5 -28 11t-27 13l-63 -153h-64zM137 365q0 -61 22.5 -114t63.5 -91l200 487h-9q-59 0 -110 -22t-88 -60.5t-58 -89.5t-21 -110zM272 122q24 -14 55 -24l213 518
q-13 7 -27 12.5t-28 9.5z" />
    <glyph glyph-name="uni20A2" unicode="&#x20a2;" horiz-adv-x="768" 
d="M414 -10q-80 0 -148.5 29.5t-119 80.5t-79 119t-28.5 146q0 80 29.5 148.5t80 118.5t119 79t146.5 29q52 0 99.5 -13.5t89 -37.5t75.5 -58t58 -75l-83 -52q-36 65 -97 104t-142 39q-59 0 -110 -22t-88 -60.5t-58 -89.5t-21 -110q0 -50 15.5 -94.5t43.5 -80.5t67 -61.5
t86 -36.5v328h95v-84q20 40 56 62t88 22h49v-92h-61q-69 0 -100 -38.5t-31 -119.5v-84q76 8 130.5 49t84.5 103l87 -46q-24 -45 -58 -82.5t-77 -64t-92.5 -41t-105.5 -14.5z" />
    <glyph glyph-name="franc" unicode="&#x20a3;" horiz-adv-x="517" 
d="M53 730h413v-92h-317v-150h317v-86h-317v-84h317v-85h-317v-233h-96v730z" />
    <glyph glyph-name="lira" unicode="&#x20a4;" horiz-adv-x="694" 
d="M78 418h103q-11 26 -18 55t-7 63q0 45 16 82.5t44.5 64.5t68.5 42t89 15q81 0 134 -32t82 -86l-86 -46q-19 39 -50 59.5t-80 20.5q-57 0 -90.5 -33.5t-33.5 -85.5q0 -33 7.5 -62.5t19.5 -56.5h203v-80h-166q17 -36 29.5 -74.5t12.5 -84.5q0 -35 -10 -64q26 -20 53 -33.5
t59 -13.5q48 0 69.5 25t21.5 87v30h98v-42q0 -88 -40 -133t-131 -45q-53 0 -92 19t-71 44q-24 -29 -58 -46.5t-76 -17.5q-67 0 -100 29t-33 77q0 46 33 76t87 31q35 0 65 -13t56 -30q0 4 0.5 8t0.5 9q0 46 -20 84t-44 78h-146v80zM179 55q26 0 47 10.5t35 28.5
q-22 17 -44 28.5t-46 11.5t-35.5 -11t-11.5 -28q0 -18 14.5 -29t40.5 -11z" />
    <glyph glyph-name="uni20A6" unicode="&#x20a6;" horiz-adv-x="816" 
d="M33 458h84v272h103l178 -272h205v272h97v-272h84v-60h-84v-62h84v-60h-84v-276h-98l-181 276h-208v-276h-96v276h-84v60h84v62h-84v60zM213 336h168l-40 62h-128v-62zM478 336h125v62h-166zM213 592v-134h88zM603 146v130h-86z" />
    <glyph glyph-name="peseta" unicode="&#x20a7;" horiz-adv-x="1324" 
d="M823 0q-57 0 -95 10t-60.5 33t-32 62t-9.5 96v213h-80q-10 -42 -33 -77.5t-56.5 -61t-76 -40t-92.5 -14.5h-139v-221h-96v730h235q55 0 101.5 -17.5t81 -48.5t55.5 -73t25 -91h75v118l96 53v-171h114v-86h-114v-212q0 -36 4.5 -58t16.5 -34t34.5 -16t58.5 -4h219
q52 0 77.5 18t25.5 48q0 17 -10 27.5t-27 17t-38.5 11.5t-45.5 9q-30 6 -61.5 14t-56.5 23t-41 39.5t-16 63.5q0 31 13 58.5t37.5 48t59 32t77.5 11.5q69 0 118.5 -24.5t80.5 -67.5l-79 -46q-20 27 -49 42.5t-69 15.5q-46 0 -69.5 -19t-23.5 -46q0 -16 10 -26.5t27.5 -17.5
t40 -11.5l46.5 -9.5q30 -6 61 -14.5t56 -24.5t40.5 -41t15.5 -64q0 -30 -10.5 -58.5t-34.5 -50.5t-63 -35t-96 -13h-228zM149 641v-329h133q40 0 72 12.5t54.5 35t34.5 52.5t12 64q0 35 -12 65t-34.5 52.5t-54.5 35t-72 12.5h-133z" />
    <glyph glyph-name="uni20A8" unicode="&#x20a8;" horiz-adv-x="986" 
d="M730 -7q-82 0 -154 20.5t-135.5 63t-120.5 109t-110 157.5h59q41 0 72 13.5t52 35t32 48.5t11 54q0 65 -43 105.5t-124 40.5h-120v-640h-96v730h225q57 0 104 -18.5t80.5 -50t52 -74.5t18.5 -93q0 -37 -10.5 -72t-31.5 -64t-52 -51t-71 -33q70 -97 158 -145.5t206 -48.5
q63 0 91.5 21t28.5 51q0 17 -10 27.5t-27.5 18t-40 12l-46.5 9.5q-30 6 -61 15t-56 24.5t-40.5 40t-15.5 62.5q0 31 13 58.5t37.5 48t59.5 32t78 11.5q68 0 118 -24.5t80 -67.5l-78 -46q-20 27 -49.5 42.5t-69.5 15.5q-46 0 -69.5 -19t-23.5 -46q0 -16 10 -27t27.5 -18
t40 -12l46.5 -10q30 -6 61 -15t56 -25t40.5 -41.5t15.5 -64.5q0 -29 -11 -58t-36.5 -51.5t-67.5 -36.5t-103 -14z" />
    <glyph glyph-name="uni20A9" unicode="&#x20a9;" horiz-adv-x="1089" 
d="M30 458h96l-79 272h102l76 -272h189l87 272h90l87 -272h191l78 272h98l-81 -272h95v-60h-113l-18 -62h131v-60h-149l-82 -276h-97l-87 276h-198l-88 -276h-99l-80 276h-149v60h131l-18 62h-113v60zM465 336h160l-20 62h-120zM717 336h116l18 62h-154zM260 336h115l20 62
h-153zM778 144l38 132h-80zM505 458h81l-40 127zM314 145l42 131h-79z" />
    <glyph glyph-name="uni20AA" unicode="&#x20aa;" horiz-adv-x="741" 
d="M232 563q30 0 48.5 -4t29.5 -14.5t15 -28t4 -44.5v-382h103q46 0 76.5 9.5t49 30t26.5 53t8 78.5v469h96v-469q0 -134 -61.5 -197.5t-191.5 -63.5h-203v563zM53 730h201q131 0 193 -63.5t62 -197.5v-216q1 -51 -19 -71.5t-77 -20.5v308q0 46 -8 78.5t-26.5 53t-50 30
t-78.5 9.5h-101v-640h-96v730z" />
    <glyph glyph-name="Euro" unicode="&#x20ac;" horiz-adv-x="588" 
d="M30 510h75q2 50 20 92t49 73t74 48t95 17q57 0 102.5 -20.5t76.5 -55.5l-70 -63q-39 47 -109 47q-66 0 -101.5 -38.5t-39.5 -99.5h252l-14 -77h-238v-136h217l-12 -76h-205q2 -63 36.5 -100.5t102.5 -37.5q40 0 68 14.5t45 39.5l81 -59q-30 -42 -78 -65t-115 -23
q-57 0 -101 16.5t-74 47t-46 73t-16 94.5h-75v76h75v136h-75v77z" />
    <glyph glyph-name="uni20AE" unicode="&#x20ae;" horiz-adv-x="609" 
d="M130 391l127 52v196h-212v91h520v-91h-212v-157l125 52v-63l-125 -52v-75l125 52v-64l-125 -51v-281h-96v242l-127 -52v63l127 52v75l-127 -52v63z" />
    <glyph glyph-name="uni20B1" unicode="&#x20b1;" horiz-adv-x="717" 
d="M34 567h80v163h234q91 0 157 -45.5t93 -117.5h88v-60h-74q1 -8 1.5 -15.5t0.5 -15.5t-0.5 -15.5t-1.5 -15.5h74v-60h-88q-27 -73 -93 -118.5t-157 -45.5h-138v-221h-96v385h-80v60h80v62h-80v60zM516 476q0 16 -3 31h-303v-62h303q3 15 3 31zM210 641v-74h280
q-22 34 -59.5 54t-88.5 20h-132zM342 312q51 0 88.5 19.5t59.5 53.5h-280v-73h132z" />
    <glyph glyph-name="published" unicode="&#x2117;" horiz-adv-x="826" 
d="M414 -81q-78 0 -146 29.5t-119 80.5t-80.5 119.5t-29.5 146.5t29.5 146t80.5 119t119 80.5t146 29.5t146 -29.5t118.5 -80.5t80 -119t29.5 -146t-29.5 -146.5t-80 -119.5t-118.5 -80.5t-146 -29.5zM414 -1q61 0 114 23.5t92.5 63.5t62 94t22.5 115t-22.5 114.5t-62 93.5
t-92.5 63.5t-114 23.5q-62 0 -115.5 -23.5t-92.5 -63.5t-61 -93.5t-22 -114.5t22 -115t61 -94t92.5 -63.5t115.5 -23.5zM280 487h170q31 0 57 -10.5t45 -29.5t29.5 -44.5t10.5 -54.5t-10 -55t-28 -46t-44 -31.5t-58 -11.5h-87v-101h-85v384zM365 415v-138h73q31 0 50 21
t19 50q0 28 -19.5 47.5t-49.5 19.5h-73z" />
    <glyph glyph-name="servicemark" unicode="&#x2120;" horiz-adv-x="642" 
d="M276 730h65l95 -124l99 124h60v-290h-70v178l-90 -109l-90 109v-178h-69v290zM133 433q-38 0 -65.5 13.5t-45.5 38.5l61 42q8 -14 20.5 -23t29.5 -9q15 0 24.5 8.5t9.5 22.5q0 17 -21 23.5t-46 16t-46 27.5t-21 57q0 36 28 59t71 23q33 0 57 -13t41 -33l-57 -36
q-16 24 -42 24q-15 0 -23 -7t-8 -17q0 -14 21 -20.5t46.5 -16.5t46.5 -28t21 -56q0 -42 -27.5 -69t-74.5 -27z" />
    <glyph glyph-name="trademark" unicode="&#x2122;" horiz-adv-x="669" 
d="M303 730h65l95 -124l99 124h60v-290h-69v179l-91 -110l-90 109v-178h-69v290zM119 666h-85v64h237v-64h-83v-226h-69v226z" />
    <glyph glyph-name="uni2153" unicode="&#x2153;" horiz-adv-x="850" 
d="M626 730h112l-527 -730h-112zM681 -6q-42 0 -79 13.5t-63 43.5l67 55q29 -36 72 -36q28 0 46 15t18 40q0 26 -21 40t-53 14h-43v75h42q32 0 49.5 14.5t17.5 37.5t-16 36.5t-44 13.5q-23 0 -39 -10t-27 -27l-64 46q21 29 56 46t76 17q65 0 103.5 -32.5t38.5 -86.5
q0 -28 -12.5 -50.5t-34.5 -38.5q26 -15 41.5 -39.5t15.5 -57.5q0 -55 -39 -92t-108 -37zM26 386h83v222q-10 -14 -28.5 -22.5t-38.5 -8.5h-6v83h3q21 0 35 6.5t22 17t11.5 23t3.5 23.5h81v-344h80v-78h-246v78z" />
    <glyph glyph-name="uni2154" unicode="&#x2154;" horiz-adv-x="865" 
d="M643 730h112l-527 -730h-112zM27 377q0 29 10.5 51.5t27 40.5t37 33t40.5 28q33 20 58 39.5t25 45.5q0 20 -15 34.5t-43 14.5t-46.5 -17t-29.5 -42l-71 37q20 43 57 68.5t90 25.5q66 0 105 -35t39 -86q0 -27 -10 -48.5t-26.5 -38.5t-36.5 -31l-40 -27q-32 -20 -57.5 -39
t-26.5 -44h196v-79h-283v69zM696 -6q-42 0 -79 13.5t-63 43.5l67 55q29 -36 72 -36q28 0 46 15t18 40q0 26 -21 40t-53 14h-43v75h42q32 0 49.5 14.5t17.5 37.5t-16 36.5t-44 13.5q-23 0 -39 -10t-27 -27l-64 46q21 29 56 46t76 17q65 0 103.5 -32.5t38.5 -86.5
q0 -28 -12.5 -50.5t-34.5 -38.5q26 -15 41.5 -39.5t15.5 -57.5q0 -55 -39 -92t-108 -37z" />
    <glyph glyph-name="uni2155" unicode="&#x2155;" horiz-adv-x="846" 
d="M626 730h112l-527 -730h-112zM677 -6q-53 0 -90.5 22.5t-56.5 56.5l78 44q10 -20 26.5 -32.5t42.5 -12.5q27 0 46 18t19 47q0 30 -19 48t-47 18q-23 0 -40 -11.5t-26 -29.5l-75 30l31 230h235v-77h-170l-12 -85q13 8 29.5 13t37.5 5q29 0 54.5 -9t44 -27t29.5 -44t11 -61
q0 -32 -11 -58.5t-30.5 -45t-47 -29t-59.5 -10.5zM26 386h83v222q-10 -14 -28.5 -22.5t-38.5 -8.5h-6v83h3q21 0 35 6.5t22 17t11.5 23t3.5 23.5h81v-344h80v-78h-246v78z" />
    <glyph glyph-name="uni2156" unicode="&#x2156;" horiz-adv-x="861" 
d="M642 730h112l-527 -730h-112zM692 -6q-53 0 -90.5 22.5t-56.5 56.5l78 44q10 -20 26.5 -32.5t42.5 -12.5q27 0 46 18t19 47q0 30 -19 48t-47 18q-23 0 -40 -11.5t-26 -29.5l-75 30l31 230h235v-77h-170l-12 -85q13 8 29.5 13t37.5 5q29 0 54.5 -9t44 -27t29.5 -44t11 -61
q0 -32 -11 -58.5t-30.5 -45t-47 -29t-59.5 -10.5zM27 377q0 29 10.5 51.5t27 40.5t37 33t40.5 28q33 20 58 39.5t25 45.5q0 20 -15 34.5t-43 14.5t-46.5 -17t-29.5 -42l-71 37q20 43 57 68.5t90 25.5q66 0 105 -35t39 -86q0 -27 -10 -48.5t-26.5 -38.5t-36.5 -31l-40 -27
q-32 -20 -57.5 -39t-26.5 -44h196v-79h-283v69z" />
    <glyph glyph-name="uni2157" unicode="&#x2157;" horiz-adv-x="855" 
d="M635 730h112l-527 -730h-112zM686 -6q-53 0 -90.5 22.5t-56.5 56.5l78 44q10 -20 26.5 -32.5t42.5 -12.5q27 0 46 18t19 47q0 30 -19 48t-47 18q-23 0 -40 -11.5t-26 -29.5l-75 30l31 230h235v-77h-170l-12 -85q13 8 29.5 13t37.5 5q29 0 54.5 -9t44 -27t29.5 -44t11 -61
q0 -32 -11 -58.5t-30.5 -45t-47 -29t-59.5 -10.5zM156 302q-42 0 -79 13.5t-63 43.5l67 55q29 -36 72 -36q28 0 46 15t18 40q0 26 -21 40t-53 14h-43v75h42q32 0 49.5 14.5t17.5 37.5t-16 36.5t-44 13.5q-23 0 -39 -10t-27 -27l-64 46q21 29 56 46t76 17q65 0 103.5 -32.5
t38.5 -86.5q0 -28 -12.5 -50.5t-34.5 -38.5q26 -15 41.5 -39.5t15.5 -57.5q0 -55 -39 -92t-108 -37z" />
    <glyph glyph-name="uni2158" unicode="&#x2158;" horiz-adv-x="849" 
d="M629 730h112l-527 -730h-112zM206 400h-180v75l178 255h82v-257h61v-73h-61v-92h-80v92zM680 -6q-53 0 -90.5 22.5t-56.5 56.5l78 44q10 -20 26.5 -32.5t42.5 -12.5q27 0 46 18t19 47q0 30 -19 48t-47 18q-23 0 -40 -11.5t-26 -29.5l-75 30l31 230h235v-77h-170l-12 -85
q13 8 29.5 13t37.5 5q29 0 54.5 -9t44 -27t29.5 -44t11 -61q0 -32 -11 -58.5t-30.5 -45t-47 -29t-59.5 -10.5zM206 473v133l-93 -133h93z" />
    <glyph glyph-name="uni2159" unicode="&#x2159;" horiz-adv-x="827" 
d="M649 -6q-34 0 -62.5 11.5t-49.5 32t-32.5 48t-11.5 58.5q0 30 10.5 59.5t25.5 52.5l107 166h96l-86 -132q5 1 9 1.5t9 0.5q29 0 55 -11t45 -30.5t30 -46.5t11 -60q0 -32 -11.5 -59.5t-32.5 -47.5t-49.5 -31.5t-62.5 -11.5zM626 730h112l-527 -730h-112zM26 386h83v222
q-10 -14 -28.5 -22.5t-38.5 -8.5h-6v83h3q21 0 35 6.5t22 17t11.5 23t3.5 23.5h81v-344h80v-78h-246v78zM648 71q31 0 53 21.5t22 53.5q0 31 -22 52t-53 21t-52 -21t-21 -53q0 -31 21 -52.5t52 -21.5z" />
    <glyph glyph-name="uni215A" unicode="&#x215a;" horiz-adv-x="834" 
d="M656 -6q-34 0 -62.5 11.5t-49.5 32t-32.5 48t-11.5 58.5q0 30 10.5 59.5t25.5 52.5l107 166h96l-86 -132q5 1 9 1.5t9 0.5q29 0 55 -11t45 -30.5t30 -46.5t11 -60q0 -32 -11.5 -59.5t-32.5 -47.5t-49.5 -31.5t-62.5 -11.5zM633 730h112l-527 -730h-112zM167 302
q-53 0 -90.5 22.5t-56.5 56.5l78 44q10 -20 26.5 -32.5t42.5 -12.5q27 0 46 18t19 47q0 30 -19 48t-47 18q-23 0 -40 -11.5t-26 -29.5l-75 30l31 230h235v-77h-170l-12 -85q13 8 29.5 13t37.5 5q29 0 54.5 -9t44 -27t29.5 -44t11 -61q0 -32 -11 -58.5t-30.5 -45t-47 -29
t-59.5 -10.5zM655 71q31 0 53 21.5t22 53.5q0 31 -22 52t-53 21t-52 -21t-21 -53q0 -31 21 -52.5t52 -21.5z" />
    <glyph glyph-name="uni215B" unicode="&#x215b;" horiz-adv-x="848" 
d="M680 -6q-63 0 -101.5 37.5t-38.5 95.5q0 30 13 55t36 42q-35 32 -35 83q0 54 34.5 87.5t91.5 33.5t92.5 -33.5t35.5 -87.5q0 -26 -9.5 -46.5t-25.5 -34.5q21 -17 34 -42t13 -57q0 -58 -38 -95.5t-102 -37.5zM626 730h112l-527 -730h-112zM26 386h83v222
q-10 -14 -28.5 -22.5t-38.5 -8.5h-6v83h3q21 0 35 6.5t22 17t11.5 23t3.5 23.5h81v-344h80v-78h-246v78zM680 67q28 0 44.5 17.5t16.5 42.5t-16.5 42.5t-44.5 17.5t-44 -18t-16 -42q0 -25 16 -42.5t44 -17.5zM680 258q23 0 36 14t13 35q0 20 -13 34.5t-36 14.5t-35.5 -14.5
t-12.5 -34.5q0 -21 12.5 -35t35.5 -14z" />
    <glyph glyph-name="uni215C" unicode="&#x215c;" horiz-adv-x="858" 
d="M690 -6q-63 0 -101.5 37.5t-38.5 95.5q0 30 13 55t36 42q-35 32 -35 83q0 54 34.5 87.5t91.5 33.5t92.5 -33.5t35.5 -87.5q0 -26 -9.5 -46.5t-25.5 -34.5q21 -17 34 -42t13 -57q0 -58 -38 -95.5t-102 -37.5zM635 730h112l-527 -730h-112zM156 302q-42 0 -79 13.5
t-63 43.5l67 55q29 -36 72 -36q28 0 46 15t18 40q0 26 -21 40t-53 14h-43v75h42q32 0 49.5 14.5t17.5 37.5t-16 36.5t-44 13.5q-23 0 -39 -10t-27 -27l-64 46q21 29 56 46t76 17q65 0 103.5 -32.5t38.5 -86.5q0 -28 -12.5 -50.5t-34.5 -38.5q26 -15 41.5 -39.5t15.5 -57.5
q0 -55 -39 -92t-108 -37zM690 67q28 0 44.5 17.5t16.5 42.5t-16.5 42.5t-44.5 17.5t-44 -18t-16 -42q0 -25 16 -42.5t44 -17.5zM690 258q23 0 36 14t13 35q0 20 -13 34.5t-36 14.5t-35.5 -14.5t-12.5 -34.5q0 -21 12.5 -35t35.5 -14z" />
    <glyph glyph-name="uni215D" unicode="&#x215d;" horiz-adv-x="856" 
d="M688 -6q-63 0 -101.5 37.5t-38.5 95.5q0 30 13 55t36 42q-35 32 -35 83q0 54 34.5 87.5t91.5 33.5t92.5 -33.5t35.5 -87.5q0 -26 -9.5 -46.5t-25.5 -34.5q21 -17 34 -42t13 -57q0 -58 -38 -95.5t-102 -37.5zM633 730h112l-527 -730h-112zM167 302q-53 0 -90.5 22.5
t-56.5 56.5l78 44q10 -20 26.5 -32.5t42.5 -12.5q27 0 46 18t19 47q0 30 -19 48t-47 18q-23 0 -40 -11.5t-26 -29.5l-75 30l31 230h235v-77h-170l-12 -85q13 8 29.5 13t37.5 5q29 0 54.5 -9t44 -27t29.5 -44t11 -61q0 -32 -11 -58.5t-30.5 -45t-47 -29t-59.5 -10.5zM688 67
q28 0 44.5 17.5t16.5 42.5t-16.5 42.5t-44.5 17.5t-44 -18t-16 -42q0 -25 16 -42.5t44 -17.5zM688 258q23 0 36 14t13 35q0 20 -13 34.5t-36 14.5t-35.5 -14.5t-12.5 -34.5q0 -21 12.5 -35t35.5 -14z" />
    <glyph glyph-name="uni215E" unicode="&#x215e;" horiz-adv-x="797" 
d="M628 -6q-63 0 -101.5 37.5t-38.5 95.5q0 30 13 55t36 42q-35 32 -35 83q0 54 34.5 87.5t91.5 33.5t92.5 -33.5t35.5 -87.5q0 -26 -9.5 -46.5t-25.5 -34.5q21 -17 34 -42t13 -57q0 -58 -38 -95.5t-102 -37.5zM574 730h112l-527 -730h-112zM213 652h-183v78h269v-72
l-153 -350h-90zM628 67q28 0 44.5 17.5t16.5 42.5t-16.5 42.5t-44.5 17.5t-44 -18t-16 -42q0 -25 16 -42.5t44 -17.5zM628 258q23 0 36 14t13 35q0 20 -13 34.5t-36 14.5t-35.5 -14.5t-12.5 -34.5q0 -21 12.5 -35t35.5 -14z" />
    <glyph glyph-name="uni215F" unicode="&#x215f;" horiz-adv-x="757" 
d="M626 730h112l-527 -730h-112zM26 386h83v222q-10 -14 -28.5 -22.5t-38.5 -8.5h-6v83h3q21 0 35 6.5t22 17t11.5 23t3.5 23.5h81v-344h80v-78h-246v78z" />
    <glyph glyph-name="arrowleft" unicode="&#x2190;" horiz-adv-x="896" 
d="M279 98q-17 36 -41 71t-52.5 66.5t-61 59t-65.5 46.5v48q33 21 65.5 50t60.5 62.5t50 68t35 65.5l85 -50q-24 -50 -65 -96t-81 -76h608v-93h-608q41 -28 82 -73t67 -94z" />
    <glyph glyph-name="arrowup" unicode="&#x2191;" horiz-adv-x="896" 
d="M392 596q-31 -40 -76.5 -80.5t-95.5 -63.5l-49 84q31 13 65.5 35t67.5 50t62.5 60.5t49.5 65.5h47q20 -33 49 -65.5t62 -60.5t67.5 -50t65.5 -35l-49 -84q-51 23 -96.5 63.5t-75.5 80.5v-596h-94v596z" />
    <glyph glyph-name="arrowright" unicode="&#x2192;" horiz-adv-x="896" 
d="M519 152q26 49 66.5 94.5t82.5 73.5h-608v93h607q-41 30 -81 75.5t-63 96.5l84 50q13 -31 35 -66t50 -68t60.5 -62.5t65.5 -49.5v-48q-33 -19 -65 -46.5t-61 -59t-53 -66.5t-41 -71z" />
    <glyph glyph-name="arrowdown" unicode="&#x2193;" horiz-adv-x="896" 
d="M415 -17q-20 33 -49 65.5t-62.5 60.5t-68 50t-64.5 35l48 85q50 -24 95 -63.5t76 -79.5v594h95v-598q30 41 75.5 82t96.5 65l49 -85q-30 -13 -64.5 -35t-68 -50t-62.5 -60.5t-49 -65.5h-47z" />
    <glyph glyph-name="uni2196" unicode="&#x2196;" horiz-adv-x="896" 
d="M246 496q8 -50 4.5 -111t-22.5 -114l-94 25q13 30 21.5 70t12 83.5t1.5 87t-11 81.5l32 33q38 -10 81.5 -12t87 1.5t83.5 12.5t70 22l25 -94q-53 -20 -114 -23.5t-112 3.5l432 -430l-66 -65z" />
    <glyph glyph-name="uni2197" unicode="&#x2197;" horiz-adv-x="896" 
d="M136 131l429 430q-51 -7 -111.5 -4t-112.5 23l25 94q31 -13 71 -21.5t83 -12.5t86.5 -1.5t81.5 11.5l33 -33q-9 -37 -11.5 -80.5t1 -87t12.5 -83.5t21 -71l-94 -24q-19 52 -22.5 112.5t3.5 110.5l-430 -429z" />
    <glyph glyph-name="uni2198" unicode="&#x2198;" horiz-adv-x="896" 
d="M699 97q-37 10 -80.5 12.5t-87 -1.5t-83.5 -12.5t-71 -21.5l-24 94q52 19 113 22.5t111 -3.5l-430 430l66 66l429 -430q-7 50 -3.5 111t23.5 114l93 -25q-12 -31 -21 -71t-12.5 -83.5t-1 -86.5t11.5 -81z" />
    <glyph glyph-name="uni2199" unicode="&#x2199;" horiz-adv-x="896" 
d="M512 63q-31 13 -71 21.5t-83.5 12t-86.5 1.5t-81 -11l-33 32q9 38 11.5 81.5t-1 87t-12.5 83.5t-21 71l94 25q19 -54 22.5 -115t-4.5 -111l431 431l66 -66l-429 -429q51 7 111 3t113 -23z" />
    <glyph glyph-name="partialdiff" unicode="&#x2202;" horiz-adv-x="589" 
d="M293 -8q-52 0 -98 19t-80.5 53t-54.5 80t-20 100q0 53 19 98.5t52 78.5t77.5 51.5t94.5 18.5q41 0 70.5 -10.5t51.5 -27.5q-39 63 -110.5 129.5t-186.5 147.5h145q80 -62 136 -123t91 -121t51.5 -119.5t16.5 -119.5q0 -53 -19.5 -99.5t-54 -81t-81 -54.5t-100.5 -20z
M294 82q33 0 62 13t51 35t34.5 51.5t12.5 62.5t-12.5 62.5t-34 51.5t-50.5 35t-62 13t-62 -12.5t-50.5 -34t-34.5 -51t-13 -64.5q0 -34 13 -63.5t34.5 -51.5t50.5 -34.5t61 -12.5z" />
    <glyph glyph-name="Delta" unicode="&#x2206;" horiz-adv-x="897" 
d="M20 0l429 742l428 -742h-857zM183 93h532l-267 463z" />
    <glyph glyph-name="product" unicode="&#x220f;" horiz-adv-x="760" 
d="M41 730h680v-93h-129v-637h-96v637h-232v-637h-96v637h-127v93z" />
    <glyph glyph-name="summation" unicode="&#x2211;" horiz-adv-x="566" 
d="M37 102l246 275l-238 258v95h483v-92h-361l240 -262l-256 -283h377v-93h-491v102z" />
    <glyph glyph-name="minus" unicode="&#x2212;" 
d="M46 406h370v-82h-370v82z" />
    <glyph glyph-name="radical" unicode="&#x221a;" horiz-adv-x="786" 
d="M138 410h-93v90h160l146 -391l287 621h104l-343 -730h-103z" />
    <glyph glyph-name="infinity" unicode="&#x221e;" horiz-adv-x="921" 
d="M252 215q-35 0 -66 13.5t-54 36.5t-36.5 53.5t-13.5 65.5t13.5 66t36.5 54t54 36.5t66 13.5q29 0 56.5 -9.5t54 -25t51 -35.5t48.5 -42l48.5 42.5t50.5 36t53 24.5t56 9q35 0 66 -13.5t54 -36.5t36.5 -54t13.5 -66t-13.5 -65.5t-36.5 -53.5t-54 -36.5t-66 -13.5
q-29 0 -56 9.5t-53 25t-50.5 35.5t-48.5 42q-24 -22 -48.5 -42t-51 -35.5t-54 -25t-56.5 -9.5zM253 298q36 0 73 25.5t76 61.5q-38 35 -75 59.5t-74 24.5q-17 0 -32.5 -7t-27.5 -18.5t-19 -27t-7 -32.5t7 -32.5t19 -27.5t27.5 -19t32.5 -7zM670 299q35 0 60 25.5t25 60.5
q0 17 -7 32.5t-18.5 27t-27 18.5t-32.5 7q-36 0 -72.5 -24.5t-75.5 -59.5q39 -36 76 -61.5t72 -25.5z" />
    <glyph glyph-name="integral" unicode="&#x222b;" horiz-adv-x="355" 
d="M5 -116q37 0 59 4t33.5 16t15 34t3.5 57v536q0 57 9.5 95.5t32.5 61.5t61.5 32.5t95.5 9.5h8v-88q-37 0 -59 -4t-33.5 -16t-15 -34t-3.5 -58v-534q0 -58 -9.5 -96.5t-32.5 -61.5t-61.5 -32.5t-95.5 -9.5h-8v88z" />
    <glyph glyph-name="approxequal" unicode="&#x2248;" horiz-adv-x="454" 
d="M42 482q22 11 44 18.5t53 7.5q23 0 46 -6t45.5 -13t44.5 -13t41 -6q29 0 49.5 6.5t46.5 18.5v-84q-21 -12 -42 -18.5t-54 -6.5q-21 0 -44 6t-46.5 13l-45.5 13t-41 6q-30 0 -52 -7.5t-45 -18.5v84zM42 315q22 11 42.5 19t51.5 8q23 0 46.5 -6l47.5 -12.5l46.5 -12.5
t41.5 -6q29 0 48.5 6t45.5 17v-83q-21 -12 -41 -17.5t-53 -5.5q-21 0 -45 6l-48 12.5l-47 12.5t-42 6q-30 0 -50.5 -8t-43.5 -19v83z" />
    <glyph glyph-name="notequal" unicode="&#x2260;" 
d="M324 487h92v-83h-131l-38 -82h169v-82h-208l-31 -67h-77l31 67h-85v82h123l38 82h-161v83h199l32 68h79z" />
    <glyph glyph-name="equivalence" unicode="&#x2261;" 
d="M46 404h370v-82h-370v82zM46 240h370v-81h-370v81zM46 568h370v-82h-370v82z" />
    <glyph glyph-name="lessequal" unicode="&#x2264;" 
d="M45 406v83l370 137v-85l-269 -93l269 -96v-85zM45 227h370v-82h-370v82z" />
    <glyph glyph-name="greaterequal" unicode="&#x2265;" 
d="M45 352l268 96l-268 93v85l370 -137v-83l-370 -139v85zM45 227h370v-82h-370v82z" />
    <glyph glyph-name="squaremultiply" unicode="&#x22a0;" horiz-adv-x="926" 
d="M100 730h726v-730h-726v730zM197 93h532v544h-532v-544zM266 220l141 146l-142 148l57 56l141 -146l141 147l57 -56l-142 -149l141 -145l-57 -57l-140 144l-139 -145z" />
    <glyph glyph-name="house" unicode="&#x2302;" horiz-adv-x="874" 
d="M100 0v427l337 323l337 -323v-427h-674z" />
    <glyph glyph-name="blacksquare" unicode="&#x25a0;" horiz-adv-x="926" 
d="M100 730h726v-730h-726v730z" />
    <glyph glyph-name="blacksquare" unicode="&#xe740;" horiz-adv-x="926" 
d="M100 730h726v-730h-726v730z" />
    <glyph glyph-name="whitesquare" unicode="&#x25a1;" horiz-adv-x="926" 
d="M100 730h726v-730h-726v730zM197 93h532v544h-532v-544z" />
    <glyph glyph-name="blacksmallsquare" unicode="&#x25aa;" horiz-adv-x="700" 
d="M100 500h500v-500h-500v500z" />
    <glyph glyph-name="whitesmallsquare" unicode="&#x25ab;" horiz-adv-x="700" 
d="M100 500h500v-500h-500v500zM197 94h307v312h-307v-312z" />
    <glyph glyph-name="triagup" unicode="&#x25b2;" horiz-adv-x="897" 
d="M20 0l429 742l428 -742h-857z" />
    <glyph glyph-name="triagrt" unicode="&#x25ba;" horiz-adv-x="897" 
d="M100 800l742 -428l-742 -429v857z" />
    <glyph glyph-name="triagdn" unicode="&#x25bc;" horiz-adv-x="897" 
d="M877 730l-428 -742l-429 742h857z" />
    <glyph glyph-name="triaglf" unicode="&#x25c4;" horiz-adv-x="897" 
d="M797 -57l-742 429l742 428v-857z" />
    <glyph glyph-name="lozenge" unicode="&#x25ca;" horiz-adv-x="843" 
d="M33 366l380 380l382 -382l-380 -380zM416 108l255 256l-259 258l-255 -255z" />
    <glyph glyph-name="whitecircle" unicode="&#x25cb;" horiz-adv-x="927" 
d="M464 -10q-78 0 -146 29.5t-118.5 80.5t-80 119t-29.5 146t29.5 146t80 119t118.5 80.5t146 29.5t146 -29.5t118.5 -80.5t80 -119t29.5 -146t-29.5 -146t-80 -119t-118.5 -80.5t-146 -29.5zM464 84q59 0 109.5 22.5t87.5 60.5t58.5 89t21.5 109t-21.5 109t-58.5 89.5
t-87.5 60.5t-109.5 22q-58 0 -109 -22t-88 -60.5t-58.5 -89.5t-21.5 -109t21.5 -109t58.5 -89t88 -60.5t109 -22.5z" />
    <glyph glyph-name="whitecircle" unicode="&#x25ef;" horiz-adv-x="927" 
d="M464 -10q-78 0 -146 29.5t-118.5 80.5t-80 119t-29.5 146t29.5 146t80 119t118.5 80.5t146 29.5t146 -29.5t118.5 -80.5t80 -119t29.5 -146t-29.5 -146t-80 -119t-118.5 -80.5t-146 -29.5zM464 84q59 0 109.5 22.5t87.5 60.5t58.5 89t21.5 109t-21.5 109t-58.5 89.5
t-87.5 60.5t-109.5 22q-58 0 -109 -22t-88 -60.5t-58.5 -89.5t-21.5 -109t21.5 -109t58.5 -89t88 -60.5t109 -22.5z" />
    <glyph glyph-name="bullseye" unicode="&#x25ce;" horiz-adv-x="927" 
d="M753 279q-18 -60 -56 -105.5t-89 -73.5t-110.5 -35t-119.5 11t-105.5 56t-73.5 89t-35 110.5t11 119.5t56 105.5t89 73.5t110.5 35t119.5 -11t105.5 -56t73.5 -89t35 -110.5t-11 -119.5zM678 292q15 45 11.5 89t-23 82.5t-53 68t-77.5 44.5t-88.5 12.5t-83.5 -21
t-69 -51.5t-45 -78t-11.5 -89t23 -82.5t53 -68t77.5 -44.5t88.5 -12.5t83.5 21t69 51.5t45 78zM644 316q-10 -37 -32.5 -66.5t-53 -47.5t-67 -23t-75.5 5q-39 11 -67.5 34t-46 54t-22 68t5.5 74t32.5 66t53 47t67 23.5t75.5 -4.5q38 -10 67 -33.5t46.5 -54.5t22 -68
t-5.5 -74zM569 328q8 21 6.5 42.5t-10.5 40.5t-25 34t-39 22q-22 8 -44.5 6.5t-41 -10.5t-33 -25t-22.5 -37q-15 -43 4.5 -82.5t64.5 -55.5t85 3t55 62zM525 365q0 -35 -17 -60t-43 -25t-44 25t-18 60t18 60t44 25t43 -25t17 -60z" />
    <glyph glyph-name="blackcircle" unicode="&#x25cf;" horiz-adv-x="927" 
d="M464 -10q-78 0 -146 29.5t-118.5 80.5t-80 119t-29.5 146t29.5 146t80 119t118.5 80.5t146 29.5t146 -29.5t118.5 -80.5t80 -119t29.5 -146t-29.5 -146t-80 -119t-118.5 -80.5t-146 -29.5z" />
    <glyph glyph-name="uni25E2" unicode="&#x25e2;" horiz-adv-x="897" 
d="M267 -73l-222 828l828 -222z" />
    <glyph glyph-name="uni25E3" unicode="&#x25e3;" horiz-adv-x="897" 
d="M26 533l828 222l-222 -828z" />
    <glyph glyph-name="uni25E4" unicode="&#x25e4;" horiz-adv-x="897" 
d="M29 168l606 606l222 -828z" />
    <glyph glyph-name="uni25E5" unicode="&#x25e5;" horiz-adv-x="897" 
d="M44 -58l223 828l605 -607z" />
    <glyph glyph-name="uni2605" unicode="&#x2605;" horiz-adv-x="900" 
d="M634 85l-187 135l-186 -135l72 219l-186 135l229 -1l72 218l71 -218l230 -1l-187 -134z" />
    <glyph glyph-name="ballotboxwithx" unicode="&#x2612;" horiz-adv-x="700" 
d="M100 500h500v-500h-500v500zM190 87h320v326h-320v-326zM349 300l78 80l51 -51l-78 -80l80 -78l-51 -51l-79 77l-77 -79l-51 51l77 79l-79 78l51 51z" />
    <glyph glyph-name="uni263C" unicode="&#x263c;" horiz-adv-x="928" 
d="M287 365q0 36 14 67.5t37.5 55t55 37.5t67.5 14t67.5 -14t55 -37.5t37.5 -55t14 -67.5t-14 -67.5t-37.5 -55t-55 -37.5t-67.5 -14t-67.5 14t-55 37.5t-37.5 55t-14 67.5zM434 719h54l-17 -142h-20zM488 13h-54l17 142h20zM108 339v54l142 -17v-20zM814 393v-54l-142 17
v20zM140 519l28 47l115 -87l-10 -15zM782 213l-28 -47l-115 87l10 15zM261 659l47 28l55 -133l-15 -10zM661 73l-47 -28l-55 133l15 10zM614 687l47 -28l-87 -115l-15 10zM308 45l-47 28l87 115l15 -10zM752 566l30 -46l-133 -56l-10 16zM170 166l-30 46l133 56l10 -16z" />
    <glyph glyph-name="uni263E" unicode="&#x263e;" horiz-adv-x="787" 
d="M534 616q-49 0 -93 -20t-76 -54t-51 -79.5t-19 -97.5t19 -97.5t51 -79.5t76 -54t93 -20q18 0 36 3.5t35 8.5q-38 -27 -83.5 -42t-94.5 -15q-61 0 -115 23.5t-94 63.5t-63.5 94t-23.5 115t23.5 115t63.5 94t94 63.5t115 23.5q49 0 94.5 -15t83.5 -42q-17 5 -35 8.5
t-36 3.5z" />
    <glyph glyph-name="spade" unicode="&#x2660;" horiz-adv-x="920" 
d="M335 0l26 50t31 69t26 82t11 89q-9 -26 -24 -50.5t-36 -43.5t-48.5 -30.5t-61.5 -11.5q-35 0 -66 12.5t-54.5 34t-37 50.5t-13.5 61q0 43 13.5 80.5t42 75t73 78t106.5 89.5l140 112h1l140 -112q62 -49 105.5 -89.5t70.5 -78t39.5 -75t12.5 -80.5q0 -32 -12.5 -60.5
t-34 -50t-50 -34t-60.5 -12.5q-37 0 -66 11.5t-51.5 30t-38.5 43t-25 50.5q0 -45 12 -89t28 -82t33 -69l27 -50h-259z" />
    <glyph glyph-name="club" unicode="&#x2663;" horiz-adv-x="920" 
d="M336 0l22.5 43t27.5 58t25.5 69.5t15.5 77.5q-21 -52 -65 -85t-102 -33q-37 0 -69 14t-56 38t-38 56t-14 69t14 69t38 56t56 38t69 14q11 0 21.5 -2t20.5 -5q-19 41 -19 87q0 36 13.5 68t37.5 56t56 38t68 14t68 -14t56 -38t38 -56t14 -68q0 -45 -19 -88q22 8 46 8
q37 0 69 -14t56 -38t37.5 -56t13.5 -69t-14 -69t-38 -56t-56 -38t-69 -14q-58 0 -100.5 33t-62.5 84q5 -39 17.5 -76.5t27.5 -69.5t29.5 -58l23.5 -43h-259z" />
    <glyph glyph-name="heart" unicode="&#x2665;" horiz-adv-x="920" 
d="M89 550q0 39 14 73.5t39 60.5t58 41t72 15q38 0 70.5 -12.5t56.5 -34t39 -51t19 -63.5q5 34 19.5 63.5t38.5 51t56 34t71 12.5t73 -15t60 -41t41 -60.5t15 -73.5q0 -43 -13 -86.5t-41 -92t-72 -105.5t-106 -126l-142 -157l-141 157q-62 69 -105.5 126t-70.5 105.5t-39 92
t-12 86.5z" />
    <glyph glyph-name="diamond" unicode="&#x2666;" horiz-adv-x="920" 
d="M460 791l327 -401l-327 -400l-327 400z" />
    <glyph glyph-name="uni267B" unicode="&#x267b;" horiz-adv-x="921" 
d="M822 244l-91 -157q-14 -22 -29.5 -37t-52.5 -15h-54v-47l-106 128l106 127v-46h136q21 0 37.5 7.5t28.5 17.5q14 10 24 24zM182 111l-90 158q-12 23 -17.5 44t13.5 52l27 46l-40 23l164 29l55 -156l-38 23l-33 -57l-24 -41.5t-11 -19.5q-11 -18 -12.5 -36t0.5 -32
q2 -17 8 -33h-2zM389 729h182q26 -1 47 -6.5t39 -37.5l26 -46l41 23l-58 -157l-162 30l38 22l-67 118q-11 18 -25.5 28.5t-28.5 16.5q-16 6 -32 8v1zM260 670q4 6 12.5 14.5t19.5 14.5q21 12 45 13.5t46 -4.5t39.5 -17t24.5 -25l-109 -189l-141 81zM302 35q-8 0 -19.5 2.5
t-22.5 9.5q-21 12 -34.5 32.5t-19.5 42t-4.5 42t9.5 33.5h218v-162h-127zM832 381q4 -6 6.5 -17t2.5 -24q0 -24 -10.5 -45.5t-27 -37.5t-34.5 -25.5t-33 -9.5l-109 189l140 80z" />
    <glyph glyph-name="uni267C" unicode="&#x267c;" horiz-adv-x="921" 
d="M837 366q0 -78 -29.5 -146.5t-80.5 -119t-119 -80t-146 -29.5t-147 29.5t-120 80t-80.5 119t-29.5 146.5t29.5 146.5t80.5 120t120 81t147 29.5t146 -29.5t119 -81t80.5 -120t29.5 -146.5zM255 520l109 -63l84 146q-6 11 -19 19.5t-30.5 13t-36 3.5t-34.5 -10
q-8 -5 -15 -11.5t-9 -11.5zM399 651q13 -2 26 -7q11 -4 22 -12t19 -22l53 -91l-30 -18l126 -23l44 122l-31 -18l-21 36q-14 24 -30 29t-37 5h-141v-1zM431 114v126h-170q-6 -10 -7 -26t4 -33t15.5 -32.5t26.5 -25.5q8 -5 17 -7t15 -2h99zM244 173q-5 12 -6 25q-2 12 -0.5 26
t9.5 28l53 91l30 -18l-43 121l-127 -22l31 -18l-21 -36q-15 -25 -10.5 -41t13.5 -34l70 -122h1zM697 468l-110 -63l85 -147q12 0 26 7.5t27 20t21 29.5t8 36q0 10 -2.5 18.5t-5.5 13.5zM738 277q-8 -10 -18 -18t-22.5 -13.5t-29.5 -5.5h-105v35l-83 -98l83 -99v36h41
q29 0 41.5 11.5t22.5 28.5l71 122z" />
    <glyph glyph-name="uni267D" unicode="&#x267d;" horiz-adv-x="921" 
d="M837 366q0 -78 -29.5 -146.5t-80.5 -119t-119 -80t-146 -29.5t-147 29.5t-120 80t-80.5 119t-29.5 146.5t29.5 146.5t80.5 120t120 81t147 29.5t146 -29.5t119 -81t80.5 -120t29.5 -146.5zM818 366q0 74 -28 139.5t-76 114t-113 76.5t-139 28q-75 0 -140 -28t-114 -76.5
t-77 -114t-28 -139.5t28 -139t77 -113.5t114 -76.5t140 -28q74 0 139 28t113 76.5t76 113.5t28 139zM304 606q2 5 9 11.5t15 11.5q16 9 34.5 10t36 -3.5t30.5 -13t19 -19.5l-84 -146l-109 63zM399 652h141q21 0 37 -5t30 -29l21 -36l31 18l-44 -122l-126 23l30 18l-53 91
q-8 14 -19.5 22t-21.5 12q-13 5 -26 7v1zM332 114q-6 0 -15 2t-17 7q-16 10 -26.5 25.5t-15.5 32.5t-4 33t7 26h170v-126h-99zM243 173l-70 122q-9 18 -13.5 34t10.5 41l21 36l-31 18l127 22l43 -121l-30 18l-53 -91q-8 -14 -9.5 -28t0.5 -26q1 -13 6 -25h-1zM746 383
q3 -5 5.5 -13.5t2.5 -18.5q0 -19 -8 -36t-21 -29.5t-27 -20t-26 -7.5l-85 147l110 63zM739 276l-71 -122q-10 -17 -22.5 -28.5t-41.5 -11.5h-41v-36l-83 99l83 98v-35h105q17 0 29.5 6t22.5 13q10 8 18 18z" />
    <glyph glyph-name="mediumwhitecircle" unicode="&#x26aa;" horiz-adv-x="698" 
d="M349 -10q-54 0 -101 20t-82.5 55.5t-55.5 83t-20 101.5q0 55 20 102.5t55.5 82.5t82.5 55t101 20t101.5 -20t82.5 -55t55.5 -82.5t20.5 -102.5q0 -54 -20.5 -101.5t-55.5 -83t-82.5 -55.5t-101.5 -20zM349 79q35 0 65 13.5t52 37t35 54.5t13 66t-13 66.5t-35 54.5
t-52 36.5t-65 13.5q-34 0 -64 -13.5t-52.5 -36.5t-35 -54.5t-12.5 -66.5t12.5 -66t35 -54.5t52.5 -37t64 -13.5z" />
    <glyph glyph-name="mediumblackcircle" unicode="&#x26ab;" horiz-adv-x="698" 
d="M349 -10q-54 0 -101 20.5t-82.5 55.5t-55.5 82.5t-20 101.5t20 101.5t55.5 82.5t82.5 55.5t101 20.5t101 -20.5t82.5 -55.5t55.5 -82.5t20 -101.5t-20 -101.5t-55.5 -82.5t-82.5 -55.5t-101 -20.5z" />
    <glyph glyph-name="anglebracketleft" unicode="&#x3008;" horiz-adv-x="376" 
d="M25 250l227 480h103l-228 -480l228 -480h-103z" />
    <glyph glyph-name="anglebracketright" unicode="&#x3009;" horiz-adv-x="376" 
d="M24 -230l228 480l-228 480h103l227 -480l-227 -480h-103z" />
    <glyph glyph-name="R.alt" unicode="&#xe141;" horiz-adv-x="593" 
d="M60 730h234q57 0 103.5 -18.5t80 -50t52 -74.5t18.5 -93q0 -36 -11 -69.5t-30.5 -61.5t-46.5 -50t-60 -36l162 -277h-109l-146 254h-149v-254h-98v730zM158 640v-297h125q41 0 72.5 13.5t52.5 35t31.5 48.5t10.5 54q0 65 -42.5 105.5t-123.5 40.5h-126z" />
    <glyph glyph-name="Racute.alt" unicode="&#xe142;" horiz-adv-x="593" 
d="M60 730h234q57 0 103.5 -18.5t80 -50t52 -74.5t18.5 -93q0 -36 -11 -69.5t-30.5 -61.5t-46.5 -50t-60 -36l162 -277h-109l-146 254h-149v-254h-98v730zM158 640v-297h125q41 0 72.5 13.5t52.5 35t31.5 48.5t10.5 54q0 65 -42.5 105.5t-123.5 40.5h-126zM332 950h105
l-146 -163h-75z" />
    <glyph glyph-name="Rcaron.alt" unicode="&#xe143;" horiz-adv-x="593" 
d="M60 730h234q57 0 103.5 -18.5t80 -50t52 -74.5t18.5 -93q0 -36 -11 -69.5t-30.5 -61.5t-46.5 -50t-60 -36l162 -277h-109l-146 254h-149v-254h-98v730zM158 640v-297h125q41 0 72.5 13.5t52.5 35t31.5 48.5t10.5 54q0 65 -42.5 105.5t-123.5 40.5h-126zM147 950h85
l68 -98l70 98h84l-119 -163h-69z" />
    <glyph glyph-name="Rcommaaccent.alt" unicode="&#xe146;" horiz-adv-x="593" 
d="M60 730h234q57 0 103.5 -18.5t80 -50t52 -74.5t18.5 -93q0 -36 -11 -69.5t-30.5 -61.5t-46.5 -50t-60 -36l162 -277h-109l-146 254h-149v-254h-98v730zM158 640v-297h125q41 0 72.5 13.5t52.5 35t31.5 48.5t10.5 54q0 65 -42.5 105.5t-123.5 40.5h-126zM227 -281l40 204
h86l-63 -204h-63z" />
    <glyph glyph-name="cordinal" unicode="&#xe181;" horiz-adv-x="367" 
d="M191 435q-31 0 -58.5 12t-47.5 32t-32 47.5t-12 58.5q0 32 12 59.5t32 47.5t47.5 32t58.5 12q46 0 81.5 -23t53.5 -59l-62 -32q-10 21 -29 33.5t-44 12.5q-34 0 -57 -24t-23 -59q0 -34 23 -58t57 -24q27 0 46 13t28 35l63 -30q-18 -38 -53.5 -62t-83.5 -24z" />
    <glyph glyph-name="p.smcp" unicode="&#xe200;" horiz-adv-x="510" 
d="M57 596h194q50 0 90.5 -16.5t69 -45t44.5 -66.5t16 -82t-16 -83t-45 -67.5t-69.5 -45t-90.5 -16.5h-97v-174h-96v596zM153 508v-245h94q58 0 93 35t35 88t-35 87.5t-93 34.5h-94z" />
    <glyph glyph-name="p.smcp" unicode="&#xf770;" horiz-adv-x="510" 
d="M57 596h194q50 0 90.5 -16.5t69 -45t44.5 -66.5t16 -82t-16 -83t-45 -67.5t-69.5 -45t-90.5 -16.5h-97v-174h-96v596zM153 508v-245h94q58 0 93 35t35 88t-35 87.5t-93 34.5h-94z" />
    <glyph glyph-name="a.smcp" unicode="&#xe201;" horiz-adv-x="580" 
d="M242 596h96l217 -596h-98l-44 123h-246l-44 -123h-97zM199 213h182l-91 253z" />
    <glyph glyph-name="a.smcp" unicode="&#xf761;" horiz-adv-x="580" 
d="M242 596h96l217 -596h-98l-44 123h-246l-44 -123h-97zM199 213h182l-91 253z" />
    <glyph glyph-name="b.smcp" unicode="&#xe202;" horiz-adv-x="517" 
d="M57 596h208q93 0 145 -42.5t52 -119.5q0 -42 -18 -73t-51 -50q42 -18 64.5 -52.5t22.5 -85.5q1 -85 -54.5 -129t-149.5 -44h-219v596zM153 261v-174h125q50 0 77.5 24t27.5 64t-25 63t-83 23h-122zM153 510v-160h118q49 0 73 23t24 59t-26 57t-75 21h-114z" />
    <glyph glyph-name="b.smcp" unicode="&#xf762;" horiz-adv-x="517" 
d="M57 596h208q93 0 145 -42.5t52 -119.5q0 -42 -18 -73t-51 -50q42 -18 64.5 -52.5t22.5 -85.5q1 -85 -54.5 -129t-149.5 -44h-219v596zM153 261v-174h125q50 0 77.5 24t27.5 64t-25 63t-83 23h-122zM153 510v-160h118q49 0 73 23t24 59t-26 57t-75 21h-114z" />
    <glyph glyph-name="c.smcp" unicode="&#xe203;" horiz-adv-x="646" 
d="M348 -8q-67 0 -123 24t-97 66t-64 97.5t-23 118.5q0 65 23.5 120.5t65 97t97.5 65t120 23.5q43 0 83 -11.5t74.5 -31.5t63 -48.5t47.5 -63.5l-85 -49q-26 50 -73.5 81t-108.5 31q-46 0 -84.5 -17t-66.5 -46.5t-43.5 -68t-15.5 -82.5t16 -83t44 -68t66 -46t82 -17
q67 0 114.5 34.5t72.5 88.5l89 -43q-39 -78 -109.5 -125t-164.5 -47z" />
    <glyph glyph-name="c.smcp" unicode="&#xf763;" horiz-adv-x="646" 
d="M348 -8q-67 0 -123 24t-97 66t-64 97.5t-23 118.5q0 65 23.5 120.5t65 97t97.5 65t120 23.5q43 0 83 -11.5t74.5 -31.5t63 -48.5t47.5 -63.5l-85 -49q-26 50 -73.5 81t-108.5 31q-46 0 -84.5 -17t-66.5 -46.5t-43.5 -68t-15.5 -82.5t16 -83t44 -68t66 -46t82 -17
q67 0 114.5 34.5t72.5 88.5l89 -43q-39 -78 -109.5 -125t-164.5 -47z" />
    <glyph glyph-name="d.smcp" unicode="&#xe204;" horiz-adv-x="578" 
d="M57 596h170q70 0 127.5 -23t98 -63t62.5 -94.5t22 -117.5q0 -64 -23 -118.5t-64 -94.5t-97.5 -62.5t-123.5 -22.5h-172v596zM152 508v-419h71q48 0 88 16t68.5 44t44.5 66.5t16 82.5q0 45 -15 83.5t-43 66.5t-69 44t-93 16h-68z" />
    <glyph glyph-name="d.smcp" unicode="&#xf764;" horiz-adv-x="578" 
d="M57 596h170q70 0 127.5 -23t98 -63t62.5 -94.5t22 -117.5q0 -64 -23 -118.5t-64 -94.5t-97.5 -62.5t-123.5 -22.5h-172v596zM152 508v-419h71q48 0 88 16t68.5 44t44.5 66.5t16 82.5q0 45 -15 83.5t-43 66.5t-69 44t-93 16h-68z" />
    <glyph glyph-name="e.smcp" unicode="&#xe205;" horiz-adv-x="462" 
d="M58 596h357v-89h-263v-163h263v-90h-263v-164h263v-90h-357v596z" />
    <glyph glyph-name="e.smcp" unicode="&#xf765;" horiz-adv-x="462" 
d="M58 596h357v-89h-263v-163h263v-90h-263v-164h263v-90h-357v596z" />
    <glyph glyph-name="f.smcp" unicode="&#xe206;" horiz-adv-x="438" 
d="M57 596h338v-89h-243v-163h243v-90h-243v-254h-95v596z" />
    <glyph glyph-name="f.smcp" unicode="&#xf766;" horiz-adv-x="438" 
d="M57 596h338v-89h-243v-163h243v-90h-243v-254h-95v596z" />
    <glyph glyph-name="g.smcp" unicode="&#xe207;" horiz-adv-x="681" 
d="M347 -8q-68 0 -124.5 24.5t-97.5 66.5t-64 97.5t-23 117.5q0 64 23.5 120t64.5 97t97.5 65t122.5 24q91 0 160 -41.5t107 -109.5l-84 -48q-27 51 -73.5 80t-109.5 29q-45 0 -84 -17t-67.5 -46.5t-44.5 -68.5t-16 -84t15.5 -84.5t44 -68.5t67.5 -46t85 -17q80 0 130 44.5
t64 114.5h-209v90h312v-38q0 -61 -21 -115.5t-59.5 -96t-93 -65.5t-122.5 -24z" />
    <glyph glyph-name="g.smcp" unicode="&#xf767;" horiz-adv-x="681" 
d="M347 -8q-68 0 -124.5 24.5t-97.5 66.5t-64 97.5t-23 117.5q0 64 23.5 120t64.5 97t97.5 65t122.5 24q91 0 160 -41.5t107 -109.5l-84 -48q-27 51 -73.5 80t-109.5 29q-45 0 -84 -17t-67.5 -46.5t-44.5 -68.5t-16 -84t15.5 -84.5t44 -68.5t67.5 -46t85 -17q80 0 130 44.5
t64 114.5h-209v90h312v-38q0 -61 -21 -115.5t-59.5 -96t-93 -65.5t-122.5 -24z" />
    <glyph glyph-name="h.smcp" unicode="&#xe208;" horiz-adv-x="562" 
d="M410 253h-257v-253h-96v596h96v-250h257v250h96v-596h-96v253z" />
    <glyph glyph-name="h.smcp" unicode="&#xf768;" horiz-adv-x="562" 
d="M410 253h-257v-253h-96v596h96v-250h257v250h96v-596h-96v253z" />
    <glyph glyph-name="i.smcp" unicode="&#xe209;" horiz-adv-x="221" 
d="M62 596h97v-596h-97v596z" />
    <glyph glyph-name="i.smcp" unicode="&#xf769;" horiz-adv-x="221" 
d="M62 596h97v-596h-97v596z" />
    <glyph glyph-name="j.smcp" unicode="&#xe20a;" horiz-adv-x="416" 
d="M193 -8q-65 0 -110 30.5t-62 80.5l91 39q9 -27 29 -44.5t51 -17.5q35 0 54.5 24t19.5 63v429h96v-424q0 -85 -43.5 -132.5t-125.5 -47.5z" />
    <glyph glyph-name="j.smcp" unicode="&#xf76a;" horiz-adv-x="416" 
d="M193 -8q-65 0 -110 30.5t-62 80.5l91 39q9 -27 29 -44.5t51 -17.5q35 0 54.5 24t19.5 63v429h96v-424q0 -85 -43.5 -132.5t-125.5 -47.5z" />
    <glyph glyph-name="k.smcp" unicode="&#xe20b;" horiz-adv-x="541" 
d="M238 292l-85 -98v-194h-95v596h95v-282l238 282h116l-200 -237l212 -359h-108z" />
    <glyph glyph-name="k.smcp" unicode="&#xf76b;" horiz-adv-x="541" 
d="M238 292l-85 -98v-194h-95v596h95v-282l238 282h116l-200 -237l212 -359h-108z" />
    <glyph glyph-name="l.smcp" unicode="&#xe20c;" horiz-adv-x="429" 
d="M57 596h96v-504h236v-92h-332v596z" />
    <glyph glyph-name="l.smcp" unicode="&#xf76c;" horiz-adv-x="429" 
d="M57 596h96v-504h236v-92h-332v596z" />
    <glyph glyph-name="m.smcp" unicode="&#xe20d;" horiz-adv-x="698" 
d="M57 596h95l198 -275l200 275h91v-596h-95v437l-197 -268l-197 272v-441h-95v596z" />
    <glyph glyph-name="m.smcp" unicode="&#xf76d;" horiz-adv-x="698" 
d="M57 596h95l198 -275l200 275h91v-596h-95v437l-197 -268l-197 272v-441h-95v596z" />
    <glyph glyph-name="n.smcp" unicode="&#xe20e;" horiz-adv-x="609" 
d="M57 596h105l295 -437v437h95v-596h-98l-302 445v-445h-95v596z" />
    <glyph glyph-name="n.smcp" unicode="&#xf76e;" horiz-adv-x="609" 
d="M57 596h105l295 -437v437h95v-596h-98l-302 445v-445h-95v596z" />
    <glyph glyph-name="o.smcp" unicode="&#xe20f;" horiz-adv-x="686" 
d="M343 -8q-64 0 -119.5 24t-96.5 65.5t-65 97.5t-24 119t24 119t65 97.5t96.5 65.5t119.5 24q63 0 119 -24t97.5 -65.5t65.5 -97.5t24 -119t-24 -119t-65.5 -97.5t-97 -65.5t-119.5 -24zM343 84q44 0 82 17t66 46t44 68t16 83t-16 83t-44 68t-66 46t-82 17t-82 -17t-66 -46
t-44 -68t-16 -83t16 -83t43.5 -68t65.5 -46t83 -17z" />
    <glyph glyph-name="o.smcp" unicode="&#xf76f;" horiz-adv-x="686" 
d="M343 -8q-64 0 -119.5 24t-96.5 65.5t-65 97.5t-24 119t24 119t65 97.5t96.5 65.5t119.5 24q63 0 119 -24t97.5 -65.5t65.5 -97.5t24 -119t-24 -119t-65.5 -97.5t-97 -65.5t-119.5 -24zM343 84q44 0 82 17t66 46t44 68t16 83t-16 83t-44 68t-66 46t-82 17t-82 -17t-66 -46
t-44 -68t-16 -83t16 -83t43.5 -68t65.5 -46t83 -17z" />
    <glyph glyph-name="q.smcp" unicode="&#xe211;" horiz-adv-x="692" 
d="M345 -8q-63 0 -118.5 24t-97 65.5t-65 97.5t-23.5 119t23.5 119t65 97.5t97 65.5t118.5 24q64 0 119.5 -24t97 -65.5t65.5 -97.5t24 -119q0 -59 -20.5 -110.5t-56.5 -91.5l77 -96h-112l-217 276h109l83 -104q39 55 39 126q0 44 -16 83t-44 68t-66 46t-82 17t-82 -17
t-66 -46t-44 -68t-16 -83t16 -83t44 -68t66 -46t82 -17q42 0 79 16l59 -75q-31 -16 -65.5 -24.5t-72.5 -8.5z" />
    <glyph glyph-name="q.smcp" unicode="&#xf771;" horiz-adv-x="692" 
d="M345 -8q-63 0 -118.5 24t-97 65.5t-65 97.5t-23.5 119t23.5 119t65 97.5t97 65.5t118.5 24q64 0 119.5 -24t97 -65.5t65.5 -97.5t24 -119q0 -59 -20.5 -110.5t-56.5 -91.5l77 -96h-112l-217 276h109l83 -104q39 55 39 126q0 44 -16 83t-44 68t-66 46t-82 17t-82 -17
t-66 -46t-44 -68t-16 -83t16 -83t44 -68t66 -46t82 -17q42 0 79 16l59 -75q-31 -16 -65.5 -24.5t-72.5 -8.5z" />
    <glyph glyph-name="r.smcp" unicode="&#xe212;" horiz-adv-x="501" 
d="M57 596h194q48 0 87 -15.5t67 -42t43 -62t15 -76.5q0 -60 -33.5 -109t-96.5 -69l141 -222h-111l-175 288h53q30 0 53 10t38.5 25.5t23.5 35.5t8 40q0 49 -29.5 79t-89.5 30h-92v-508h-96v596z" />
    <glyph glyph-name="r.smcp" unicode="&#xf772;" horiz-adv-x="501" 
d="M57 596h194q48 0 87 -15.5t67 -42t43 -62t15 -76.5q0 -60 -33.5 -109t-96.5 -69l141 -222h-111l-175 288h53q30 0 53 10t38.5 25.5t23.5 35.5t8 40q0 49 -29.5 79t-89.5 30h-92v-508h-96v596z" />
    <glyph glyph-name="s.smcp" unicode="&#xe213;" horiz-adv-x="480" 
d="M239 -8q-78 0 -131 30t-90 75l84 66q24 -39 59 -60.5t77 -21.5q47 0 75.5 26t28.5 64q0 22 -11 37t-29 26t-41.5 19t-49.5 16q-30 10 -60 22t-54 30.5t-39 46.5t-15 70q0 36 14.5 66.5t40 53t60.5 35t76 12.5q70 0 116.5 -25t79.5 -64l-77 -59q-20 31 -49.5 47.5
t-68.5 16.5q-42 0 -68.5 -22.5t-26.5 -56.5q0 -21 10.5 -35.5t28.5 -25t41.5 -18.5l49.5 -17q30 -9 60.5 -21.5t55.5 -32t40.5 -48.5t15.5 -71q0 -35 -14 -68t-40 -58t-64 -40t-85 -15z" />
    <glyph glyph-name="s.smcp" unicode="&#xf773;" horiz-adv-x="480" 
d="M239 -8q-78 0 -131 30t-90 75l84 66q24 -39 59 -60.5t77 -21.5q47 0 75.5 26t28.5 64q0 22 -11 37t-29 26t-41.5 19t-49.5 16q-30 10 -60 22t-54 30.5t-39 46.5t-15 70q0 36 14.5 66.5t40 53t60.5 35t76 12.5q70 0 116.5 -25t79.5 -64l-77 -59q-20 31 -49.5 47.5
t-68.5 16.5q-42 0 -68.5 -22.5t-26.5 -56.5q0 -21 10.5 -35.5t28.5 -25t41.5 -18.5l49.5 -17q30 -9 60.5 -21.5t55.5 -32t40.5 -48.5t15.5 -71q0 -35 -14 -68t-40 -58t-64 -40t-85 -15z" />
    <glyph glyph-name="t.smcp" unicode="&#xe214;" horiz-adv-x="504" 
d="M206 506h-167v90h427v-90h-166v-506h-94v506z" />
    <glyph glyph-name="t.smcp" unicode="&#xf774;" horiz-adv-x="504" 
d="M206 506h-167v90h427v-90h-166v-506h-94v506z" />
    <glyph glyph-name="u.smcp" unicode="&#xe215;" horiz-adv-x="532" 
d="M266 -8q-47 0 -86 14.5t-67 41.5t-43.5 66t-15.5 88v394h96v-398q0 -54 32 -86t84 -32q51 0 83.5 32.5t32.5 86.5v397h96v-394q0 -49 -15.5 -88t-44 -66t-67 -41.5t-85.5 -14.5z" />
    <glyph glyph-name="u.smcp" unicode="&#xf775;" horiz-adv-x="532" 
d="M266 -8q-47 0 -86 14.5t-67 41.5t-43.5 66t-15.5 88v394h96v-398q0 -54 32 -86t84 -32q51 0 83.5 32.5t32.5 86.5v397h96v-394q0 -49 -15.5 -88t-44 -66t-67 -41.5t-85.5 -14.5z" />
    <glyph glyph-name="v.smcp" unicode="&#xe216;" horiz-adv-x="560" 
d="M25 596h100l156 -455l154 455h100l-205 -596h-99z" />
    <glyph glyph-name="v.smcp" unicode="&#xf776;" horiz-adv-x="560" 
d="M25 596h100l156 -455l154 455h100l-205 -596h-99z" />
    <glyph glyph-name="w.smcp" unicode="&#xe217;" horiz-adv-x="865" 
d="M26 596h100l120 -445l138 445h93l138 -449l128 449h96l-175 -596h-96l-137 448l-138 -448h-98z" />
    <glyph glyph-name="w.smcp" unicode="&#xf777;" horiz-adv-x="865" 
d="M26 596h100l120 -445l138 445h93l138 -449l128 449h96l-175 -596h-96l-137 448l-138 -448h-98z" />
    <glyph glyph-name="x.smcp" unicode="&#xe218;" horiz-adv-x="539" 
d="M271 222l-140 -222h-108l195 303l-185 293h106l133 -212l131 212h108l-185 -291l191 -305h-106z" />
    <glyph glyph-name="x.smcp" unicode="&#xf778;" horiz-adv-x="539" 
d="M271 222l-140 -222h-108l195 303l-185 293h106l133 -212l131 212h108l-185 -291l191 -305h-106z" />
    <glyph glyph-name="y.smcp" unicode="&#xe219;" horiz-adv-x="529" 
d="M217 281l-193 315h105l135 -223l137 223h105l-193 -315v-281h-96v281z" />
    <glyph glyph-name="y.smcp" unicode="&#xf779;" horiz-adv-x="529" 
d="M217 281l-193 315h105l135 -223l137 223h105l-193 -315v-281h-96v281z" />
    <glyph glyph-name="z.smcp" unicode="&#xe21a;" horiz-adv-x="478" 
d="M42 88l281 419h-274v89h387v-87l-284 -419h284v-90h-394v88z" />
    <glyph glyph-name="z.smcp" unicode="&#xf77a;" horiz-adv-x="478" 
d="M42 88l281 419h-274v89h387v-87l-284 -419h284v-90h-394v88z" />
    <glyph glyph-name="anocross.smcp" unicode="&#xe220;" horiz-adv-x="580" 
d="M242 596h96l217 -596h-98l-167 466l-167 -466h-97z" />
    <glyph glyph-name="aacute.smcp" unicode="&#xe221;" horiz-adv-x="580" 
d="M242 596h96l217 -596h-98l-44 123h-246l-44 -123h-97zM199 213h182l-91 253zM367 816h105l-146 -163h-75z" />
    <glyph glyph-name="aacute.smcp" unicode="&#xf7e1;" horiz-adv-x="580" 
d="M242 596h96l217 -596h-98l-44 123h-246l-44 -123h-97zM199 213h182l-91 253zM367 816h105l-146 -163h-75z" />
    <glyph glyph-name="agrave.smcp" unicode="&#xe222;" horiz-adv-x="580" 
d="M242 596h96l217 -596h-98l-44 123h-246l-44 -123h-97zM199 213h182l-91 253zM106 816h104l117 -163h-75z" />
    <glyph glyph-name="agrave.smcp" unicode="&#xf7e0;" horiz-adv-x="580" 
d="M242 596h96l217 -596h-98l-44 123h-246l-44 -123h-97zM199 213h182l-91 253zM106 816h104l117 -163h-75z" />
    <glyph glyph-name="acircumflex.smcp" unicode="&#xe223;" horiz-adv-x="580" 
d="M242 596h96l217 -596h-98l-44 123h-246l-44 -123h-97zM254 811h69l119 -163h-84l-70 98l-68 -98h-85zM199 213h182l-91 253z" />
    <glyph glyph-name="acircumflex.smcp" unicode="&#xf7e2;" horiz-adv-x="580" 
d="M242 596h96l217 -596h-98l-44 123h-246l-44 -123h-97zM254 811h69l119 -163h-84l-70 98l-68 -98h-85zM199 213h182l-91 253z" />
    <glyph glyph-name="adieresis.smcp" unicode="&#xe224;" horiz-adv-x="580" 
d="M242 596h96l217 -596h-98l-44 123h-246l-44 -123h-97zM199 213h182l-91 253zM324 727q0 28 17 45t46 17q31 0 47.5 -17t16.5 -45q0 -29 -16.5 -46t-47.5 -17q-30 0 -46.5 17t-16.5 46zM129 727q0 28 17 45t46 17q31 0 47.5 -17t16.5 -45q0 -29 -16.5 -46t-47.5 -17
q-30 0 -46.5 17t-16.5 46z" />
    <glyph glyph-name="adieresis.smcp" unicode="&#xf7e4;" horiz-adv-x="580" 
d="M242 596h96l217 -596h-98l-44 123h-246l-44 -123h-97zM199 213h182l-91 253zM324 727q0 28 17 45t46 17q31 0 47.5 -17t16.5 -45q0 -29 -16.5 -46t-47.5 -17q-30 0 -46.5 17t-16.5 46zM129 727q0 28 17 45t46 17q31 0 47.5 -17t16.5 -45q0 -29 -16.5 -46t-47.5 -17
q-30 0 -46.5 17t-16.5 46z" />
    <glyph glyph-name="atilde.smcp" unicode="&#xe225;" horiz-adv-x="580" 
d="M242 596h96l217 -596h-98l-44 123h-246l-44 -123h-97zM118 653q0 56 27 89.5t73 33.5q25 0 44 -8t36 -19l30.5 -18.5t30.5 -8.5q36 0 36 50h66q0 -57 -25.5 -90t-75.5 -33q-29 0 -50.5 10.5t-40.5 21.5l-25.5 14.5t-25.5 6.5q-35 0 -35 -49h-65zM199 213h182l-91 253z
" />
    <glyph glyph-name="atilde.smcp" unicode="&#xf7e3;" horiz-adv-x="580" 
d="M242 596h96l217 -596h-98l-44 123h-246l-44 -123h-97zM118 653q0 56 27 89.5t73 33.5q25 0 44 -8t36 -19l30.5 -18.5t30.5 -8.5q36 0 36 50h66q0 -57 -25.5 -90t-75.5 -33q-29 0 -50.5 10.5t-40.5 21.5l-25.5 14.5t-25.5 6.5q-35 0 -35 -49h-65zM199 213h182l-91 253z
" />
    <glyph glyph-name="aring.smcp" unicode="&#xe226;" horiz-adv-x="580" 
d="M230 563q-23 14 -36.5 38.5t-13.5 53.5q0 23 8.5 43t23 35t34.5 23.5t42 8.5q23 0 43.5 -8.5t35.5 -23.5t23.5 -35t8.5 -43q0 -29 -13.5 -53t-36.5 -38l206 -564h-98l-44 123h-246l-44 -123h-97zM199 213h182l-91 253zM288 609q20 0 33.5 13t13.5 33q0 19 -13.5 33
t-33.5 14q-19 0 -32.5 -14t-13.5 -33q0 -20 13.5 -33t32.5 -13z" />
    <glyph glyph-name="aring.smcp" unicode="&#xf7e5;" horiz-adv-x="580" 
d="M230 563q-23 14 -36.5 38.5t-13.5 53.5q0 23 8.5 43t23 35t34.5 23.5t42 8.5q23 0 43.5 -8.5t35.5 -23.5t23.5 -35t8.5 -43q0 -29 -13.5 -53t-36.5 -38l206 -564h-98l-44 123h-246l-44 -123h-97zM199 213h182l-91 253zM288 609q20 0 33.5 13t13.5 33q0 19 -13.5 33
t-33.5 14q-19 0 -32.5 -14t-13.5 -33q0 -20 13.5 -33t32.5 -13z" />
    <glyph glyph-name="amacron.smcp" unicode="&#xe228;" horiz-adv-x="580" 
d="M242 596h96l217 -596h-98l-44 123h-246l-44 -123h-97zM199 213h182l-91 253zM156 723h264v-70h-264v70z" />
    <glyph glyph-name="amacron.smcp" unicode="&#xf641;" horiz-adv-x="580" 
d="M242 596h96l217 -596h-98l-44 123h-246l-44 -123h-97zM199 213h182l-91 253zM156 723h264v-70h-264v70z" />
    <glyph glyph-name="abreve.smcp" unicode="&#xe229;" horiz-adv-x="580" 
d="M242 596h96l217 -596h-98l-44 123h-246l-44 -123h-97zM287 645q-41 0 -71.5 13t-50.5 35t-29.5 52t-9.5 64h70q0 -48 23 -75t68 -28q44 1 67.5 28t23.5 75h71q0 -34 -11 -64t-32 -52t-51 -35t-68 -13zM199 213h182l-91 253z" />
    <glyph glyph-name="abreve.smcp" unicode="&#xf640;" horiz-adv-x="580" 
d="M242 596h96l217 -596h-98l-44 123h-246l-44 -123h-97zM287 645q-41 0 -71.5 13t-50.5 35t-29.5 52t-9.5 64h70q0 -48 23 -75t68 -28q44 1 67.5 28t23.5 75h71q0 -34 -11 -64t-32 -52t-51 -35t-68 -13zM199 213h182l-91 253z" />
    <glyph glyph-name="aringacute.smcp" unicode="&#xe22d;" horiz-adv-x="580" 
d="M230 563q-23 14 -36.5 38.5t-13.5 53.5q0 23 8.5 43t23 35t34.5 23.5t42 8.5q23 0 43.5 -8.5t35.5 -23.5t23.5 -35t8.5 -43q0 -29 -13.5 -53t-36.5 -38l206 -564h-98l-44 123h-246l-44 -123h-97zM199 213h182l-91 253zM364 967h105l-146 -163h-75zM288 609q20 0 33.5 13
t13.5 33q0 19 -13.5 33t-33.5 14q-19 0 -32.5 -14t-13.5 -33q0 -20 13.5 -33t32.5 -13z" />
    <glyph glyph-name="aringacute.smcp" unicode="&#xf625;" horiz-adv-x="580" 
d="M230 563q-23 14 -36.5 38.5t-13.5 53.5q0 23 8.5 43t23 35t34.5 23.5t42 8.5q23 0 43.5 -8.5t35.5 -23.5t23.5 -35t8.5 -43q0 -29 -13.5 -53t-36.5 -38l206 -564h-98l-44 123h-246l-44 -123h-97zM199 213h182l-91 253zM364 967h105l-146 -163h-75zM288 609q20 0 33.5 13
t13.5 33q0 19 -13.5 33t-33.5 14q-19 0 -32.5 -14t-13.5 -33q0 -20 13.5 -33t32.5 -13z" />
    <glyph glyph-name="aogonek.smcp" unicode="&#xe22f;" horiz-adv-x="580" 
d="M242 596h96l217 -596h-3l2 -1l-62.5 -40t-38.5 -28.5t-19 -22.5t-5 -21q0 -19 15.5 -28.5t38.5 -9.5t39.5 9.5t31.5 23.5l65 -44q-26 -23 -62.5 -40t-73.5 -17q-62 0 -99.5 29.5t-37.5 73.5q0 33 22.5 64.5t82.5 66.5l-38 108h-246l-44 -123h-97zM199 213h182l-91 253z
" />
    <glyph glyph-name="aogonek.smcp" unicode="&#xf642;" horiz-adv-x="580" 
d="M242 596h96l217 -596h-3l2 -1l-62.5 -40t-38.5 -28.5t-19 -22.5t-5 -21q0 -19 15.5 -28.5t38.5 -9.5t39.5 9.5t31.5 23.5l65 -44q-26 -23 -62.5 -40t-73.5 -17q-62 0 -99.5 29.5t-37.5 73.5q0 33 22.5 64.5t82.5 66.5l-38 108h-246l-44 -123h-97zM199 213h182l-91 253z
" />
    <glyph glyph-name="edieresis.smcp" unicode="&#xe230;" 
d="M58 596h357v-89h-263v-163h263v-90h-263v-164h263v-90h-357v596zM275 727q0 28 17 45t46 17q31 0 47.5 -17t16.5 -45q0 -29 -16.5 -46t-47.5 -17q-30 0 -46.5 17t-16.5 46zM80 727q0 28 17 45t46 17q31 0 47.5 -17t16.5 -45q0 -29 -16.5 -46t-47.5 -17q-30 0 -46.5 17
t-16.5 46z" />
    <glyph glyph-name="edieresis.smcp" unicode="&#xf7eb;" 
d="M58 596h357v-89h-263v-163h263v-90h-263v-164h263v-90h-357v596zM275 727q0 28 17 45t46 17q31 0 47.5 -17t16.5 -45q0 -29 -16.5 -46t-47.5 -17q-30 0 -46.5 17t-16.5 46zM80 727q0 28 17 45t46 17q31 0 47.5 -17t16.5 -45q0 -29 -16.5 -46t-47.5 -17q-30 0 -46.5 17
t-16.5 46z" />
    <glyph glyph-name="ae.smcp" unicode="&#xe231;" horiz-adv-x="832" 
d="M306 596h480v-90h-358l32 -161h326v-91h-308l33 -163h275v-91h-355l-24 120h-223l-56 -120h-104zM225 208h165l-49 247z" />
    <glyph glyph-name="ae.smcp" unicode="&#xf7e6;" horiz-adv-x="832" 
d="M306 596h480v-90h-358l32 -161h326v-91h-308l33 -163h275v-91h-355l-24 120h-223l-56 -120h-104zM225 208h165l-49 247z" />
    <glyph glyph-name="aeacute.smcp" unicode="&#xe232;" horiz-adv-x="835" 
d="M306 596h480v-90h-358l32 -161h326v-91h-308l33 -163h275v-91h-355l-24 120h-223l-56 -120h-104zM225 208h165l-49 247zM566 816h105l-146 -163h-75z" />
    <glyph glyph-name="aeacute.smcp" unicode="&#xf624;" horiz-adv-x="835" 
d="M306 596h480v-90h-358l32 -161h326v-91h-308l33 -163h275v-91h-355l-24 120h-223l-56 -120h-104zM225 208h165l-49 247zM566 816h105l-146 -163h-75z" />
    <glyph glyph-name="cacute.smcp" unicode="&#xe234;" horiz-adv-x="646" 
d="M422 816h105l-146 -163h-75zM348 -8q-67 0 -123 24t-97 66t-64 97.5t-23 118.5q0 65 23.5 120.5t65 97t97.5 65t120 23.5q43 0 83 -11.5t74.5 -31.5t63 -48.5t47.5 -63.5l-85 -49q-26 50 -73.5 81t-108.5 31q-46 0 -84.5 -17t-66.5 -46.5t-43.5 -68t-15.5 -82.5t16 -83
t44 -68t66 -46t82 -17q67 0 114.5 34.5t72.5 88.5l89 -43q-39 -78 -109.5 -125t-164.5 -47z" />
    <glyph glyph-name="cacute.smcp" unicode="&#xf643;" horiz-adv-x="646" 
d="M422 816h105l-146 -163h-75zM348 -8q-67 0 -123 24t-97 66t-64 97.5t-23 118.5q0 65 23.5 120.5t65 97t97.5 65t120 23.5q43 0 83 -11.5t74.5 -31.5t63 -48.5t47.5 -63.5l-85 -49q-26 50 -73.5 81t-108.5 31q-46 0 -84.5 -17t-66.5 -46.5t-43.5 -68t-15.5 -82.5t16 -83
t44 -68t66 -46t82 -17q67 0 114.5 34.5t72.5 88.5l89 -43q-39 -78 -109.5 -125t-164.5 -47z" />
    <glyph glyph-name="ccircumflex.smcp" unicode="&#xe235;" horiz-adv-x="646" 
d="M348 -8q-67 0 -123 24t-97 66t-64 97.5t-23 118.5q0 65 23.5 120.5t65 97t97.5 65t120 23.5q43 0 83 -11.5t74.5 -31.5t63 -48.5t47.5 -63.5l-85 -49q-26 50 -73.5 81t-108.5 31q-46 0 -84.5 -17t-66.5 -46.5t-43.5 -68t-15.5 -82.5t16 -83t44 -68t66 -46t82 -17
q67 0 114.5 34.5t72.5 88.5l89 -43q-39 -78 -109.5 -125t-164.5 -47zM316 814h69l119 -163h-84l-70 98l-68 -98h-85z" />
    <glyph glyph-name="ccircumflex.smcp" unicode="&#xf628;" horiz-adv-x="646" 
d="M348 -8q-67 0 -123 24t-97 66t-64 97.5t-23 118.5q0 65 23.5 120.5t65 97t97.5 65t120 23.5q43 0 83 -11.5t74.5 -31.5t63 -48.5t47.5 -63.5l-85 -49q-26 50 -73.5 81t-108.5 31q-46 0 -84.5 -17t-66.5 -46.5t-43.5 -68t-15.5 -82.5t16 -83t44 -68t66 -46t82 -17
q67 0 114.5 34.5t72.5 88.5l89 -43q-39 -78 -109.5 -125t-164.5 -47zM316 814h69l119 -163h-84l-70 98l-68 -98h-85z" />
    <glyph glyph-name="ccaron.smcp" unicode="&#xe236;" horiz-adv-x="646" 
d="M348 -8q-67 0 -123 24t-97 66t-64 97.5t-23 118.5q0 65 23.5 120.5t65 97t97.5 65t120 23.5q43 0 83 -11.5t74.5 -31.5t63 -48.5t47.5 -63.5l-85 -49q-26 50 -73.5 81t-108.5 31q-46 0 -84.5 -17t-66.5 -46.5t-43.5 -68t-15.5 -82.5t16 -83t44 -68t66 -46t82 -17
q67 0 114.5 34.5t72.5 88.5l89 -43q-39 -78 -109.5 -125t-164.5 -47zM196 816h85l68 -98l70 98h84l-119 -163h-69z" />
    <glyph glyph-name="ccaron.smcp" unicode="&#xf644;" horiz-adv-x="646" 
d="M348 -8q-67 0 -123 24t-97 66t-64 97.5t-23 118.5q0 65 23.5 120.5t65 97t97.5 65t120 23.5q43 0 83 -11.5t74.5 -31.5t63 -48.5t47.5 -63.5l-85 -49q-26 50 -73.5 81t-108.5 31q-46 0 -84.5 -17t-66.5 -46.5t-43.5 -68t-15.5 -82.5t16 -83t44 -68t66 -46t82 -17
q67 0 114.5 34.5t72.5 88.5l89 -43q-39 -78 -109.5 -125t-164.5 -47zM196 816h85l68 -98l70 98h84l-119 -163h-69z" />
    <glyph glyph-name="cdotaccent.smcp" unicode="&#xe237;" horiz-adv-x="646" 
d="M348 -8q-67 0 -123 24t-97 66t-64 97.5t-23 118.5q0 65 23.5 120.5t65 97t97.5 65t120 23.5q43 0 83 -11.5t74.5 -31.5t63 -48.5t47.5 -63.5l-85 -49q-26 50 -73.5 81t-108.5 31q-46 0 -84.5 -17t-66.5 -46.5t-43.5 -68t-15.5 -82.5t16 -83t44 -68t66 -46t82 -17
q67 0 114.5 34.5t72.5 88.5l89 -43q-39 -78 -109.5 -125t-164.5 -47zM286 727q0 29 18 46.5t47 17.5q32 0 49 -17.5t17 -46.5t-17 -47t-49 -18q-31 0 -48 18t-17 47z" />
    <glyph glyph-name="cdotaccent.smcp" unicode="&#xf629;" horiz-adv-x="646" 
d="M348 -8q-67 0 -123 24t-97 66t-64 97.5t-23 118.5q0 65 23.5 120.5t65 97t97.5 65t120 23.5q43 0 83 -11.5t74.5 -31.5t63 -48.5t47.5 -63.5l-85 -49q-26 50 -73.5 81t-108.5 31q-46 0 -84.5 -17t-66.5 -46.5t-43.5 -68t-15.5 -82.5t16 -83t44 -68t66 -46t82 -17
q67 0 114.5 34.5t72.5 88.5l89 -43q-39 -78 -109.5 -125t-164.5 -47zM286 727q0 29 18 46.5t47 17.5q32 0 49 -17.5t17 -46.5t-17 -47t-49 -18q-31 0 -48 18t-17 47z" />
    <glyph glyph-name="ccedilla.smcp" unicode="&#xe238;" horiz-adv-x="646" 
d="M341 -235q-44 0 -80 15.5t-63 40.5l64 39q18 -15 36.5 -25t47.5 -10q27 0 46 11t19 28q0 34 -68 34h-43v98q-57 8 -105 35t-82 67t-53 91.5t-19 108.5q0 65 23.5 120.5t65 97t97.5 65t120 23.5q43 0 83 -11.5t74.5 -31.5t63 -48.5t47.5 -63.5l-85 -49q-26 50 -73.5 81
t-108.5 31q-46 0 -84.5 -17t-66.5 -46.5t-43.5 -68t-15.5 -82.5t16 -83t44 -68t66 -46t82 -17q67 0 114.5 34.5t72.5 88.5l89 -43q-37 -73 -102 -119.5t-151 -51.5v-46q54 1 86 -22t32 -58q0 -23 -11.5 -41.5t-31.5 -32t-46.5 -21t-56.5 -7.5z" />
    <glyph glyph-name="ccedilla.smcp" unicode="&#xf7e7;" horiz-adv-x="646" 
d="M341 -235q-44 0 -80 15.5t-63 40.5l64 39q18 -15 36.5 -25t47.5 -10q27 0 46 11t19 28q0 34 -68 34h-43v98q-57 8 -105 35t-82 67t-53 91.5t-19 108.5q0 65 23.5 120.5t65 97t97.5 65t120 23.5q43 0 83 -11.5t74.5 -31.5t63 -48.5t47.5 -63.5l-85 -49q-26 50 -73.5 81
t-108.5 31q-46 0 -84.5 -17t-66.5 -46.5t-43.5 -68t-15.5 -82.5t16 -83t44 -68t66 -46t82 -17q67 0 114.5 34.5t72.5 88.5l89 -43q-37 -73 -102 -119.5t-151 -51.5v-46q54 1 86 -22t32 -58q0 -23 -11.5 -41.5t-31.5 -32t-46.5 -21t-56.5 -7.5z" />
    <glyph glyph-name="dcaron.smcp" unicode="&#xe239;" horiz-adv-x="578" 
d="M57 596h170q70 0 127.5 -23t98 -63t62.5 -94.5t22 -117.5q0 -64 -23 -118.5t-64 -94.5t-97.5 -62.5t-123.5 -22.5h-172v596zM152 508v-419h71q48 0 88 16t68.5 44t44.5 66.5t16 82.5q0 45 -15 83.5t-43 66.5t-69 44t-93 16h-68zM105 816h85l68 -98l70 98h84l-119 -163
h-69z" />
    <glyph glyph-name="dcaron.smcp" unicode="&#xf645;" horiz-adv-x="578" 
d="M57 596h170q70 0 127.5 -23t98 -63t62.5 -94.5t22 -117.5q0 -64 -23 -118.5t-64 -94.5t-97.5 -62.5t-123.5 -22.5h-172v596zM152 508v-419h71q48 0 88 16t68.5 44t44.5 66.5t16 82.5q0 45 -15 83.5t-43 66.5t-69 44t-93 16h-68zM105 816h85l68 -98l70 98h84l-119 -163
h-69z" />
    <glyph glyph-name="dcroat.smcp" unicode="&#xe23c;" horiz-adv-x="607" 
d="M25 340h61v256h170q71 0 128 -23t98 -63t63 -94.5t22 -117.5q0 -64 -23 -118.5t-64.5 -94.5t-98 -62.5t-122.5 -22.5h-173v258h-61v82zM182 258v-169h71q48 0 88 16t68.5 44t44 66.5t15.5 82.5q0 45 -14.5 83.5t-42.5 66.5t-69 44t-93 16h-68v-168h137v-82h-137z" />
    <glyph glyph-name="dcroat.smcp" unicode="&#xf646;" horiz-adv-x="607" 
d="M25 340h61v256h170q71 0 128 -23t98 -63t63 -94.5t22 -117.5q0 -64 -23 -118.5t-64.5 -94.5t-98 -62.5t-122.5 -22.5h-173v258h-61v82zM182 258v-169h71q48 0 88 16t68.5 44t44 66.5t15.5 82.5q0 45 -14.5 83.5t-42.5 66.5t-69 44t-93 16h-68v-168h137v-82h-137z" />
    <glyph glyph-name="eacute.smcp" unicode="&#xe23d;" 
d="M58 596h357v-89h-263v-163h263v-90h-263v-164h263v-90h-357v596zM301 816h105l-146 -163h-75z" />
    <glyph glyph-name="eacute.smcp" unicode="&#xf7e9;" 
d="M58 596h357v-89h-263v-163h263v-90h-263v-164h263v-90h-357v596zM301 816h105l-146 -163h-75z" />
    <glyph glyph-name="egrave.smcp" unicode="&#xe23e;" 
d="M58 596h357v-89h-263v-163h263v-90h-263v-164h263v-90h-357v596zM74 816h104l117 -163h-75z" />
    <glyph glyph-name="egrave.smcp" unicode="&#xf7e8;" 
d="M58 596h357v-89h-263v-163h263v-90h-263v-164h263v-90h-357v596zM74 816h104l117 -163h-75z" />
    <glyph glyph-name="ecircumflex.smcp" unicode="&#xe23f;" 
d="M58 596h357v-89h-263v-163h263v-90h-263v-164h263v-90h-357v596zM205 816h69l119 -163h-84l-70 98l-68 -98h-85z" />
    <glyph glyph-name="ecircumflex.smcp" unicode="&#xf7ea;" 
d="M58 596h357v-89h-263v-163h263v-90h-263v-164h263v-90h-357v596zM205 816h69l119 -163h-84l-70 98l-68 -98h-85z" />
    <glyph glyph-name="gcommaaccent.smcp" unicode="&#xe240;" horiz-adv-x="681" 
d="M347 -8q-68 0 -124.5 24.5t-97.5 66.5t-64 97.5t-23 117.5q0 64 23.5 120t64.5 97t97.5 65t122.5 24q91 0 160 -41.5t107 -109.5l-84 -48q-27 51 -73.5 80t-109.5 29q-45 0 -84 -17t-67.5 -46.5t-44.5 -68.5t-16 -84t15.5 -84.5t44 -68.5t67.5 -46t85 -17q80 0 130 44.5
t64 114.5h-209v90h312v-38q0 -61 -21 -115.5t-59.5 -96t-93 -65.5t-122.5 -24zM263 -265l40 204h86l-63 -204h-63z" />
    <glyph glyph-name="gcommaaccent.smcp" unicode="&#xf64c;" horiz-adv-x="681" 
d="M347 -8q-68 0 -124.5 24.5t-97.5 66.5t-64 97.5t-23 117.5q0 64 23.5 120t64.5 97t97.5 65t122.5 24q91 0 160 -41.5t107 -109.5l-84 -48q-27 51 -73.5 80t-109.5 29q-45 0 -84 -17t-67.5 -46.5t-44.5 -68.5t-16 -84t15.5 -84.5t44 -68.5t67.5 -46t85 -17q80 0 130 44.5
t64 114.5h-209v90h312v-38q0 -61 -21 -115.5t-59.5 -96t-93 -65.5t-122.5 -24zM263 -265l40 204h86l-63 -204h-63z" />
    <glyph glyph-name="ecaron.smcp" unicode="&#xe241;" 
d="M58 596h357v-89h-263v-163h263v-90h-263v-164h263v-90h-357v596zM86 816h85l68 -98l70 98h84l-119 -163h-69z" />
    <glyph glyph-name="ecaron.smcp" unicode="&#xf647;" 
d="M58 596h357v-89h-263v-163h263v-90h-263v-164h263v-90h-357v596zM86 816h85l68 -98l70 98h84l-119 -163h-69z" />
    <glyph glyph-name="emacron.smcp" unicode="&#xe242;" 
d="M58 596h357v-89h-263v-163h263v-90h-263v-164h263v-90h-357v596zM106 723h264v-70h-264v70z" />
    <glyph glyph-name="emacron.smcp" unicode="&#xf649;" 
d="M58 596h357v-89h-263v-163h263v-90h-263v-164h263v-90h-357v596zM106 723h264v-70h-264v70z" />
    <glyph glyph-name="ebreve.smcp" unicode="&#xe243;" 
d="M58 596h357v-89h-263v-163h263v-90h-263v-164h263v-90h-357v596zM241 646q-41 0 -71.5 13t-50.5 35t-29.5 52t-9.5 64h70q0 -48 23 -75t68 -28q44 1 67.5 28t23.5 75h71q0 -34 -11 -64t-32 -52t-51 -35t-68 -13z" />
    <glyph glyph-name="ebreve.smcp" unicode="&#xf62a;" 
d="M58 596h357v-89h-263v-163h263v-90h-263v-164h263v-90h-357v596zM241 646q-41 0 -71.5 13t-50.5 35t-29.5 52t-9.5 64h70q0 -48 23 -75t68 -28q44 1 67.5 28t23.5 75h71q0 -34 -11 -64t-32 -52t-51 -35t-68 -13z" />
    <glyph glyph-name="edotaccent.smcp" unicode="&#xe246;" 
d="M58 596h357v-89h-263v-163h263v-90h-263v-164h263v-90h-357v596zM177 727q0 29 18 46.5t47 17.5q32 0 49 -17.5t17 -46.5t-17 -47t-49 -18q-31 0 -48 18t-17 47z" />
    <glyph glyph-name="edotaccent.smcp" unicode="&#xf648;" 
d="M58 596h357v-89h-263v-163h263v-90h-263v-164h263v-90h-357v596zM177 727q0 29 18 46.5t47 17.5q32 0 49 -17.5t17 -46.5t-17 -47t-49 -18q-31 0 -48 18t-17 47z" />
    <glyph glyph-name="eogonek.smcp" unicode="&#xe249;" 
d="M58 596h357v-89h-263v-163h263v-90h-263v-164h263v-90h-3l2 -1l-62.5 -40t-38.5 -28.5t-19 -22.5t-5 -21q0 -19 15.5 -28.5t38.5 -9.5t39.5 9.5t31.5 23.5l65 -44q-26 -23 -62.5 -40t-73.5 -17q-62 0 -99.5 29.5t-37.5 73.5q0 29 17.5 57.5t63.5 58.5h-229v596z" />
    <glyph glyph-name="eogonek.smcp" unicode="&#xf64a;" 
d="M58 596h357v-89h-263v-163h263v-90h-263v-164h263v-90h-3l2 -1l-62.5 -40t-38.5 -28.5t-19 -22.5t-5 -21q0 -19 15.5 -28.5t38.5 -9.5t39.5 9.5t31.5 23.5l65 -44q-26 -23 -62.5 -40t-73.5 -17q-62 0 -99.5 29.5t-37.5 73.5q0 29 17.5 57.5t63.5 58.5h-229v596z" />
    <glyph glyph-name="gcircumflex.smcp" unicode="&#xe24b;" horiz-adv-x="681" 
d="M347 -8q-68 0 -124.5 24.5t-97.5 66.5t-64 97.5t-23 117.5q0 64 23.5 120t64.5 97t97.5 65t122.5 24q91 0 160 -41.5t107 -109.5l-84 -48q-27 51 -73.5 80t-109.5 29q-45 0 -84 -17t-67.5 -46.5t-44.5 -68.5t-16 -84t15.5 -84.5t44 -68.5t67.5 -46t85 -17q80 0 130 44.5
t64 114.5h-209v90h312v-38q0 -61 -21 -115.5t-59.5 -96t-93 -65.5t-122.5 -24zM310 815h69l119 -163h-84l-70 98l-68 -98h-85z" />
    <glyph glyph-name="gcircumflex.smcp" unicode="&#xf62c;" horiz-adv-x="681" 
d="M347 -8q-68 0 -124.5 24.5t-97.5 66.5t-64 97.5t-23 117.5q0 64 23.5 120t64.5 97t97.5 65t122.5 24q91 0 160 -41.5t107 -109.5l-84 -48q-27 51 -73.5 80t-109.5 29q-45 0 -84 -17t-67.5 -46.5t-44.5 -68.5t-16 -84t15.5 -84.5t44 -68.5t67.5 -46t85 -17q80 0 130 44.5
t64 114.5h-209v90h312v-38q0 -61 -21 -115.5t-59.5 -96t-93 -65.5t-122.5 -24zM310 815h69l119 -163h-84l-70 98l-68 -98h-85z" />
    <glyph glyph-name="gbreve.smcp" unicode="&#xe24e;" horiz-adv-x="681" 
d="M347 -8q-68 0 -124.5 24.5t-97.5 66.5t-64 97.5t-23 117.5q0 64 23.5 120t64.5 97t97.5 65t122.5 24q91 0 160 -41.5t107 -109.5l-84 -48q-27 51 -73.5 80t-109.5 29q-45 0 -84 -17t-67.5 -46.5t-44.5 -68.5t-16 -84t15.5 -84.5t44 -68.5t67.5 -46t85 -17q80 0 130 44.5
t64 114.5h-209v90h312v-38q0 -61 -21 -115.5t-59.5 -96t-93 -65.5t-122.5 -24zM345 649q-41 0 -71.5 13t-50.5 35t-29.5 52t-9.5 64h70q0 -48 23 -75t68 -28q44 1 67.5 28t23.5 75h71q0 -34 -11 -64t-32 -52t-51 -35t-68 -13z" />
    <glyph glyph-name="gbreve.smcp" unicode="&#xf64b;" horiz-adv-x="681" 
d="M347 -8q-68 0 -124.5 24.5t-97.5 66.5t-64 97.5t-23 117.5q0 64 23.5 120t64.5 97t97.5 65t122.5 24q91 0 160 -41.5t107 -109.5l-84 -48q-27 51 -73.5 80t-109.5 29q-45 0 -84 -17t-67.5 -46.5t-44.5 -68.5t-16 -84t15.5 -84.5t44 -68.5t67.5 -46t85 -17q80 0 130 44.5
t64 114.5h-209v90h312v-38q0 -61 -21 -115.5t-59.5 -96t-93 -65.5t-122.5 -24zM345 649q-41 0 -71.5 13t-50.5 35t-29.5 52t-9.5 64h70q0 -48 23 -75t68 -28q44 1 67.5 28t23.5 75h71q0 -34 -11 -64t-32 -52t-51 -35t-68 -13z" />
    <glyph glyph-name="gdotaccent.smcp" unicode="&#xe24f;" horiz-adv-x="681" 
d="M347 -8q-68 0 -124.5 24.5t-97.5 66.5t-64 97.5t-23 117.5q0 64 23.5 120t64.5 97t97.5 65t122.5 24q91 0 160 -41.5t107 -109.5l-84 -48q-27 51 -73.5 80t-109.5 29q-45 0 -84 -17t-67.5 -46.5t-44.5 -68.5t-16 -84t15.5 -84.5t44 -68.5t67.5 -46t85 -17q80 0 130 44.5
t64 114.5h-209v90h312v-38q0 -61 -21 -115.5t-59.5 -96t-93 -65.5t-122.5 -24zM282 727q0 29 18 46.5t47 17.5q32 0 49 -17.5t17 -46.5t-17 -47t-49 -18q-31 0 -48 18t-17 47z" />
    <glyph glyph-name="gdotaccent.smcp" unicode="&#xf62d;" horiz-adv-x="681" 
d="M347 -8q-68 0 -124.5 24.5t-97.5 66.5t-64 97.5t-23 117.5q0 64 23.5 120t64.5 97t97.5 65t122.5 24q91 0 160 -41.5t107 -109.5l-84 -48q-27 51 -73.5 80t-109.5 29q-45 0 -84 -17t-67.5 -46.5t-44.5 -68.5t-16 -84t15.5 -84.5t44 -68.5t67.5 -46t85 -17q80 0 130 44.5
t64 114.5h-209v90h312v-38q0 -61 -21 -115.5t-59.5 -96t-93 -65.5t-122.5 -24zM282 727q0 29 18 46.5t47 17.5q32 0 49 -17.5t17 -46.5t-17 -47t-49 -18q-31 0 -48 18t-17 47z" />
    <glyph glyph-name="hcircumflex.smcp" unicode="&#xe253;" horiz-adv-x="562" 
d="M410 253h-257v-253h-96v596h96v-250h257v250h96v-596h-96v253zM245 815h69l119 -163h-84l-70 98l-68 -98h-85z" />
    <glyph glyph-name="hcircumflex.smcp" unicode="&#xf62f;" horiz-adv-x="562" 
d="M410 253h-257v-253h-96v596h96v-250h257v250h96v-596h-96v253zM245 815h69l119 -163h-84l-70 98l-68 -98h-85z" />
    <glyph glyph-name="hbar.smcp" unicode="&#xe257;" horiz-adv-x="599" 
d="M428 246h-257v-246h-95v423h-56v93h56v80h95v-80h257v80h96v-80h55v-93h-55v-423h-96v246zM171 338h257v85h-257v-85z" />
    <glyph glyph-name="hbar.smcp" unicode="&#xf62e;" horiz-adv-x="599" 
d="M428 246h-257v-246h-95v423h-56v93h56v80h95v-80h257v80h96v-80h55v-93h-55v-423h-96v246zM171 338h257v85h-257v-85z" />
    <glyph glyph-name="iacute.smcp" unicode="&#xe258;" horiz-adv-x="221" 
d="M185 816h105l-146 -163h-75zM62 596h97v-596h-97v596z" />
    <glyph glyph-name="iacute.smcp" unicode="&#xf7ed;" horiz-adv-x="221" 
d="M185 816h105l-146 -163h-75zM62 596h97v-596h-97v596z" />
    <glyph glyph-name="igrave.smcp" unicode="&#xe259;" horiz-adv-x="221" 
d="M-71 816h104l117 -163h-75zM62 596h97v-596h-97v596z" />
    <glyph glyph-name="igrave.smcp" unicode="&#xf7ec;" horiz-adv-x="221" 
d="M-71 816h104l117 -163h-75zM62 596h97v-596h-97v596z" />
    <glyph glyph-name="icircumflex.smcp" unicode="&#xe25a;" horiz-adv-x="221" 
d="M62 596h97v-596h-97v596zM79 811h69l119 -163h-84l-70 98l-68 -98h-85z" />
    <glyph glyph-name="icircumflex.smcp" unicode="&#xf7ee;" horiz-adv-x="221" 
d="M62 596h97v-596h-97v596zM79 811h69l119 -163h-84l-70 98l-68 -98h-85z" />
    <glyph glyph-name="idieresis.smcp" unicode="&#xe25b;" horiz-adv-x="221" 
d="M174 795h95v-138h-95v138zM-39 795h95v-138h-95v138zM62 596h97v-596h-97v596z" />
    <glyph glyph-name="idieresis.smcp" unicode="&#xf7ef;" horiz-adv-x="221" 
d="M174 795h95v-138h-95v138zM-39 795h95v-138h-95v138zM62 596h97v-596h-97v596z" />
    <glyph glyph-name="itilde.smcp" unicode="&#xe25c;" horiz-adv-x="221" 
d="M62 596h97v-596h-97v596zM-57 653q0 56 27 89.5t73 33.5q25 0 44 -8t36 -19l30.5 -18.5t30.5 -8.5q36 0 36 50h66q0 -57 -25.5 -90t-75.5 -33q-29 0 -50.5 10.5t-40.5 21.5l-25.5 14.5t-25.5 6.5q-35 0 -35 -49h-65z" />
    <glyph glyph-name="itilde.smcp" unicode="&#xf632;" horiz-adv-x="221" 
d="M62 596h97v-596h-97v596zM-57 653q0 56 27 89.5t73 33.5q25 0 44 -8t36 -19l30.5 -18.5t30.5 -8.5q36 0 36 50h66q0 -57 -25.5 -90t-75.5 -33q-29 0 -50.5 10.5t-40.5 21.5l-25.5 14.5t-25.5 6.5q-35 0 -35 -49h-65z" />
    <glyph glyph-name="imacron.smcp" unicode="&#xe25e;" horiz-adv-x="221" 
d="M-23 723h264v-70h-264v70zM62 596h97v-596h-97v596z" />
    <glyph glyph-name="imacron.smcp" unicode="&#xf64d;" horiz-adv-x="221" 
d="M-23 723h264v-70h-264v70zM62 596h97v-596h-97v596z" />
    <glyph glyph-name="ibreve.smcp" unicode="&#xe25f;" horiz-adv-x="221" 
d="M62 596h97v-596h-97v596zM110 646q-41 0 -71.5 13t-50.5 35t-29.5 52t-9.5 64h70q0 -48 23 -75t68 -28q44 1 67.5 28t23.5 75h71q0 -34 -11 -64t-32 -52t-51 -35t-68 -13z" />
    <glyph glyph-name="ibreve.smcp" unicode="&#xf630;" horiz-adv-x="221" 
d="M62 596h97v-596h-97v596zM110 646q-41 0 -71.5 13t-50.5 35t-29.5 52t-9.5 64h70q0 -48 23 -75t68 -28q44 1 67.5 28t23.5 75h71q0 -34 -11 -64t-32 -52t-51 -35t-68 -13z" />
    <glyph glyph-name="idotaccent.smcp" unicode="&#xe262;" horiz-adv-x="221" 
d="M62 596h97v-596h-97v596zM45 723q0 29 18 46.5t47 17.5q32 0 49 -17.5t17 -46.5t-17 -47t-49 -18q-31 0 -48 18t-17 47z" />
    <glyph glyph-name="idotaccent.smcp" unicode="&#xf666;" horiz-adv-x="221" 
d="M62 596h97v-596h-97v596zM45 723q0 29 18 46.5t47 17.5q32 0 49 -17.5t17 -46.5t-17 -47t-49 -18q-31 0 -48 18t-17 47z" />
    <glyph glyph-name="iogonek.smcp" unicode="&#xe264;" horiz-adv-x="221" 
d="M114 -223q-60 0 -91.5 32t-32.5 76q-1 35 18.5 65.5t53.5 57.5v588h97v-596q-47 -34 -68 -61t-21 -49q0 -20 13 -31.5t33 -11.5t34 8.5t27 21.5l55 -52q-23 -20 -53 -34t-65 -14z" />
    <glyph glyph-name="iogonek.smcp" unicode="&#xf64e;" horiz-adv-x="221" 
d="M114 -223q-60 0 -91.5 32t-32.5 76q-1 35 18.5 65.5t53.5 57.5v588h97v-596q-47 -34 -68 -61t-21 -49q0 -20 13 -31.5t33 -11.5t34 8.5t27 21.5l55 -52q-23 -20 -53 -34t-65 -14z" />
    <glyph glyph-name="jcircumflex.smcp" unicode="&#xe265;" horiz-adv-x="416" 
d="M193 -8q-65 0 -110 30.5t-62 80.5l91 39q9 -27 29 -44.5t51 -17.5q35 0 54.5 24t19.5 63v429h96v-424q0 -85 -43.5 -132.5t-125.5 -47.5zM276 810h69l119 -163h-84l-70 98l-68 -98h-85z" />
    <glyph glyph-name="jcircumflex.smcp" unicode="&#xf633;" horiz-adv-x="416" 
d="M193 -8q-65 0 -110 30.5t-62 80.5l91 39q9 -27 29 -44.5t51 -17.5q35 0 54.5 24t19.5 63v429h96v-424q0 -85 -43.5 -132.5t-125.5 -47.5zM276 810h69l119 -163h-84l-70 98l-68 -98h-85z" />
    <glyph glyph-name="kcommaaccent.smcp" unicode="&#xe268;" horiz-adv-x="541" 
d="M238 292l-85 -98v-194h-95v596h95v-282l238 282h116l-200 -237l212 -359h-108zM197 -252l40 204h86l-63 -204h-63z" />
    <glyph glyph-name="kcommaaccent.smcp" unicode="&#xf64f;" horiz-adv-x="541" 
d="M238 292l-85 -98v-194h-95v596h95v-282l238 282h116l-200 -237l212 -359h-108zM197 -252l40 204h86l-63 -204h-63z" />
    <glyph glyph-name="lacute.smcp" unicode="&#xe26b;" horiz-adv-x="429" 
d="M57 596h96v-504h236v-92h-332v596zM180 816h105l-146 -163h-75z" />
    <glyph glyph-name="lacute.smcp" unicode="&#xf650;" horiz-adv-x="429" 
d="M57 596h96v-504h236v-92h-332v596zM180 816h105l-146 -163h-75z" />
    <glyph glyph-name="lcaron.smcp" unicode="&#xe26c;" horiz-adv-x="429" 
d="M57 596h96v-504h236v-92h-332v596zM307 596h82l-56 -176h-62z" />
    <glyph glyph-name="lcaron.smcp" unicode="&#xf651;" horiz-adv-x="429" 
d="M57 596h96v-504h236v-92h-332v596zM307 596h82l-56 -176h-62z" />
    <glyph glyph-name="lcommaaccent.smcp" unicode="&#xe26d;" horiz-adv-x="429" 
d="M57 596h96v-504h236v-92h-332v596zM144 -256l40 204h86l-63 -204h-63z" />
    <glyph glyph-name="lcommaaccent.smcp" unicode="&#xf652;" horiz-adv-x="429" 
d="M57 596h96v-504h236v-92h-332v596zM144 -256l40 204h86l-63 -204h-63z" />
    <glyph glyph-name="ldot.smcp" unicode="&#xe271;" horiz-adv-x="430" 
d="M57 596h96v-504h236v-92h-332v596zM275 319q0 29 18 46.5t47 17.5q32 0 49 -17.5t17 -46.5t-17 -47t-49 -18q-31 0 -48 18t-17 47z" />
    <glyph glyph-name="ldot.smcp" unicode="&#xf634;" horiz-adv-x="430" 
d="M57 596h96v-504h236v-92h-332v596zM275 319q0 29 18 46.5t47 17.5q32 0 49 -17.5t17 -46.5t-17 -47t-49 -18q-31 0 -48 18t-17 47z" />
    <glyph glyph-name="lslash.smcp" unicode="&#xe272;" horiz-adv-x="455" 
d="M16 292l67 26v278h96v-241l159 61v-76l-159 -61v-187h236v-92h-332v242l-67 -26v76z" />
    <glyph glyph-name="lslash.smcp" unicode="&#xf6f9;" horiz-adv-x="455" 
d="M16 292l67 26v278h96v-241l159 61v-76l-159 -61v-187h236v-92h-332v242l-67 -26v76z" />
    <glyph glyph-name="nacute.smcp" unicode="&#xe276;" horiz-adv-x="609" 
d="M57 596h105l295 -437v437h95v-596h-98l-302 445v-445h-95v596zM386 810h105l-146 -163h-75z" />
    <glyph glyph-name="nacute.smcp" unicode="&#xf653;" horiz-adv-x="609" 
d="M57 596h105l295 -437v437h95v-596h-98l-302 445v-445h-95v596zM386 810h105l-146 -163h-75z" />
    <glyph glyph-name="ntilde.smcp" unicode="&#xe279;" horiz-adv-x="609" 
d="M57 596h105l295 -437v437h95v-596h-98l-302 445v-445h-95v596zM137 653q0 56 27 89.5t73 33.5q25 0 44 -8t36 -19l30.5 -18.5t30.5 -8.5q36 0 36 50h66q0 -57 -25.5 -90t-75.5 -33q-29 0 -50.5 10.5t-40.5 21.5l-25.5 14.5t-25.5 6.5q-35 0 -35 -49h-65z" />
    <glyph glyph-name="ncaron.smcp" unicode="&#xe27a;" horiz-adv-x="609" 
d="M57 596h105l295 -437v437h95v-596h-98l-302 445v-445h-95v596zM154 808h85l68 -98l70 98h84l-119 -163h-69z" />
    <glyph glyph-name="ncaron.smcp" unicode="&#xf654;" horiz-adv-x="609" 
d="M57 596h105l295 -437v437h95v-596h-98l-302 445v-445h-95v596zM154 808h85l68 -98l70 98h84l-119 -163h-69z" />
    <glyph glyph-name="ncommaaccent.smcp" unicode="&#xe27d;" horiz-adv-x="609" 
d="M57 596h105l295 -437v437h95v-596h-98l-302 445v-445h-95v596zM232 -255l40 204h86l-63 -204h-63z" />
    <glyph glyph-name="ncommaaccent.smcp" unicode="&#xf655;" horiz-adv-x="609" 
d="M57 596h105l295 -437v437h95v-596h-98l-302 445v-445h-95v596zM232 -255l40 204h86l-63 -204h-63z" />
    <glyph glyph-name="oacute.smcp" unicode="&#xe281;" horiz-adv-x="686" 
d="M343 -8q-64 0 -119.5 24t-96.5 65.5t-65 97.5t-24 119t24 119t65 97.5t96.5 65.5t119.5 24q63 0 119 -24t97.5 -65.5t65.5 -97.5t24 -119t-24 -119t-65.5 -97.5t-97 -65.5t-119.5 -24zM343 84q44 0 82 17t66 46t44 68t16 83t-16 83t-44 68t-66 46t-82 17t-82 -17t-66 -46
t-44 -68t-16 -83t16 -83t43.5 -68t65.5 -46t83 -17zM412 816h105l-146 -163h-75z" />
    <glyph glyph-name="oacute.smcp" unicode="&#xf7f3;" horiz-adv-x="686" 
d="M343 -8q-64 0 -119.5 24t-96.5 65.5t-65 97.5t-24 119t24 119t65 97.5t96.5 65.5t119.5 24q63 0 119 -24t97.5 -65.5t65.5 -97.5t24 -119t-24 -119t-65.5 -97.5t-97 -65.5t-119.5 -24zM343 84q44 0 82 17t66 46t44 68t16 83t-16 83t-44 68t-66 46t-82 17t-82 -17t-66 -46
t-44 -68t-16 -83t16 -83t43.5 -68t65.5 -46t83 -17zM412 816h105l-146 -163h-75z" />
    <glyph glyph-name="ograve.smcp" unicode="&#xe282;" horiz-adv-x="686" 
d="M343 -8q-64 0 -119.5 24t-96.5 65.5t-65 97.5t-24 119t24 119t65 97.5t96.5 65.5t119.5 24q63 0 119 -24t97.5 -65.5t65.5 -97.5t24 -119t-24 -119t-65.5 -97.5t-97 -65.5t-119.5 -24zM343 84q44 0 82 17t66 46t44 68t16 83t-16 83t-44 68t-66 46t-82 17t-82 -17t-66 -46
t-44 -68t-16 -83t16 -83t43.5 -68t65.5 -46t83 -17zM165 816h104l117 -163h-75z" />
    <glyph glyph-name="ograve.smcp" unicode="&#xf7f2;" horiz-adv-x="686" 
d="M343 -8q-64 0 -119.5 24t-96.5 65.5t-65 97.5t-24 119t24 119t65 97.5t96.5 65.5t119.5 24q63 0 119 -24t97.5 -65.5t65.5 -97.5t24 -119t-24 -119t-65.5 -97.5t-97 -65.5t-119.5 -24zM343 84q44 0 82 17t66 46t44 68t16 83t-16 83t-44 68t-66 46t-82 17t-82 -17t-66 -46
t-44 -68t-16 -83t16 -83t43.5 -68t65.5 -46t83 -17zM165 816h104l117 -163h-75z" />
    <glyph glyph-name="ocircumflex.smcp" unicode="&#xe283;" horiz-adv-x="686" 
d="M343 -8q-64 0 -119.5 24t-96.5 65.5t-65 97.5t-24 119t24 119t65 97.5t96.5 65.5t119.5 24q63 0 119 -24t97.5 -65.5t65.5 -97.5t24 -119t-24 -119t-65.5 -97.5t-97 -65.5t-119.5 -24zM343 84q44 0 82 17t66 46t44 68t16 83t-16 83t-44 68t-66 46t-82 17t-82 -17t-66 -46
t-44 -68t-16 -83t16 -83t43.5 -68t65.5 -46t83 -17zM308 814h69l119 -163h-84l-70 98l-68 -98h-85z" />
    <glyph glyph-name="ocircumflex.smcp" unicode="&#xf7f4;" horiz-adv-x="686" 
d="M343 -8q-64 0 -119.5 24t-96.5 65.5t-65 97.5t-24 119t24 119t65 97.5t96.5 65.5t119.5 24q63 0 119 -24t97.5 -65.5t65.5 -97.5t24 -119t-24 -119t-65.5 -97.5t-97 -65.5t-119.5 -24zM343 84q44 0 82 17t66 46t44 68t16 83t-16 83t-44 68t-66 46t-82 17t-82 -17t-66 -46
t-44 -68t-16 -83t16 -83t43.5 -68t65.5 -46t83 -17zM308 814h69l119 -163h-84l-70 98l-68 -98h-85z" />
    <glyph glyph-name="odieresis.smcp" unicode="&#xe284;" horiz-adv-x="686" 
d="M343 -8q-64 0 -119.5 24t-96.5 65.5t-65 97.5t-24 119t24 119t65 97.5t96.5 65.5t119.5 24q63 0 119 -24t97.5 -65.5t65.5 -97.5t24 -119t-24 -119t-65.5 -97.5t-97 -65.5t-119.5 -24zM343 84q44 0 82 17t66 46t44 68t16 83t-16 83t-44 68t-66 46t-82 17t-82 -17t-66 -46
t-44 -68t-16 -83t16 -83t43.5 -68t65.5 -46t83 -17zM183 726q0 28 17 45t46 17q31 0 47.5 -17t16.5 -45q0 -29 -16.5 -46t-47.5 -17q-30 0 -46.5 17t-16.5 46zM378 726q0 28 17 45t46 17q31 0 47.5 -17t16.5 -45q0 -29 -16.5 -46t-47.5 -17q-30 0 -46.5 17t-16.5 46z" />
    <glyph glyph-name="odieresis.smcp" unicode="&#xf7f6;" horiz-adv-x="686" 
d="M343 -8q-64 0 -119.5 24t-96.5 65.5t-65 97.5t-24 119t24 119t65 97.5t96.5 65.5t119.5 24q63 0 119 -24t97.5 -65.5t65.5 -97.5t24 -119t-24 -119t-65.5 -97.5t-97 -65.5t-119.5 -24zM343 84q44 0 82 17t66 46t44 68t16 83t-16 83t-44 68t-66 46t-82 17t-82 -17t-66 -46
t-44 -68t-16 -83t16 -83t43.5 -68t65.5 -46t83 -17zM183 726q0 28 17 45t46 17q31 0 47.5 -17t16.5 -45q0 -29 -16.5 -46t-47.5 -17q-30 0 -46.5 17t-16.5 46zM378 726q0 28 17 45t46 17q31 0 47.5 -17t16.5 -45q0 -29 -16.5 -46t-47.5 -17q-30 0 -46.5 17t-16.5 46z" />
    <glyph glyph-name="otilde.smcp" unicode="&#xe285;" horiz-adv-x="686" 
d="M343 -8q-64 0 -119.5 24t-96.5 65.5t-65 97.5t-24 119t24 119t65 97.5t96.5 65.5t119.5 24q63 0 119 -24t97.5 -65.5t65.5 -97.5t24 -119t-24 -119t-65.5 -97.5t-97 -65.5t-119.5 -24zM343 84q44 0 82 17t66 46t44 68t16 83t-16 83t-44 68t-66 46t-82 17t-82 -17t-66 -46
t-44 -68t-16 -83t16 -83t43.5 -68t65.5 -46t83 -17zM176 653q0 56 27 89.5t73 33.5q25 0 44 -8t36 -19l30.5 -18.5t30.5 -8.5q36 0 36 50h66q0 -57 -25.5 -90t-75.5 -33q-29 0 -50.5 10.5t-40.5 21.5l-25.5 14.5t-25.5 6.5q-35 0 -35 -49h-65z" />
    <glyph glyph-name="otilde.smcp" unicode="&#xf7f5;" horiz-adv-x="686" 
d="M343 -8q-64 0 -119.5 24t-96.5 65.5t-65 97.5t-24 119t24 119t65 97.5t96.5 65.5t119.5 24q63 0 119 -24t97.5 -65.5t65.5 -97.5t24 -119t-24 -119t-65.5 -97.5t-97 -65.5t-119.5 -24zM343 84q44 0 82 17t66 46t44 68t16 83t-16 83t-44 68t-66 46t-82 17t-82 -17t-66 -46
t-44 -68t-16 -83t16 -83t43.5 -68t65.5 -46t83 -17zM176 653q0 56 27 89.5t73 33.5q25 0 44 -8t36 -19l30.5 -18.5t30.5 -8.5q36 0 36 50h66q0 -57 -25.5 -90t-75.5 -33q-29 0 -50.5 10.5t-40.5 21.5l-25.5 14.5t-25.5 6.5q-35 0 -35 -49h-65z" />
    <glyph glyph-name="omacron.smcp" unicode="&#xe287;" horiz-adv-x="686" 
d="M343 -8q-64 0 -119.5 24t-96.5 65.5t-65 97.5t-24 119t24 119t65 97.5t96.5 65.5t119.5 24q63 0 119 -24t97.5 -65.5t65.5 -97.5t24 -119t-24 -119t-65.5 -97.5t-97 -65.5t-119.5 -24zM343 84q44 0 82 17t66 46t44 68t16 83t-16 83t-44 68t-66 46t-82 17t-82 -17t-66 -46
t-44 -68t-16 -83t16 -83t43.5 -68t65.5 -46t83 -17zM211 723h264v-70h-264v70z" />
    </font>
</defs>
</svg>
