<?xml version="1.0" standalone="no"?>
<!DOCTYPE svg PUBLIC "-//W3C//DTD SVG 1.1//EN" "http://www.w3.org/Graphics/SVG/1.1/DTD/svg11.dtd" >
<svg>
<metadata>
Created by FontForge 20090622 at Tue Apr  7 09:45:03 2015
 By deploy user
Samsung Sharp Sans is a customized version of Sharp Sans, which is copyright (c) 2015 by Lucas Sharp. All rights reserved.
</metadata>
<defs>
<font id="SamsungSharpSans-Regular" horiz-adv-x="588" >
  <font-face 
    font-family="Samsung Sharp Sans Regular"
    font-weight="700"
    font-stretch="normal"
    units-per-em="1000"
    panose-1="0 0 0 0 0 0 0 0 0 0"
    ascent="800"
    descent="-200"
    x-height="585"
    cap-height="730"
    bbox="-70 -283 1333 1076"
    underline-thickness="50"
    underline-position="-50"
    unicode-range="U+000D-U+FB79"
  />
<missing-glyph horiz-adv-x="926" 
d="M100 730h726v-730h-726v730zM236 130h454v470h-454v-470zM260 240l123 127l-124 129l80 78l122 -126l124 127l80 -78l-126 -130l125 -128l-80 -78l-123 126l-121 -125z" />
    <glyph glyph-name="interrobang" unicode="&#x21;&#x3f;" horiz-adv-x="539" 
d="M243 161q-1 33 -1.5 89t-1 120t-0.5 128.5v114.5v74q-49 -7 -81 -32t-52 -63l-51 24q26 52 80.5 88t134.5 36q45 0 83.5 -13t66.5 -36.5t44 -56t16 -72.5q0 -47 -14 -76t-35.5 -50t-46.5 -39t-46.5 -43t-35.5 -61t-14 -94v-38h-46zM423 563q0 50 -36 83.5t-91 40.5v-74
q0 -57 -2 -122l-4 -128q19 31 42 51l43.5 39.5t34 44.5t13.5 65zM216 39q0 21 14 34.5t35 13.5q23 0 36 -13.5t13 -34.5t-13 -35t-36 -14t-36 14t-13 35z" />
    <glyph glyph-name="interrobangdown" unicode="&#xa1;&#xbf;" horiz-adv-x="539" 
d="M269 -240q-45 0 -83.5 13t-67 36.5t-44.5 56t-16 72.5q0 47 14 76t35.5 50t46.5 39t46.5 43t35.5 61.5t14 93.5v38h47q1 -33 1.5 -89t0.5 -120v-128.5v-114.5v-74q49 7 81 32t53 63l51 -24q-26 -52 -81 -88t-134 -36zM117 -63q0 -50 35.5 -83.5t90.5 -40.5v74
q0 57 2 121.5l4 126.5q-19 -30 -42 -50t-43 -39.5t-33.5 -44t-13.5 -64.5zM225 462q0 21 14 34.5t35 13.5q23 0 36 -13.5t13 -34.5t-13 -35t-36 -14t-36 14t-13 35z" />
    <glyph glyph-name="r.smcp.alt" unicode="&#x683;" horiz-adv-x="520" arabic-form="isolated" 
d="M72 596h200q43 0 79.5 -15t63 -40.5t41.5 -60t15 -73.5q0 -59 -34 -106.5t-94 -67.5l134 -233h-68l-122 218h-157v-218h-58v596zM130 543v-273h135q34 0 61 11.5t46 31t29.5 44t10.5 50.5q0 59 -37.5 97.5t-105.5 38.5h-139z" />
    <glyph glyph-name="racute.smcp.alt" unicode="&#x683;" horiz-adv-x="520" arabic-form="final" 
d="M72 596h200q43 0 79.5 -15t63 -40.5t41.5 -60t15 -73.5q0 -59 -34 -106.5t-94 -67.5l134 -233h-68l-122 218h-157v-218h-58v596zM130 543v-273h135q34 0 61 11.5t46 31t29.5 44t10.5 50.5q0 59 -37.5 97.5t-105.5 38.5h-139zM332 816h75l-140 -155h-54z" />
    <glyph glyph-name="rcaron.smcp.alt" unicode="&#x683;" horiz-adv-x="520" arabic-form="initial" 
d="M72 596h200q43 0 79.5 -15t63 -40.5t41.5 -60t15 -73.5q0 -59 -34 -106.5t-94 -67.5l134 -233h-68l-122 218h-157v-218h-58v596zM130 543v-273h135q34 0 61 11.5t46 31t29.5 44t10.5 50.5q0 59 -37.5 97.5t-105.5 38.5h-139zM120 816h59l81 -114l84 114h59l-118 -155h-48
z" />
    <glyph glyph-name="rcommaaccent.smcp.alt" unicode="&#x683;" horiz-adv-x="520" arabic-form="medial" 
d="M72 596h200q43 0 79.5 -15t63 -40.5t41.5 -60t15 -73.5q0 -59 -34 -106.5t-94 -67.5l134 -233h-68l-122 218h-157v-218h-58v596zM130 543v-273h135q34 0 61 11.5t46 31t29.5 44t10.5 50.5q0 59 -37.5 97.5t-105.5 38.5h-139zM192 -260l43 204h55l-58 -204h-40z" />
    <glyph glyph-name=".notdef" horiz-adv-x="926" 
d="M100 730h726v-730h-726v730zM236 130h454v470h-454v-470zM260 240l123 127l-124 129l80 78l122 -126l124 127l80 -78l-126 -130l125 -128l-80 -78l-123 126l-121 -125z" />
    <glyph glyph-name=".null" horiz-adv-x="0" 
 />
    <glyph glyph-name=".null" horiz-adv-x="0" 
 />
    <glyph glyph-name="nonmarkingreturn" unicode="&#xd;" horiz-adv-x="250" 
 />
    <glyph glyph-name="space" unicode=" " horiz-adv-x="254" 
 />
    <glyph glyph-name="exclam" unicode="!" horiz-adv-x="242" 
d="M106 152q-2 32 -4.5 80t-4.5 102.5t-3 111.5t-1 107v177h58v-177q0 -50 -1 -107t-2.5 -111.5t-4 -102.5t-4.5 -80h-33zM72 39q0 21 14 34.5t35 13.5q23 0 36 -13.5t13 -34.5t-13 -35t-36 -14t-36 14t-13 35z" />
    <glyph glyph-name="quotedbl" unicode="&#x22;" horiz-adv-x="286" 
d="M80 500q-1 9 -4 27.5t-5.5 39.5t-4.5 42t-2 37v84h51v-84q0 -15 -2 -36.5l-4 -42.5t-4.5 -39.5t-4.5 -27.5h-20zM187 500q-1 9 -4 27.5t-5.5 39.5t-4.5 42t-2 37v84h51v-84q0 -15 -2 -36.5l-4 -42.5t-4.5 -39.5t-4.5 -27.5h-20z" />
    <glyph glyph-name="numbersign" unicode="#" horiz-adv-x="835" 
d="M525 204h-217v-204h-58v204h-202v55h202v220h-202v55h202v196h58v-196h217v196h58v-196h204v-55h-204v-220h204v-55h-204v-204h-58v204zM308 259h217v220h-217v-220z" />
    <glyph glyph-name="dollar" unicode="$" 
d="M540 196q0 -39 -15.5 -74.5t-43.5 -63t-67.5 -45.5t-87.5 -22v-111h-57v111q-78 5 -134 35.5t-95 77.5l44 41q32 -42 77 -69t108 -32v321q-37 12 -74 26t-66 36t-47.5 53t-18.5 76q0 39 15 71.5t42 56.5t65 38t84 17v101h57v-102q73 -6 121 -35t80 -71l-46 -35
q-24 35 -61 59.5t-94 31.5v-286q38 -12 76.5 -27t69 -38.5t49.5 -57t19 -83.5zM481 195q0 33 -13 57t-34.5 41.5t-49.5 30t-58 22.5v-302q69 8 112 48.5t43 102.5zM122 556q0 -29 12 -50t32.5 -37t47 -27.5t55.5 -21.5v269q-65 -5 -106 -40.5t-41 -92.5z" />
    <glyph glyph-name="percent" unicode="%" horiz-adv-x="858" 
d="M126 574q0 -24 9.5 -45.5t25 -37.5t36.5 -25.5t45 -9.5t45 9.5t37 25.5t25 37.5t9 45.5t-9 45.5t-25 37.5t-37 25t-45 9t-45 -9t-36.5 -25t-25 -37.5t-9.5 -45.5zM466 156q0 35 13 65t35.5 52.5t52.5 35.5t65 13t65 -13t52.5 -35.5t35.5 -52.5t13 -65q0 -34 -13 -64.5
t-35.5 -53.5t-52.5 -36t-65 -13t-65 13t-52.5 36t-35.5 53.5t-13 64.5zM714 730h73l-627 -730h-73zM516 156q0 -25 9 -46.5t25 -37.5t37 -25t45 -9t45 9t36.5 25t25 37.5t9.5 46.5q0 24 -9.5 45.5t-25 37.5t-36.5 25t-45 9t-45 -9t-37 -25t-25 -37.5t-9 -45.5zM76 574
q0 35 13 65t35.5 52.5t53 35.5t64.5 13q35 0 65 -13t52.5 -35.5t35.5 -52.5t13 -65q0 -34 -13 -64.5t-35.5 -53.5t-52.5 -36t-65 -13q-34 0 -64.5 13t-53 36t-35.5 53.5t-13 64.5z" />
    <glyph glyph-name="ampersand" unicode="&#x26;" horiz-adv-x="762" 
d="M557 78q-46 -41 -102 -65t-122 -24q-76 0 -129.5 22t-87.5 56t-50 76.5t-16 82.5q0 76 39 133t103 90q-23 30 -35 60t-12 67q0 33 12 62.5t35.5 52t57.5 36t77 13.5q60 0 103.5 -26t66.5 -62l-47 -31q-18 28 -49 48.5t-74 20.5q-29 0 -52 -9t-39 -25t-24.5 -36.5
t-8.5 -43.5t7.5 -43.5t22.5 -42t38 -45.5l54 -56l236 -236q42 49 67 108.5t30 117.5h-143v54h199v-23q0 -72 -30.5 -150.5t-87.5 -142.5l118 -117h-78zM333 40q55 0 102.5 20t85.5 53l-242 242l-54 54q-56 -29 -86.5 -74.5t-30.5 -108.5q0 -31 13 -64t40.5 -60t70 -44.5
t101.5 -17.5z" />
    <glyph glyph-name="quotesingle" unicode="'" horiz-adv-x="179" 
d="M80 500q-1 9 -4 27.5t-5.5 39.5t-4.5 42t-2 37v84h51v-84q0 -15 -2 -36.5l-4 -42.5t-4.5 -39.5t-4.5 -27.5h-20z" />
    <glyph glyph-name="parenleft" unicode="(" horiz-adv-x="419" 
d="M328 -248q-57 40 -107 89.5t-87 110.5t-58.5 135t-21.5 163q0 88 21 161.5t57.5 135t86 111t105.5 89.5l40 -44q-55 -38 -100.5 -84t-78.5 -102t-51 -122.5t-18 -144.5q0 -79 18.5 -145.5t52 -122.5t79.5 -102t101 -83z" />
    <glyph glyph-name="parenright" unicode=")" horiz-adv-x="419" 
d="M303 250q0 78 -18 144.5t-51 122t-78.5 102t-100.5 83.5l40 45q56 -40 105.5 -89.5t86 -111t57.5 -135t21 -162.5q0 -88 -21.5 -162t-58.5 -135.5t-87 -111t-107 -88.5l-39 45q55 37 101 83t79.5 102t52 122.5t18.5 145.5z" />
    <glyph glyph-name="asterisk" unicode="*" horiz-adv-x="438" 
d="M232 532l14 -156h-54l14 156l-128 -90l-26 46l141 66l-141 67l26 45l128 -91l-14 155h54l-14 -153l126 88l26 -46l-142 -65l142 -65l-27 -46z" />
    <glyph glyph-name="plus" unicode="+" horiz-adv-x="475" 
d="M53 390h160v159h50v-159h160v-50h-160v-161h-50v161h-160v50z" />
    <glyph glyph-name="comma" unicode="," horiz-adv-x="191" 
d="M75 87h63l-60 -204h-46z" />
    <glyph glyph-name="hyphen" unicode="-" horiz-adv-x="475" 
d="M53 277h370v-51h-370v51z" />
    <glyph glyph-name="period" unicode="." horiz-adv-x="191" 
d="M47 39q0 21 14 34.5t35 13.5q23 0 36 -13.5t13 -34.5t-13 -35t-36 -14t-36 14t-13 35z" />
    <glyph glyph-name="slash" unicode="/" horiz-adv-x="463" 
d="M374 730h62l-346 -730h-62z" />
    <glyph glyph-name="zero" unicode="0" 
d="M293 43q81 0 126 46.5t45 129.5v282q0 88 -44.5 137t-124.5 49q-81 0 -126 -50.5t-45 -135.5v-278q0 -85 44 -132.5t125 -47.5zM294 -10q-109 0 -168.5 62.5t-59.5 170.5v278q0 53 16.5 97t46.5 75.5t72 49t93 17.5q52 0 94 -18t72 -49.5t46 -75.5t16 -96v-282
q0 -109 -61 -169t-167 -60z" />
    <glyph glyph-name="one" unicode="1" horiz-adv-x="321" 
d="M154 0v676h-132v54h190v-730h-58z" />
    <glyph glyph-name="two" unicode="2" horiz-adv-x="587" 
d="M65 59q0 43 18.5 79t48 68t67 60.5l75.5 55.5l70 51t60 51t42 55t16 62q0 65 -45.5 106t-122.5 41q-64 0 -109.5 -32.5t-71.5 -83.5l-50 27q30 62 89.5 101.5t140.5 39.5q52 0 94 -15.5t72 -42.5t46 -63.5t16 -78.5t-17.5 -77.5t-46.5 -66.5t-65.5 -58.5l-74.5 -54.5
l-70.5 -50.5t-61 -52.5t-43 -57t-16.5 -64v-4h405v-55h-466v59z" />
    <glyph glyph-name="three" unicode="3" horiz-adv-x="573" 
d="M278 -9q-72 0 -132.5 25t-98.5 73l46 38q31 -39 78 -62t107 -23q41 0 74.5 12t57 33t36.5 50t13 63q0 36 -14.5 64t-40 47.5t-60 30t-73.5 10.5h-68v55h68q77 0 124 38t47 102q0 65 -46.5 103t-125.5 38q-54 0 -97.5 -24t-67.5 -57l-47 33q32 40 86 70t128 30
q53 0 95.5 -14.5t71.5 -40t44.5 -61t15.5 -77.5q0 -60 -30.5 -102.5t-86.5 -64.5q62 -21 98.5 -66t36.5 -114q0 -46 -17 -84.5t-48 -66t-75 -43t-99 -15.5z" />
    <glyph glyph-name="four" unicode="4" horiz-adv-x="614" 
d="M403 168h-354l-2 53l356 509h58v-510h107v-52h-107v-168h-58v168zM403 220v419l-294 -419h294z" />
    <glyph glyph-name="five" unicode="5" horiz-adv-x="611" 
d="M308 -10q-83 0 -147 35.5t-98 99.5l54 33q27 -52 75 -83t116 -31q40 0 75 13.5t61 38.5t41 60t15 78q0 48 -17 83.5t-44 59t-61.5 35.5t-69.5 12q-69 0 -116 -32t-73 -86l-56 19l59 405h384v-54h-336l-40 -277q30 35 74 56.5t104 21.5q47 0 92 -14.5t80 -44.5t56.5 -76
t21.5 -108q0 -54 -18.5 -98.5t-52 -77t-79.5 -50.5t-100 -18z" />
    <glyph glyph-name="six" unicode="6" horiz-adv-x="622" 
d="M308 -10q-55 0 -102 19.5t-81.5 54t-54 80.5t-19.5 99q0 48 15.5 92.5t41.5 79.5l221 315h70l-177 -250q42 18 95 18q52 0 97 -19.5t78.5 -54t53 -80.5t19.5 -100t-20 -100t-54.5 -80.5t-81.5 -54t-101 -19.5zM308 43q41 0 77.5 16t63.5 43t43 63.5t16 78.5t-16 78.5
t-43 64t-63.5 43t-77.5 15.5q-42 0 -78.5 -16t-63.5 -43t-42.5 -63.5t-15.5 -78.5t15.5 -78.5t42.5 -63.5t63.5 -43t78.5 -16z" />
    <glyph glyph-name="seven" unicode="7" horiz-adv-x="534" 
d="M431 675h-385v55h446v-50l-325 -680h-62z" />
    <glyph glyph-name="eight" unicode="8" horiz-adv-x="571" 
d="M285 -10q-54 0 -97 16.5t-73 45.5t-45.5 67.5t-15.5 82.5q0 63 35 112.5t92 74.5q-45 23 -72.5 65.5t-27.5 96.5q0 40 15 74.5t42 60t64.5 40t82.5 14.5q44 0 82 -14.5t65.5 -40t43 -60t15.5 -74.5q0 -54 -28.5 -96t-73.5 -65q57 -24 92.5 -74.5t35.5 -113.5
q0 -44 -15.5 -82.5t-45.5 -67.5t-73 -45.5t-98 -16.5zM285 43q41 0 73 12.5t55 34t35 50.5t12 62q0 32 -12 61t-34.5 51t-55 35t-73.5 13q-40 0 -72.5 -13t-55 -35t-34.5 -51t-12 -61q0 -33 12 -62t34.5 -50.5t55 -34t72.5 -12.5zM285 413q34 0 62 11t47.5 29.5t30.5 44
t11 53.5q0 29 -10.5 54t-30 44t-47.5 29.5t-63 10.5q-34 0 -61.5 -10.5t-47 -29.5t-30 -44t-10.5 -54q0 -28 10.5 -53.5t30 -44t47 -29.5t61.5 -11z" />
    <glyph glyph-name="nine" unicode="9" horiz-adv-x="608" 
d="M390 258q-42 -18 -94 -18q-51 0 -96 19.5t-78 53t-52 79.5t-19 98q0 53 19.5 98.5t53.5 79.5t80.5 53t99.5 19t99.5 -19.5t80.5 -53t53.5 -79t19.5 -97.5q0 -45 -14 -86.5t-37 -74.5l-224 -330h-69zM304 294q41 0 76.5 15.5t62 42t42 62t15.5 76.5t-15.5 76.5t-42 62.5
t-62 42.5t-76.5 15.5q-40 0 -75.5 -15.5t-62.5 -42.5t-42.5 -62.5t-15.5 -76.5t15.5 -76.5t42.5 -62t62.5 -42t75.5 -15.5z" />
    <glyph glyph-name="colon" unicode=":" horiz-adv-x="190" 
d="M47 39q0 21 14 34.5t35 13.5q23 0 36 -13.5t13 -34.5t-13 -35t-36 -14t-36 14t-13 35zM47 457q0 21 14 34.5t35 13.5q23 0 36 -13.5t13 -34.5t-13 -35t-36 -14t-36 14t-13 35z" />
    <glyph glyph-name="semicolon" unicode=";" horiz-adv-x="191" 
d="M75 87h63l-60 -204h-46zM47 457q0 21 14 34.5t35 13.5q23 0 36 -13.5t13 -34.5t-13 -35t-36 -14t-36 14t-13 35z" />
    <glyph glyph-name="less" unicode="&#x3c;" horiz-adv-x="475" 
d="M53 342v49l370 142v-52l-310 -114l310 -118v-53z" />
    <glyph glyph-name="equal" unicode="=" horiz-adv-x="475" 
d="M53 469h370v-50h-370v50zM53 307h370v-49h-370v49z" />
    <glyph glyph-name="greater" unicode="&#x3e;" horiz-adv-x="475" 
d="M53 249l310 118l-310 114v52l370 -142v-49l-370 -146v53z" />
    <glyph glyph-name="question" unicode="?" horiz-adv-x="539" 
d="M228 199q0 63 14.5 104t36 68.5t47 46.5t47 38.5t36 44t14.5 63.5q0 28 -12 51t-32.5 39.5t-48.5 25.5t-61 9q-63 0 -101 -26.5t-61 -70.5l-51 24q26 52 80.5 88t133.5 36q45 0 83.5 -12.5t67 -36t44.5 -56t16 -72.5q0 -47 -14.5 -76.5t-37 -50.5t-48 -39.5t-48 -43
t-37 -61t-14.5 -93.5v-38h-54v38zM206 39q0 21 14 34.5t35 13.5q23 0 36 -13.5t13 -34.5t-13 -35t-36 -14t-36 14t-13 35z" />
    <glyph glyph-name="at" unicode="@" horiz-adv-x="856" 
d="M427 -125q-78 0 -146 29.5t-118.5 80t-79.5 119t-29 146.5t30.5 146t83 119t121.5 80.5t147 29.5q80 0 147 -28t115.5 -74.5t75.5 -107.5t27 -127q0 -41 -9.5 -79t-29 -67t-48 -46t-66.5 -17q-45 0 -72.5 19.5t-38.5 49.5q-17 -29 -51 -50.5t-83 -21.5q-30 0 -59.5 12
t-52 35t-34.5 57t-8 78q6 45 23 78.5t42 55.5t54.5 33t60.5 11q42 0 71.5 -18t44.5 -45q2 19 3.5 30.5t1.5 17.5q1 7 1 9h55l-20 -181q-7 -64 10.5 -90.5t55.5 -26.5q45 0 70.5 44t25.5 111q0 56 -22.5 107.5t-64 91.5t-99 63.5t-127.5 23.5q-67 0 -126 -25.5t-103 -69.5
t-69.5 -102.5t-25.5 -125.5t24.5 -125.5t67 -102.5t100 -69.5t124.5 -25.5q70 0 128.5 26t103.5 72l40 -35q-48 -50 -118.5 -82.5t-153.5 -32.5zM414 128q27 0 47.5 10.5t35.5 28.5t24 41.5t11 49.5q3 26 -1.5 49t-16.5 40.5t-31 28t-45 10.5q-48 0 -85.5 -34t-43.5 -94
q-4 -27 2.5 -50.5t20.5 -41t35 -28t47 -10.5z" />
    <glyph glyph-name="A" unicode="A" horiz-adv-x="698" 
d="M318 730h62l281 -730h-61l-79 204h-345l-78 -204h-61zM197 259h303l-151 394z" />
    <glyph glyph-name="B" unicode="B" horiz-adv-x="639" 
d="M75 730h279q47 0 86 -14t67.5 -39t44 -59.5t15.5 -76.5q0 -55 -26.5 -98t-76.5 -64q57 -21 89 -67.5t32 -110.5q0 -45 -16 -82t-45 -63.5t-68.5 -41t-87.5 -14.5h-293v730zM133 350v-297h234q35 0 64.5 11.5t50.5 31t33 47t12 58.5q0 32 -11 59.5t-32 47.5t-51 31t-67 11
h-233zM133 677v-274h230q34 0 61 10.5t46 29t29 44t10 54.5t-11.5 54t-32.5 43t-49.5 28.5t-62.5 10.5h-220z" />
    <glyph glyph-name="C" unicode="C" horiz-adv-x="796" 
d="M428 -10q-78 0 -146 29.5t-119 80.5t-80.5 119t-29.5 146t29.5 146t80.5 119t119 80.5t146 29.5q51 0 98.5 -13.5t89 -37.5t75.5 -58t59 -75l-50 -29q-41 71 -112 115t-160 44q-67 0 -124.5 -25.5t-100 -69t-67 -102t-24.5 -124.5t24.5 -124t67 -101.5t100 -69
t124.5 -25.5q97 0 169.5 46.5t111.5 121.5l51 -26q-24 -44 -58 -80.5t-76.5 -62.5t-92.5 -40t-105 -14z" />
    <glyph glyph-name="D" unicode="D" horiz-adv-x="711" 
d="M75 730h205q83 0 152 -28t119.5 -77t78.5 -115.5t28 -144.5t-29 -145t-79.5 -115.5t-119 -76.5t-148.5 -28h-207v730zM133 677v-623h145q69 0 127.5 23.5t101.5 65.5t67.5 99t24.5 123t-23.5 123t-66.5 99t-102 66t-131 24h-143z" />
    <glyph glyph-name="E" unicode="E" horiz-adv-x="583" 
d="M75 730h447v-55h-389v-282h389v-54h-389v-284h389v-55h-447v730z" />
    <glyph glyph-name="F" unicode="F" horiz-adv-x="547" 
d="M75 730h413v-55h-355v-282h355v-55h-355v-338h-58v730z" />
    <glyph glyph-name="G" unicode="G" horiz-adv-x="850" 
d="M430 -10q-80 0 -149 29.5t-119.5 80.5t-79.5 119t-29 146t29 146t80 119t120.5 80.5t151.5 29.5q106 0 189.5 -49.5t132.5 -134.5l-50 -29q-40 73 -110.5 116t-161.5 43q-71 0 -130 -25.5t-102 -69t-66.5 -102t-23.5 -124.5t23.5 -124t66 -101.5t101 -69t127.5 -25.5
t123.5 21.5t94.5 59.5t63.5 89.5t29.5 111.5h-316v54h374v-15q0 -76 -25 -144.5t-72.5 -120t-116 -81.5t-155.5 -30z" />
    <glyph glyph-name="H" unicode="H" horiz-adv-x="688" 
d="M555 339h-422v-339h-58v730h58v-336h422v336h58v-730h-58v339z" />
    <glyph glyph-name="I" unicode="I" horiz-adv-x="227" 
d="M85 730h57v-730h-57v730z" />
    <glyph glyph-name="J" unicode="J" horiz-adv-x="476" 
d="M219 -10q-66 0 -112.5 28t-69.5 75l52 33q17 -37 49 -60t80 -23q60 0 94 39t34 106v542h58v-541q0 -92 -49 -145.5t-136 -53.5z" />
    <glyph glyph-name="K" unicode="K" horiz-adv-x="649" 
d="M291 397l-158 -181v-216h-57v730h57v-437l382 437h71l-254 -293l290 -437h-67z" />
    <glyph glyph-name="L" unicode="L" horiz-adv-x="533" 
d="M75 730h58v-675h347v-55h-405v730z" />
    <glyph glyph-name="M" unicode="M" horiz-adv-x="866" 
d="M75 730h57l296 -410l307 410h55v-730h-57v638l-306 -413l-294 404v-629h-58v730z" />
    <glyph glyph-name="N" unicode="N" horiz-adv-x="742" 
d="M75 730h64l470 -640v640h58v-730h-62l-472 643v-643h-58v730z" />
    <glyph glyph-name="O" unicode="O" horiz-adv-x="855" 
d="M428 -10q-78 0 -146 29.5t-119 80.5t-80.5 119t-29.5 146t29.5 146t80.5 119t119 80.5t146 29.5t146 -29.5t119 -80.5t80.5 -119t29.5 -146t-29.5 -146t-80.5 -119t-119 -80.5t-146 -29.5zM428 45q67 0 124.5 25.5t100 69t66.5 101.5t24 124t-24 124.5t-66.5 102
t-100 68.5t-124.5 25t-124.5 -25t-100 -68.5t-67 -102t-24.5 -124.5t24.5 -124t67 -101.5t100 -69t124.5 -25.5z" />
    <glyph glyph-name="P" unicode="P" horiz-adv-x="617" 
d="M75 730h221q60 0 109.5 -19t84.5 -52t54 -78.5t19 -98.5t-19 -98.5t-54 -79t-84.5 -52.5t-109.5 -19h-163v-233h-58v730zM133 677v-390h160q49 0 88 15t66.5 41.5t42 62t14.5 76.5q0 42 -14.5 77.5t-42 62t-66.5 41t-88 14.5h-160z" />
    <glyph glyph-name="Q" unicode="Q" horiz-adv-x="856" 
d="M451 301h72l132 -155q41 43 65 98.5t24 120.5q0 66 -24.5 124.5t-67 102t-100 68.5t-124.5 25t-124.5 -25t-100 -68.5t-67 -102t-24.5 -124.5t24.5 -124t67 -101.5t100 -69t124.5 -25.5q42 0 78 10t69 28l36 -43q-41 -24 -86.5 -37t-96.5 -13q-78 0 -146 29.5t-119 80.5
t-80.5 119t-29.5 146t29.5 146t80.5 119t119 80.5t146 29.5t146 -29.5t119 -80.5t80.5 -119t29.5 -146t-30 -144.5t-81 -118.5l88 -102h-74z" />
    <glyph glyph-name="R" unicode="R" horiz-adv-x="596" 
d="M330 272h-197v-272h-58v730h228q51 0 95 -18t76.5 -49t50.5 -72.5t18 -88.5q0 -36 -11.5 -70t-32.5 -62t-50.5 -49.5t-65.5 -32.5l164 -288h-65zM133 677v-352h165q42 0 76 14.5t59 39.5t38.5 57t13.5 66q0 37 -13.5 69t-38 55.5t-59 37t-75.5 13.5h-166z" />
    <glyph glyph-name="S" unicode="S" horiz-adv-x="557" 
d="M273 -10q-81 0 -141.5 32.5t-101.5 87.5l48 37q35 -51 84 -77.5t111 -26.5q37 0 69 11t55.5 31t37 48.5t13.5 63.5q0 37 -15.5 62.5t-41.5 43.5t-59.5 30.5t-69.5 24.5q-38 12 -74.5 27t-65.5 37t-47 54t-18 79q0 40 17 74t46 58.5t68.5 38.5t85.5 14q74 0 126.5 -27
t88.5 -73l-45 -35q-29 41 -70.5 62.5t-99.5 21.5q-33 0 -62 -10t-50.5 -27.5t-33.5 -42t-12 -54.5q0 -35 15 -59t40.5 -40.5t58.5 -28.5l68 -24q38 -13 75.5 -28t67 -38.5t47.5 -57t18 -82.5q0 -43 -17 -80.5t-48 -65.5t-74 -44.5t-94 -16.5z" />
    <glyph glyph-name="T" unicode="T" horiz-adv-x="610" 
d="M276 677h-228v53h514v-53h-228v-677h-58v677z" />
    <glyph glyph-name="U" unicode="U" horiz-adv-x="641" 
d="M320 -10q-53 0 -98.5 19t-78.5 52.5t-52 79t-19 97.5v492h58v-495q0 -39 14.5 -74t40 -60.5t60.5 -40.5t75 -15t75 15t60.5 41t40.5 60.5t15 74.5v494h58v-492q0 -52 -19 -97.5t-52.5 -79t-79 -52.5t-98.5 -19z" />
    <glyph glyph-name="V" unicode="V" horiz-adv-x="681" 
d="M37 730h60l243 -649l243 649h61l-275 -730h-58z" />
    <glyph glyph-name="W" unicode="W" horiz-adv-x="1072" 
d="M42 730h61l186 -641l218 641h55l216 -641l193 641h60l-223 -730h-59l-216 640l-217 -640h-59z" />
    <glyph glyph-name="X" unicode="X" horiz-adv-x="652" 
d="M326 331l-225 -331h-65l257 377l-238 353h66l206 -305l206 305h65l-237 -350l255 -380h-65z" />
    <glyph glyph-name="Y" unicode="Y" horiz-adv-x="612" 
d="M278 347l-245 383h65l208 -328l208 328h65l-243 -381v-349h-58v347z" />
    <glyph glyph-name="Z" unicode="Z" horiz-adv-x="600" 
d="M58 53l415 622h-399v55h467v-53l-415 -622h417v-55h-485v53z" />
    <glyph glyph-name="bracketleft" unicode="[" horiz-adv-x="378" 
d="M53 730h273v-54h-215v-852h215v-54h-273v960z" />
    <glyph glyph-name="backslash" unicode="\" horiz-adv-x="463" 
d="M28 730h62l346 -730h-62z" />
    <glyph glyph-name="bracketright" unicode="]" horiz-adv-x="378" 
d="M53 -177h215v853h-215v54h273v-960h-273v53z" />
    <glyph glyph-name="asciicircum" unicode="^" horiz-adv-x="502" 
d="M228 683h44l126 -167h-60l-88 117l-85 -117h-60z" />
    <glyph glyph-name="underscore" unicode="_" horiz-adv-x="542" 
d="M53 -10h437v-50h-437v50z" />
    <glyph glyph-name="grave" unicode="`" horiz-adv-x="502" 
d="M147 720h74l120 -155h-54z" />
    <glyph glyph-name="a" unicode="a" horiz-adv-x="747" 
d="M361 -12q-64 0 -119.5 24t-96 65.5t-63.5 96.5t-23 118t23 118.5t63.5 97t96 65.5t119.5 24q36 0 72.5 -9.5t69 -28.5t59.5 -46.5t44 -62.5v135h56v-585h-56v134q-17 -35 -44 -62.5t-59.5 -46t-69 -28t-72.5 -9.5zM363 41q53 0 98 19.5t79 53.5t53 80t19 98t-19 98
t-53 80t-79 54t-98 20q-51 0 -96 -19.5t-78.5 -54t-52.5 -80t-19 -98.5q0 -52 19 -98t52.5 -80t78.5 -53.5t96 -19.5z" />
    <glyph glyph-name="b" unicode="b" horiz-adv-x="746" 
d="M386 -12q-36 0 -72.5 9.5t-69 28t-59.5 45.5t-44 61v-132h-55v740h56v-286q17 34 44 60.5t59.5 45t68.5 28t72 9.5q64 0 119.5 -24t96 -65.5t63.5 -97t23 -118.5t-23.5 -118t-64 -96.5t-95.5 -65.5t-119 -24zM384 41q51 0 96 19.5t78 53.5t52 80t19 98q0 53 -19 98.5
t-52 80t-78 54t-96 19.5q-53 0 -98.5 -20t-79 -54t-52.5 -80t-19 -98t19 -98t52.5 -80t79 -53.5t98.5 -19.5z" />
    <glyph glyph-name="c" unicode="c" horiz-adv-x="697" 
d="M365 -12q-65 0 -121 24t-97 65t-64.5 96.5t-23.5 118.5q0 65 24 120.5t65 96.5t96.5 64.5t119.5 23.5q48 0 91 -13t79 -37t63.5 -57t43.5 -73l-53 -22q-29 69 -87.5 109t-136.5 40q-52 0 -97.5 -19.5t-78.5 -54t-52 -80t-19 -98.5q0 -52 19 -98t52.5 -80t79 -53.5
t98.5 -19.5q81 0 138.5 43t85.5 111l54 -23q-17 -40 -44 -74t-62.5 -58.5t-79 -38t-93.5 -13.5z" />
    <glyph glyph-name="d" unicode="d" horiz-adv-x="747" 
d="M361 -12q-64 0 -119.5 24t-96 65.5t-63.5 96.5t-23 118t23 118.5t63.5 97t96 65.5t119.5 24q36 0 72 -9.5t68 -28t59 -45t45 -61.5v287h56v-740h-55v134q-17 -35 -44 -62.5t-59.5 -46t-69 -28t-72.5 -9.5zM363 41q53 0 98 19.5t79 53.5t53 80t19 98t-19 98t-53 80t-79 54
t-98 20q-51 0 -96 -19.5t-78.5 -54t-52.5 -80t-19 -98.5q0 -52 19 -98t52.5 -80t78.5 -53.5t96 -19.5z" />
    <glyph glyph-name="e" unicode="e" horiz-adv-x="722" 
d="M366 -12q-71 0 -128 23.5t-96.5 64t-61 95.5t-21.5 119q0 65 23 121t63.5 97t96.5 65t121 24q64 0 118.5 -22t94.5 -62t62.5 -94.5t22.5 -119.5v-26h-547q3 -50 22 -93t52 -74t78 -48.5t100 -17.5q85 0 143 41.5t87 114.5l51 -24q-39 -88 -108 -136t-173 -48zM363 545
q-49 0 -91 -17t-74.5 -46t-54 -69t-27.5 -87h487q-4 48 -23.5 88.5t-50.5 69.5t-73 45t-93 16z" />
    <glyph glyph-name="f" unicode="f" horiz-adv-x="397" 
d="M39 585h103v15q0 63 9 103.5t32.5 64t62.5 32.5t99 9h6v-54q-49 0 -79 -5.5t-46.5 -22t-22.5 -47.5t-6 -81v-14h154v-52h-154v-533h-55v533h-103v52z" />
    <glyph glyph-name="g" unicode="g" horiz-adv-x="747" 
d="M361 -12q-64 0 -119.5 24t-96 65.5t-63.5 96.5t-23 118t23 118.5t63.5 97t96 65.5t119.5 24q36 0 72.5 -9.5t69 -28.5t59.5 -46.5t44 -62.5v135h56v-573q0 -68 -20.5 -122.5t-59 -92.5t-92.5 -59t-120 -21q-54 0 -96 11t-75 31.5t-58.5 50t-46.5 67.5l55 25
q32 -62 84 -97.5t137 -35.5q54 0 98 17t74.5 48.5t47 76t16.5 99.5v124q-17 -35 -44 -62.5t-59.5 -46t-69 -28t-72.5 -9.5zM363 41q53 0 98 19.5t79 53.5t53 80t19 98t-19 98t-53 80t-79 54t-98 20q-51 0 -96 -19.5t-78.5 -54t-52.5 -80t-19 -98.5q0 -52 19 -98t52.5 -80
t78.5 -53.5t96 -19.5z" />
    <glyph glyph-name="h" unicode="h" horiz-adv-x="706" 
d="M86 740h55v-269q30 56 88 91t135 35q59 0 106.5 -18.5t82 -53.5t53 -84.5t18.5 -112.5v-328h-58v329q0 49 -14 88.5t-41 68t-65.5 44t-88.5 15.5q-46 0 -85.5 -16.5t-68.5 -46t-45.5 -69t-16.5 -85.5v-328h-55v740z" />
    <glyph glyph-name="i" unicode="i" horiz-adv-x="226" 
d="M85 585h57v-585h-57v585zM65 713q0 21 14 34.5t35 13.5q23 0 36 -13.5t13 -34.5t-13 -35t-36 -14t-36 14t-13 35z" />
    <glyph glyph-name="j" unicode="j" horiz-adv-x="226" 
d="M-70 -212q47 0 77.5 5t47.5 21.5t23.5 47t6.5 80.5v643h57v-644q0 -62 -10 -102t-33 -64t-62.5 -33.5t-97.5 -9.5h-9v56zM65 713q0 21 14 34.5t35 13.5q23 0 36 -13.5t13 -34.5t-13 -35t-36 -14t-36 14t-13 35z" />
    <glyph glyph-name="k" unicode="k" horiz-adv-x="607" 
d="M278 305l-136 -141v-164h-56v740h56v-509l340 354h73l-236 -245l251 -340h-67z" />
    <glyph glyph-name="l" unicode="l" horiz-adv-x="231" 
d="M86 740h58v-740h-58v740z" />
    <glyph glyph-name="m" unicode="m" horiz-adv-x="1155" 
d="M85 585h55v-112q28 56 83 90t130 34q88 0 145.5 -40t80.5 -106q26 64 87.5 105t145.5 41q61 0 109.5 -19t82 -53t51.5 -81.5t18 -105.5v-338h-57v342q0 44 -14.5 81.5t-41 64.5t-64.5 42t-85 15q-43 0 -81 -14t-66 -40.5t-44 -64t-16 -84.5v-342h-57v353q0 43 -14 78.5
t-39.5 60.5t-62 39t-82.5 14q-45 0 -83 -15.5t-65.5 -43.5t-43 -67.5t-15.5 -87.5v-331h-57v585z" />
    <glyph glyph-name="n" unicode="n" horiz-adv-x="707" 
d="M85 585h55v-119q29 58 88 94.5t137 36.5q59 0 106.5 -18.5t82 -53.5t53 -84.5t18.5 -112.5v-328h-57v329q0 49 -14.5 88.5t-41.5 67.5t-66 43.5t-88 15.5q-46 0 -85.5 -16.5t-68.5 -45.5t-45.5 -68.5t-16.5 -85.5v-328h-57v585z" />
    <glyph glyph-name="o" unicode="o" horiz-adv-x="726" 
d="M363 -12q-63 0 -118.5 23.5t-97 64.5t-65 96.5t-23.5 119.5t23.5 119.5t65 97t97 65t118.5 23.5t118.5 -23.5t96.5 -65t65 -97t24 -119.5t-24 -119.5t-65 -96.5t-96.5 -64.5t-118.5 -23.5zM363 41q51 0 96 19.5t78 53.5t52 80t19 98q0 53 -19 98.5t-52 80t-78 54
t-96 19.5q-52 0 -97 -19.5t-78 -54t-52 -80t-19 -98.5q0 -52 19 -98t52 -80t78 -53.5t97 -19.5z" />
    <glyph glyph-name="p" unicode="p" horiz-adv-x="745" 
d="M385 -12q-38 0 -74.5 9t-68.5 27t-58.5 44.5t-43.5 60.5v-398h-55v854h54v-134q17 35 44 62t60 46t69.5 28.5t72.5 9.5q64 0 119 -24t95.5 -65.5t63.5 -97t23 -118.5t-23 -118t-63.5 -96.5t-95.5 -65.5t-119 -24zM382 41q51 0 96 19.5t78.5 53.5t52.5 80t19 98
q0 53 -19 98.5t-52.5 80t-78.5 54t-96 19.5q-52 0 -97.5 -20t-79.5 -54t-53 -80t-19 -98t19 -98t53 -80t79.5 -53.5t97.5 -19.5z" />
    <glyph glyph-name="q" unicode="q" horiz-adv-x="746" 
d="M361 -12q-64 0 -119.5 24t-96 65.5t-63.5 96.5t-23 118t23 118.5t63.5 97t96 65.5t119.5 24q36 0 72.5 -9.5t69 -28.5t59.5 -46.5t44 -62.5v135h55v-854h-56v399q-17 -35 -43.5 -61.5t-58.5 -44.5t-68 -27t-74 -9zM363 41q53 0 98 19.5t79 53.5t53 80t19 98t-19 98
t-53 80t-79 54t-98 20q-51 0 -96 -19.5t-78.5 -54t-52.5 -80t-19 -98.5q0 -52 19 -98t52.5 -80t78.5 -53.5t96 -19.5z" />
    <glyph glyph-name="r" unicode="r" horiz-adv-x="458" 
d="M85 585h55v-104q23 53 67 81.5t106 28.5q39 0 66.5 -8.5t54.5 -24.5l-34 -50q-20 14 -40.5 22t-48.5 8q-78 0 -123.5 -51.5t-45.5 -143.5v-343h-57v585z" />
    <glyph glyph-name="s" unicode="s" horiz-adv-x="542" 
d="M267 -12q-75 0 -135 30.5t-95 78.5l45 36q29 -40 77.5 -67t108.5 -27q40 0 69.5 10t49.5 27t30 39.5t10 46.5q0 29 -14.5 47.5t-38.5 31t-54.5 21t-62.5 16.5q-36 9 -70.5 20t-61.5 28.5t-43.5 44.5t-16.5 67q0 32 14 61t40.5 51t63.5 35t83 13q63 0 116 -22.5t88 -62.5
l-43 -35q-30 34 -69 52t-92 18q-69 0 -106.5 -31t-37.5 -78q0 -27 14 -45t37 -30.5t52.5 -21t61.5 -16.5q36 -9 71.5 -20.5t63 -29.5t45 -45t17.5 -69q0 -31 -13 -62t-39.5 -56t-67.5 -40.5t-97 -15.5z" />
    <glyph glyph-name="t" unicode="t" horiz-adv-x="402" 
d="M36 585h104v136l55 36v-172h154v-52h-154v-323q0 -50 6.5 -81t23.5 -48t47 -22.5t77 -5.5v-53h-9q-60 0 -98.5 9t-61 32.5t-31.5 64t-9 103.5v324h-104v52z" />
    <glyph glyph-name="u" unicode="u" horiz-adv-x="707" 
d="M345 -12q-61 0 -110 18.5t-83 53.5t-52 84.5t-18 112.5v328h58v-329q0 -49 14 -88.5t41 -67.5t66 -43.5t88 -15.5q46 0 85.5 16.5t69 45.5t46 68.5t16.5 85.5v328h57v-585h-56v119q-29 -58 -87 -94.5t-135 -36.5z" />
    <glyph glyph-name="v" unicode="v" horiz-adv-x="600" 
d="M42 585h63l196 -508l196 508h61l-229 -585h-58z" />
    <glyph glyph-name="w" unicode="w" horiz-adv-x="979" 
d="M47 585h61l159 -501l199 501h49l193 -503l164 503h60l-194 -585h-54l-195 502l-200 -502h-54z" />
    <glyph glyph-name="x" unicode="x" horiz-adv-x="617" 
d="M273 301l-226 284h70l193 -245l190 245h71l-227 -284l238 -301h-71l-203 262l-201 -262h-72z" />
    <glyph glyph-name="y" unicode="y" horiz-adv-x="654" 
d="M305 33l-262 552h64l229 -487l214 487h62l-382 -855h-62z" />
    <glyph glyph-name="z" unicode="z" horiz-adv-x="628" 
d="M57 54l439 479h-424v52h495v-54l-437 -478h441v-53h-514v54z" />
    <glyph glyph-name="braceleft" unicode="{" horiz-adv-x="405" 
d="M352 -230q-63 0 -105 11t-67.5 36.5t-36.5 67t-11 102.5v128q0 29 -3 49.5t-12.5 33t-28 18t-50.5 5.5v55q32 0 50.5 6t28 18.5t12.5 33t3 49.5v130q0 61 11 102.5t36.5 67t67.5 36.5t105 11h11v-52q-53 0 -87 -7.5t-53.5 -26.5t-26.5 -51t-7 -81v-130q0 -54 -13.5 -86.5
t-50.5 -46.5q38 -14 51 -46.5t13 -86.5v-128q0 -49 7 -81t26.5 -51t53.5 -26.5t87 -7.5v-52h-11z" />
    <glyph glyph-name="bar" unicode="|" horiz-adv-x="190" 
d="M66 730h58v-960h-58v960z" />
    <glyph glyph-name="braceright" unicode="}" horiz-adv-x="405" 
d="M43 -177q53 0 87 7.5t53.5 26t26.5 50.5t7 81v128q0 54 12.5 86.5t50.5 46.5q-36 14 -49.5 46.5t-13.5 86.5v130q0 49 -7 81t-26.5 50.5t-53.5 26t-87 7.5v53h11q63 0 105 -11t67.5 -36.5t36.5 -67t11 -102.5v-130q0 -29 3 -49.5t12.5 -33t28.5 -18.5t50 -6v-55
q-31 0 -50 -5.5t-28.5 -18t-12.5 -33t-3 -49.5v-128q0 -61 -11 -102.5t-36.5 -67t-67.5 -36.5t-105 -11h-11v53z" />
    <glyph glyph-name="asciitilde" unicode="~" horiz-adv-x="455" 
d="M67 558q2 46 27 73.5t64 27.5q26 0 43.5 -8t34.5 -19l31.5 -18.5t33.5 -9.5q40 0 46 50h46q-2 -46 -25.5 -73.5t-65.5 -27.5q-29 0 -49.5 11t-38.5 22q-14 8 -27 14.5t-29 6.5q-37 0 -43 -49h-48z" />
    <glyph glyph-name="exclamdown" unicode="&#xa1;" horiz-adv-x="242" 
d="M138 348q2 -32 4.5 -80t4.5 -102.5t3 -111.5t1 -107v-177h-58v177q0 50 1 107t2.5 111.5t4 102.5t4.5 80h33zM172 461q0 -21 -14 -34.5t-35 -13.5q-23 0 -36 13.5t-13 34.5t13 35t36 14t36 -14t13 -35z" />
    <glyph glyph-name="cent" unicode="&#xa2;" 
d="M277 -8q-49 5 -90 25.5t-70.5 54t-46 78.5t-16.5 100q0 56 17 101t47 78.5t71 53.5t88 25v122h58v-122q71 -7 126 -47t78 -106l-52 -22q-22 62 -69.5 93.5t-110.5 31.5q-41 0 -76.5 -14.5t-62 -41.5t-41.5 -65.5t-15 -86.5t15 -86.5t41.5 -65.5t62.5 -41.5t78 -14.5
q66 0 113.5 34.5t67.5 94.5l53 -22q-25 -69 -79 -110t-129 -48v-121h-58v122z" />
    <glyph glyph-name="sterling" unicode="&#xa3;" 
d="M75 384h97q-23 36 -40.5 76t-17.5 93q0 41 14.5 75.5t40.5 59t61 38.5t76 14q72 0 120 -31t77 -80l-51 -30q-25 44 -60.5 66t-87.5 22q-28 0 -52 -10t-42 -27.5t-28 -42t-10 -54.5q0 -49 19 -89t44 -80h211v-47h-183q21 -37 36.5 -78t15.5 -92q0 -17 -2.5 -33.5
t-7.5 -31.5q28 -23 54 -41t55 -18t40 15.5t11 44.5v66h58v-65q0 -64 -29.5 -89t-81.5 -25q-36 0 -68 20t-62 46q-20 -29 -50 -47.5t-72 -18.5q-54 0 -83 26.5t-29 68.5q0 41 27.5 67t73.5 26q34 0 62 -13t53 -31q1 8 1.5 15t0.5 15q0 54 -19 94.5t-44 78.5h-128v47zM159 36
q32 0 54 13t35 36q-23 19 -47 32.5t-49 13.5t-39 -14t-14 -34q0 -23 16.5 -35t43.5 -12z" />
    <glyph glyph-name="currency" unicode="&#xa4;" horiz-adv-x="773" 
d="M391 102q-47 0 -88.5 15t-75.5 42l-93 -97l-35 35l93 97q-29 34 -44.5 76.5t-15.5 91.5q0 48 15.5 91t44.5 77l-93 97l34 35l94 -98q33 27 74.5 42.5t89.5 15.5q46 0 87.5 -15t74.5 -42l88 92l34 -35l-87 -90q29 -35 46 -78t17 -92q0 -50 -17 -93.5t-47 -77.5l87 -89
l-35 -35l-88 90q-33 -26 -73.5 -40.5t-86.5 -14.5zM391 154q42 0 79 16.5t64.5 44.5t43 66t15.5 81t-15.5 81t-43 66t-64.5 44.5t-79 16.5t-79 -16.5t-64 -44.5t-42.5 -66t-15.5 -81t15.5 -81t42.5 -66t64 -44.5t79 -16.5z" />
    <glyph glyph-name="yen" unicode="&#xa5;" 
d="M97 386h171v6l-216 338h65l179 -282l179 282h64l-214 -337v-7h169v-48h-169v-120h169v-48h-169v-170h-57v170h-171v48h171v120h-171v48z" />
    <glyph glyph-name="brokenbar" unicode="&#xa6;" horiz-adv-x="217" 
d="M66 730h58v-420h-58v420zM66 190h58v-420h-58v420z" />
    <glyph glyph-name="section" unicode="&#xa7;" horiz-adv-x="606" 
d="M302 -10q-55 0 -96.5 13.5t-69.5 35.5t-42.5 50t-17.5 58l58 13q2 -25 12.5 -47.5t31.5 -39t52.5 -26.5t73.5 -10q26 0 53 5.5t48.5 17.5t35 31t13.5 46q0 24 -13 40t-37 26.5t-57 18t-72 15.5q-49 11 -89 22.5t-68 28t-43 38.5t-15 53q0 39 25 71.5t70 46.5
q-28 17 -43 39.5t-15 56.5q0 35 15 62.5t41 46.5t62.5 28.5t78.5 9.5q53 0 91.5 -12.5t64.5 -33.5t40 -48t17 -56l-56 -11q-4 50 -40 82.5t-118 32.5q-27 0 -52.5 -5.5t-45.5 -17t-32 -30.5t-12 -46q0 -24 13 -39.5t36.5 -26.5t56 -19t71.5 -16q49 -10 88.5 -22t67 -28
t42.5 -38t15 -53q0 -37 -25 -69.5t-68 -47.5q29 -16 44.5 -39t15.5 -58t-16 -62.5t-44 -47t-65.5 -29.5t-80.5 -10zM305 281q26 -5 49.5 -10.5t43.5 -12.5q45 12 66.5 37t21.5 54q0 22 -15.5 37.5t-41 27t-59.5 20t-72 16.5q-26 5 -49.5 11t-43.5 13q-43 -6 -67 -31.5
t-23 -56.5q0 -24 15.5 -40.5t41.5 -28.5t60.5 -20t72.5 -16z" />
    <glyph glyph-name="dieresis" unicode="&#xa8;" horiz-adv-x="506" 
d="M119 650q0 19 12.5 31t31.5 12q20 0 31.5 -12t11.5 -31t-11.5 -31.5t-31.5 -12.5t-32 12.5t-12 31.5zM287 650q0 19 12.5 31t31.5 12q20 0 31.5 -12t11.5 -31t-11.5 -31.5t-31.5 -12.5t-32 12.5t-12 31.5z" />
    <glyph glyph-name="copyright" unicode="&#xa9;" horiz-adv-x="858" 
d="M429 -10q-78 0 -146 29.5t-119 80.5t-80.5 119t-29.5 146t29.5 146t80.5 119t119 80.5t146 29.5t146 -29.5t119 -80.5t80.5 -119t29.5 -146t-29.5 -146t-80.5 -119t-119 -80.5t-146 -29.5zM429 41q68 0 126 25.5t101 69.5t67.5 103t24.5 126t-24.5 126t-67.5 103
t-101 69.5t-126 25.5q-67 0 -125.5 -25.5t-101.5 -69.5t-67.5 -103t-24.5 -126t24.5 -126t67.5 -103t101.5 -69.5t125.5 -25.5zM433 167q-42 0 -78.5 15.5t-63 42.5t-42 63t-15.5 77t15.5 77t42.5 63t63 42.5t78 15.5q55 0 100.5 -27t70.5 -69l-49 -31q-17 32 -49 52.5
t-74 20.5q-29 0 -55 -11.5t-45.5 -31t-31 -45.5t-11.5 -56t11.5 -56.5t31 -46t45.5 -31t55 -11.5q44 0 77 22t49 57l50 -28q-24 -46 -71 -75t-104 -29z" />
    <glyph glyph-name="ordfeminine" unicode="&#xaa;" horiz-adv-x="418" 
d="M205 435q-27 0 -53 10.5t-46.5 30t-33 47.5t-12.5 62q0 35 12.5 63t33.5 47.5t47 30t53 10.5q35 0 64.5 -14.5t47.5 -39.5v48h44v-289h-44v48q-18 -25 -47.5 -39.5t-65.5 -14.5zM213 476q23 0 42.5 9t33.5 24t22 35t8 42q0 23 -8 42.5t-22 34.5t-33.5 23.5t-42.5 8.5
t-42.5 -8.5t-34 -23t-23 -34.5t-8.5 -43t8.5 -43t23 -35t34 -23.5t42.5 -8.5z" />
    <glyph glyph-name="guillemotleft" unicode="&#xab;" horiz-adv-x="451" 
d="M67 232v36l155 117v-45l-119 -91l119 -90v-44zM229 232v36l154 117v-45l-118 -91l118 -90v-44z" />
    <glyph glyph-name="logicalnot" unicode="&#xac;" horiz-adv-x="603" 
d="M505 456h-471v55h529v-310h-58v255z" />
    <glyph glyph-name="uni00AD" unicode="&#xad;" horiz-adv-x="475" 
d="M53 277h370v-51h-370v51z" />
    <glyph glyph-name="registered" unicode="&#xae;" horiz-adv-x="858" 
d="M429 -125q-78 0 -146 29.5t-119 80.5t-80.5 119t-29.5 146t29.5 146t80.5 119t119 80.5t146 29.5t146 -29.5t119 -80.5t80.5 -119t29.5 -146t-29.5 -146t-80.5 -119t-119 -80.5t-146 -29.5zM429 -74q68 0 126 25.5t101 69.5t67.5 103t24.5 126t-24.5 126t-67.5 103
t-101 69.5t-126 25.5q-67 0 -125.5 -25.5t-101.5 -69.5t-67.5 -103t-24.5 -126t24.5 -126t67.5 -103t101.5 -69.5t125.5 -25.5zM299 443h148q32 0 57.5 -9.5t43.5 -25.5t27.5 -38t9.5 -46q0 -43 -23 -77t-67 -45l90 -133h-64l-109 169h27q39 0 64.5 23t25.5 61
q0 37 -26 55.5t-62 18.5h-88v-327h-54v374z" />
    <glyph glyph-name="macron" unicode="&#xaf;" horiz-adv-x="502" 
d="M120 615h264v-50h-264v50z" />
    <glyph glyph-name="degree" unicode="&#xb0;" horiz-adv-x="433" 
d="M217 517q-23 0 -43.5 9t-35.5 24t-24 35.5t-9 43.5t9 43t24 35t35.5 24t43.5 9t43.5 -9t35.5 -24t23.5 -35t8.5 -43t-8.5 -43.5t-23.5 -35.5t-35.5 -24t-43.5 -9zM217 565q26 0 44.5 18.5t18.5 44.5t-18.5 44.5t-44.5 18.5t-44.5 -18.5t-18.5 -44.5t18.5 -44.5
t44.5 -18.5z" />
    <glyph glyph-name="plusminus" unicode="&#xb1;" horiz-adv-x="475" 
d="M53 487h160v160h50v-160h160v-50h-160v-160h-50v160h-160v50zM53 181h370v-50h-370v50z" />
    <glyph glyph-name="twosuperior" unicode="&#xb2;" horiz-adv-x="344" 
d="M39 358q0 26 10.5 47.5t27.5 40t38 34.5l42 31l36.5 25.5t31 25.5t21.5 27.5t8 30.5q0 30 -22 50t-60 20q-33 0 -56 -18t-37 -47l-45 23q19 40 54 64t84 24q63 0 99 -33.5t36 -82.5q0 -25 -10 -45.5t-26 -38t-36 -32.5t-41 -29l-37.5 -26t-32.5 -27.5t-23 -30t-9 -33.5
h216v-50h-269v50z" />
    <glyph glyph-name="threesuperior" unicode="&#xb3;" horiz-adv-x="329" 
d="M158 302q-41 0 -75 14t-58 43l44 34q32 -43 89 -43q38 0 62.5 21t24.5 55q0 36 -26 56t-66 20h-42v48h42q41 0 63 20t22 52q0 31 -22.5 49.5t-59.5 18.5q-29 0 -50 -12.5t-33 -31.5l-44 25q18 28 51 46.5t76 18.5q61 0 96.5 -31t35.5 -83q0 -32 -15 -56t-42 -39
q30 -14 48 -39.5t18 -61.5q0 -54 -36.5 -89t-102.5 -35z" />
    <glyph glyph-name="acute" unicode="&#xb4;" horiz-adv-x="502" 
d="M266 720h75l-140 -155h-54z" />
    <glyph glyph-name="mu" unicode="&#xb5;" horiz-adv-x="604" 
d="M71 500h58v-276q0 -41 13 -74.5t35.5 -57.5t54 -37t68.5 -13q38 0 70.5 13.5t56 37.5t37 57t13.5 71v279h57v-500h-56v93q-26 -46 -73.5 -74.5t-110.5 -28.5q-55 0 -97.5 24t-68.5 59v-303h-57v730z" />
    <glyph glyph-name="mu" unicode="&#x3bc;" horiz-adv-x="604" 
d="M71 500h58v-276q0 -41 13 -74.5t35.5 -57.5t54 -37t68.5 -13q38 0 70.5 13.5t56 37.5t37 57t13.5 71v279h57v-500h-56v93q-26 -46 -73.5 -74.5t-110.5 -28.5q-55 0 -97.5 24t-68.5 59v-303h-57v730z" />
    <glyph glyph-name="paragraph" unicode="&#xb6;" horiz-adv-x="575" 
d="M346 302h-91q-46 0 -86 16.5t-69 45.5t-45.5 68t-16.5 84t16.5 84t45.5 68t68.5 45.5t85.5 16.5h255v-730h-52v678h-60v-678h-51v302z" />
    <glyph glyph-name="periodcentered" unicode="&#xb7;" horiz-adv-x="191" 
d="M66 318h58v-137h-58v137z" />
    <glyph glyph-name="cedilla" unicode="&#xb8;" horiz-adv-x="502" 
d="M248 -227q-47 0 -80.5 15t-58.5 38l46 28q20 -17 40 -27.5t53 -10.5q35 0 57.5 14t22.5 36q0 20 -21.5 32t-61.5 12h-33v90h49v-53q54 -1 87.5 -22.5t33.5 -56.5q0 -21 -10.5 -38.5t-28.5 -30t-42.5 -19.5t-52.5 -7z" />
    <glyph glyph-name="onesuperior" unicode="&#xb9;" horiz-adv-x="286" 
d="M37 357h84v285q-9 -15 -29.5 -25.5t-40.5 -10.5h-6v55h3q21 0 35 6.5t22.5 16.5t12.5 22.5t4 23.5h51v-373h81v-49h-217v49z" />
    <glyph glyph-name="ordmasculine" unicode="&#xba;" horiz-adv-x="421" 
d="M210 435q-31 0 -58.5 12t-47.5 32t-32 47.5t-12 58.5q0 32 12 59.5t32 47.5t47.5 32t58.5 12q32 0 59.5 -12t47.5 -32t32 -47.5t12 -59.5q0 -31 -12 -58.5t-32 -47.5t-47.5 -32t-59.5 -12zM210 478q23 0 42 8.5t33.5 23t22.5 34t8 41.5q0 23 -8 42.5t-22.5 34t-33.5 23
t-42 8.5q-22 0 -41 -8.5t-33 -23t-22.5 -34t-8.5 -42.5q0 -22 8.5 -41.5t22.5 -34t33 -23t41 -8.5z" />
    <glyph glyph-name="guillemotright" unicode="&#xbb;" horiz-adv-x="451" 
d="M67 160l119 90l-119 90v45l155 -117v-35l-155 -117v44zM229 160l119 90l-119 90v45l154 -117v-35l-154 -117v44z" />
    <glyph glyph-name="onequarter" unicode="&#xbc;" horiz-adv-x="781" 
d="M627 97h-195v48l193 277h54v-277h61v-48h-61v-97h-52v97zM632 730h68l-527 -730h-68zM37 357h84v285q-9 -15 -29.5 -25.5t-40.5 -10.5h-6v55h3q21 0 35 6.5t22.5 16.5t12.5 22.5t4 23.5h51v-373h81v-49h-217v49zM627 145v196l-138 -196h138z" />
    <glyph glyph-name="onehalf" unicode="&#xbd;" horiz-adv-x="831" 
d="M632 730h68l-527 -730h-68zM523 50q0 26 10.5 47.5t27.5 40t38 34.5l42 31l36.5 25.5t31 25.5t21.5 27.5t8 30.5q0 30 -22 50t-60 20q-33 0 -56 -18t-37 -47l-45 23q19 40 54 64t84 24q63 0 99 -33.5t36 -82.5q0 -25 -10 -45.5t-26 -38t-36 -32.5t-41 -29l-37.5 -26
t-32.5 -27.5t-23 -30t-9 -33.5h216v-50h-269v50zM37 357h84v285q-9 -15 -29.5 -25.5t-40.5 -10.5h-6v55h3q21 0 35 6.5t22.5 16.5t12.5 22.5t4 23.5h51v-373h81v-49h-217v49z" />
    <glyph glyph-name="threequarters" unicode="&#xbe;" horiz-adv-x="811" 
d="M658 97h-195v48l193 277h54v-277h61v-48h-61v-97h-52v97zM663 730h68l-527 -730h-68zM158 302q-41 0 -75 14t-58 43l44 34q32 -43 89 -43q38 0 62.5 21t24.5 55q0 36 -26 56t-66 20h-42v48h42q41 0 63 20t22 52q0 31 -22.5 49.5t-59.5 18.5q-29 0 -50 -12.5t-33 -31.5
l-44 25q18 28 51 46.5t76 18.5q61 0 96.5 -31t35.5 -83q0 -32 -15 -56t-42 -39q30 -14 48 -39.5t18 -61.5q0 -54 -36.5 -89t-102.5 -35zM658 145v196l-138 -196h138z" />
    <glyph glyph-name="questiondown" unicode="&#xbf;" horiz-adv-x="539" 
d="M267 -240q-45 0 -83.5 12.5t-67 36t-44.5 56t-16 72.5q0 47 14.5 76.5t37 50.5t48 39.5t48 43t37 61t14.5 93.5v38h53v-38q0 -63 -14.5 -104t-36 -68.5t-46.5 -46.5t-46.5 -38.5t-36 -44t-14.5 -63.5q0 -28 12 -51t32.5 -39.5t48.5 -25.5t60 -9q63 0 101 26.5t62 70.5
l51 -24q-26 -52 -80.5 -88t-133.5 -36zM231 462q0 21 14 34.5t35 13.5q23 0 36 -13.5t13 -34.5t-13 -35t-36 -14t-36 14t-13 35z" />
    <glyph glyph-name="Agrave" unicode="&#xc0;" horiz-adv-x="698" 
d="M318 730h62l281 -730h-61l-79 204h-345l-78 -204h-61zM197 259h303l-151 394zM178 950h74l120 -155h-54z" />
    <glyph glyph-name="Aacute" unicode="&#xc1;" horiz-adv-x="698" 
d="M318 730h62l281 -730h-61l-79 204h-345l-78 -204h-61zM197 259h303l-151 394zM434 950h75l-140 -155h-54z" />
    <glyph glyph-name="Acircumflex" unicode="&#xc2;" horiz-adv-x="698" 
d="M318 730h62l281 -730h-61l-79 204h-345l-78 -204h-61zM197 259h303l-151 394zM319 950h49l119 -155h-61l-83 110l-83 -110h-60z" />
    <glyph glyph-name="Atilde" unicode="&#xc3;" horiz-adv-x="698" 
d="M318 730h62l281 -730h-61l-79 204h-345l-78 -204h-61zM197 259h303l-151 394zM170 795q0 50 26 79t67 29q25 0 45.5 -9t40.5 -21l36.5 -21t35.5 -10q23 0 36.5 14t13.5 44h46q0 -51 -24.5 -80t-70.5 -29q-29 0 -51.5 11.5t-42.5 23.5l-32 18.5t-33 8.5q-20 0 -33 -14.5
t-13 -43.5h-47z" />
    <glyph glyph-name="Adieresis" unicode="&#xc4;" horiz-adv-x="698" 
d="M318 730h62l281 -730h-61l-79 204h-345l-78 -204h-61zM197 259h303l-151 394zM219 880q0 19 12.5 31t31.5 12q20 0 31.5 -12t11.5 -31t-11.5 -31.5t-31.5 -12.5t-32 12.5t-12 31.5zM387 880q0 19 12.5 31t31.5 12q20 0 31.5 -12t11.5 -31t-11.5 -31.5t-31.5 -12.5
t-32 12.5t-12 31.5z" />
    <glyph glyph-name="Aring" unicode="&#xc5;" horiz-adv-x="698" 
d="M305 697q-26 11 -42.5 35.5t-16.5 55.5q0 42 28.5 71t69.5 29q43 0 72 -29t29 -71q0 -29 -15 -52t-39 -36l270 -700h-61l-79 204h-345l-78 -204h-61zM197 259h303l-151 394zM344 734q23 0 39.5 15.5t16.5 38.5t-16.5 39t-39.5 16q-22 0 -38 -16t-16 -39t16 -38.5
t38 -15.5z" />
    <glyph glyph-name="AE" unicode="&#xc6;" horiz-adv-x="1037" 
d="M401 730h561v-55h-485l63 -282h422v-54h-410l63 -284h347v-55h-393l-45 199h-327l-100 -199h-66zM224 252h288l-88 395z" />
    <glyph glyph-name="Ccedilla" unicode="&#xc7;" horiz-adv-x="796" 
d="M430 -227q-47 0 -80.5 15t-58.5 38l46 28q20 -17 40 -27.5t53 -10.5q35 0 57.5 14t22.5 36q0 20 -21.5 32t-61.5 12h-33v82q-72 6 -134 37.5t-108 81.5t-72.5 115.5t-26.5 138.5q0 78 29.5 146t80.5 119t119 80.5t146 29.5q51 0 98.5 -13.5t89 -37.5t75.5 -58t59 -75
l-50 -29q-41 71 -112 115t-160 44q-67 0 -124.5 -25.5t-100 -69t-67 -102t-24.5 -124.5t24.5 -124t67 -101.5t100 -69t124.5 -25.5q97 0 169.5 46.5t111.5 121.5l51 -26q-47 -86 -129 -139.5t-188 -57.5v-43q54 -1 87.5 -22.5t33.5 -56.5q0 -21 -10.5 -38.5t-28.5 -30
t-42.5 -19.5t-52.5 -7z" />
    <glyph glyph-name="Egrave" unicode="&#xc8;" horiz-adv-x="587" 
d="M75 730h447v-55h-389v-282h389v-54h-389v-284h389v-55h-447v730zM140 950h74l120 -155h-54z" />
    <glyph glyph-name="Eacute" unicode="&#xc9;" horiz-adv-x="587" 
d="M75 730h447v-55h-389v-282h389v-54h-389v-284h389v-55h-447v730zM372 950h75l-140 -155h-54z" />
    <glyph glyph-name="Ecircumflex" unicode="&#xca;" horiz-adv-x="587" 
d="M75 730h447v-55h-389v-282h389v-54h-389v-284h389v-55h-447v730zM270 950h49l119 -155h-61l-83 110l-83 -110h-60z" />
    <glyph glyph-name="Edieresis" unicode="&#xcb;" horiz-adv-x="587" 
d="M75 730h447v-55h-389v-282h389v-54h-389v-284h389v-55h-447v730zM338 880q0 19 12.5 31t31.5 12q20 0 31.5 -12t11.5 -31t-11.5 -31.5t-31.5 -12.5t-32 12.5t-12 31.5zM170 880q0 19 12.5 31t31.5 12q20 0 31.5 -12t11.5 -31t-11.5 -31.5t-31.5 -12.5t-32 12.5t-12 31.5z
" />
    <glyph glyph-name="Igrave" unicode="&#xcc;" horiz-adv-x="227" 
d="M85 730h57v-730h-57v730zM-53 950h74l120 -155h-54z" />
    <glyph glyph-name="Iacute" unicode="&#xcd;" horiz-adv-x="227" 
d="M85 730h57v-730h-57v730zM202 950h75l-140 -155h-54z" />
    <glyph glyph-name="Icircumflex" unicode="&#xce;" horiz-adv-x="227" 
d="M85 730h57v-730h-57v730zM88 950h49l119 -155h-61l-83 110l-83 -110h-60z" />
    <glyph glyph-name="Idieresis" unicode="&#xcf;" horiz-adv-x="227" 
d="M185 939h56v-139h-56v139zM-15 939h56v-139h-56v139zM85 730h57v-730h-57v730z" />
    <glyph glyph-name="Eth" unicode="&#xd0;" horiz-adv-x="731" 
d="M22 397h75v333h203q83 0 152.5 -28t120 -77t78.5 -115.5t28 -144.5t-29 -145t-79.5 -115.5t-119.5 -76.5t-149 -28h-205v341h-75v56zM155 677v-280h231v-56h-231v-287h142q69 0 128.5 23.5t103 65.5t68 99t24.5 123t-24 123t-67.5 99t-103 66t-131.5 24h-140z" />
    <glyph glyph-name="Ntilde" unicode="&#xd1;" horiz-adv-x="742" 
d="M75 730h64l470 -640v640h58v-730h-62l-472 643v-643h-58v730zM197 795q0 50 26 79t67 29q25 0 45.5 -9t40.5 -21l36.5 -21t35.5 -10q23 0 36.5 14t13.5 44h46q0 -51 -24.5 -80t-70.5 -29q-29 0 -51.5 11.5t-42.5 23.5l-32 18.5t-33 8.5q-20 0 -33 -14.5t-13 -43.5h-47z
" />
    <glyph glyph-name="Ograve" unicode="&#xd2;" horiz-adv-x="855" 
d="M428 -10q-78 0 -146 29.5t-119 80.5t-80.5 119t-29.5 146t29.5 146t80.5 119t119 80.5t146 29.5t146 -29.5t119 -80.5t80.5 -119t29.5 -146t-29.5 -146t-80.5 -119t-119 -80.5t-146 -29.5zM428 45q67 0 124.5 25.5t100 69t66.5 101.5t24 124t-24 124.5t-66.5 102
t-100 68.5t-124.5 25t-124.5 -25t-100 -68.5t-67 -102t-24.5 -124.5t24.5 -124t67 -101.5t100 -69t124.5 -25.5zM258 950h74l120 -155h-54z" />
    <glyph glyph-name="Oacute" unicode="&#xd3;" horiz-adv-x="855" 
d="M510 950h75l-140 -155h-54zM428 -10q-78 0 -146 29.5t-119 80.5t-80.5 119t-29.5 146t29.5 146t80.5 119t119 80.5t146 29.5t146 -29.5t119 -80.5t80.5 -119t29.5 -146t-29.5 -146t-80.5 -119t-119 -80.5t-146 -29.5zM428 45q67 0 124.5 25.5t100 69t66.5 101.5t24 124
t-24 124.5t-66.5 102t-100 68.5t-124.5 25t-124.5 -25t-100 -68.5t-67 -102t-24.5 -124.5t24.5 -124t67 -101.5t100 -69t124.5 -25.5z" />
    <glyph glyph-name="Ocircumflex" unicode="&#xd4;" horiz-adv-x="855" 
d="M428 -10q-78 0 -146 29.5t-119 80.5t-80.5 119t-29.5 146t29.5 146t80.5 119t119 80.5t146 29.5t146 -29.5t119 -80.5t80.5 -119t29.5 -146t-29.5 -146t-80.5 -119t-119 -80.5t-146 -29.5zM428 45q67 0 124.5 25.5t100 69t66.5 101.5t24 124t-24 124.5t-66.5 102
t-100 68.5t-124.5 25t-124.5 -25t-100 -68.5t-67 -102t-24.5 -124.5t24.5 -124t67 -101.5t100 -69t124.5 -25.5zM399 950h49l119 -155h-61l-83 110l-83 -110h-60z" />
    <glyph glyph-name="Otilde" unicode="&#xd5;" horiz-adv-x="855" 
d="M428 -10q-78 0 -146 29.5t-119 80.5t-80.5 119t-29.5 146t29.5 146t80.5 119t119 80.5t146 29.5t146 -29.5t119 -80.5t80.5 -119t29.5 -146t-29.5 -146t-80.5 -119t-119 -80.5t-146 -29.5zM428 45q67 0 124.5 25.5t100 69t66.5 101.5t24 124t-24 124.5t-66.5 102
t-100 68.5t-124.5 25t-124.5 -25t-100 -68.5t-67 -102t-24.5 -124.5t24.5 -124t67 -101.5t100 -69t124.5 -25.5zM248 795q0 50 26 79t67 29q25 0 45.5 -9t40.5 -21l36.5 -21t35.5 -10q23 0 36.5 14t13.5 44h46q0 -51 -24.5 -80t-70.5 -29q-29 0 -51.5 11.5t-42.5 23.5
l-32 18.5t-33 8.5q-20 0 -33 -14.5t-13 -43.5h-47z" />
    <glyph glyph-name="Odieresis" unicode="&#xd6;" horiz-adv-x="855" 
d="M298 880q0 19 12.5 31t31.5 12q20 0 31.5 -12t11.5 -31t-11.5 -31.5t-31.5 -12.5t-32 12.5t-12 31.5zM466 880q0 19 12.5 31t31.5 12q20 0 31.5 -12t11.5 -31t-11.5 -31.5t-31.5 -12.5t-32 12.5t-12 31.5zM428 -10q-78 0 -146 29.5t-119 80.5t-80.5 119t-29.5 146
t29.5 146t80.5 119t119 80.5t146 29.5t146 -29.5t119 -80.5t80.5 -119t29.5 -146t-29.5 -146t-80.5 -119t-119 -80.5t-146 -29.5zM428 45q67 0 124.5 25.5t100 69t66.5 101.5t24 124t-24 124.5t-66.5 102t-100 68.5t-124.5 25t-124.5 -25t-100 -68.5t-67 -102t-24.5 -124.5
t24.5 -124t67 -101.5t100 -69t124.5 -25.5z" />
    <glyph glyph-name="multiply" unicode="&#xd7;" horiz-adv-x="475" 
d="M76 236l128 128l-128 129l34 34l128 -129l128 128l34 -34l-128 -128l128 -127l-34 -34l-128 127l-128 -128z" />
    <glyph glyph-name="Oslash" unicode="&#xd8;" horiz-adv-x="855" 
d="M182 82q-60 52 -94.5 125t-34.5 158q0 78 29.5 146t80.5 119t119 80.5t146 29.5q57 0 108 -15.5t95 -44.5l38 50h68l-63 -83q60 -52 94.5 -124.5t34.5 -157.5q0 -78 -29.5 -146t-80.5 -119t-119 -80.5t-146 -29.5q-57 0 -108 15t-95 44l-37 -49h-68zM112 365
q0 -71 27.5 -132.5t75.5 -105.5l383 508q-37 24 -79.5 37t-90.5 13q-67 0 -124.5 -25t-100 -68.5t-67 -102t-24.5 -124.5zM428 45q67 0 124.5 25.5t100 69t66.5 101.5t24 124q0 71 -27.5 131.5t-75.5 105.5l-382 -508q37 -23 79.5 -36t90.5 -13z" />
    <glyph glyph-name="Ugrave" unicode="&#xd9;" horiz-adv-x="641" 
d="M320 -10q-53 0 -98.5 19t-78.5 52.5t-52 79t-19 97.5v492h58v-495q0 -39 14.5 -74t40 -60.5t60.5 -40.5t75 -15t75 15t60.5 41t40.5 60.5t15 74.5v494h58v-492q0 -52 -19 -97.5t-52.5 -79t-79 -52.5t-98.5 -19zM157 950h74l120 -155h-54z" />
    <glyph glyph-name="Uacute" unicode="&#xda;" horiz-adv-x="641" 
d="M399 950h75l-140 -155h-54zM320 -10q-53 0 -98.5 19t-78.5 52.5t-52 79t-19 97.5v492h58v-495q0 -39 14.5 -74t40 -60.5t60.5 -40.5t75 -15t75 15t60.5 41t40.5 60.5t15 74.5v494h58v-492q0 -52 -19 -97.5t-52.5 -79t-79 -52.5t-98.5 -19z" />
    <glyph glyph-name="Ucircumflex" unicode="&#xdb;" horiz-adv-x="641" 
d="M320 -10q-53 0 -98.5 19t-78.5 52.5t-52 79t-19 97.5v492h58v-495q0 -39 14.5 -74t40 -60.5t60.5 -40.5t75 -15t75 15t60.5 41t40.5 60.5t15 74.5v494h58v-492q0 -52 -19 -97.5t-52.5 -79t-79 -52.5t-98.5 -19zM293 950h49l119 -155h-61l-83 110l-83 -110h-60z" />
    <glyph glyph-name="Udieresis" unicode="&#xdc;" horiz-adv-x="641" 
d="M192 880q0 19 12.5 31t31.5 12q20 0 31.5 -12t11.5 -31t-11.5 -31.5t-31.5 -12.5t-32 12.5t-12 31.5zM360 880q0 19 12.5 31t31.5 12q20 0 31.5 -12t11.5 -31t-11.5 -31.5t-31.5 -12.5t-32 12.5t-12 31.5zM320 -10q-53 0 -98.5 19t-78.5 52.5t-52 79t-19 97.5v492h58
v-495q0 -39 14.5 -74t40 -60.5t60.5 -40.5t75 -15t75 15t60.5 41t40.5 60.5t15 74.5v494h58v-492q0 -52 -19 -97.5t-52.5 -79t-79 -52.5t-98.5 -19z" />
    <glyph glyph-name="Yacute" unicode="&#xdd;" horiz-adv-x="612" 
d="M278 347l-245 383h65l208 -328l208 328h65l-243 -381v-349h-58v347zM391 950h75l-140 -155h-54z" />
    <glyph glyph-name="Thorn" unicode="&#xde;" horiz-adv-x="571" 
d="M73 730h58v-153h157q51 0 93 -15t71.5 -42t45.5 -64.5t16 -82.5t-16 -82.5t-45.5 -64.5t-71 -42.5t-93.5 -15.5h-157v-168h-58v730zM131 523v-302h153q80 0 125.5 42.5t45.5 109.5q0 66 -45.5 108t-125.5 42h-153z" />
    <glyph glyph-name="germandbls" unicode="&#xdf;" horiz-adv-x="642" 
d="M-60 -214q83 0 114 40t31 120v690q0 50 16 91.5t46 71.5t71.5 47t91.5 17q49 0 90.5 -17t71.5 -46.5t47 -69.5t17 -87q0 -65 -32.5 -114.5t-87.5 -74.5q76 -24 121.5 -81.5t45.5 -138.5q0 -52 -17.5 -96t-49 -76.5t-75.5 -51t-98 -18.5q-74 0 -122 28l5 54
q47 -29 117 -29q38 0 71 15t57.5 40.5t39 60t14.5 73.5t-14.5 73t-41.5 59.5t-65 40t-84 14.5h-21v54h21q30 0 58.5 12.5t50.5 35t35.5 54t13.5 68.5q0 34 -12.5 64.5t-35 54t-53.5 37t-67 13.5q-35 0 -66 -12t-54 -34.5t-36.5 -54t-13.5 -70.5v-695q0 -111 -43.5 -163.5
t-146.5 -52.5h-10v54z" />
    <glyph glyph-name="agrave" unicode="&#xe0;" horiz-adv-x="747" 
d="M361 -12q-64 0 -119.5 24t-96 65.5t-63.5 96.5t-23 118t23 118.5t63.5 97t96 65.5t119.5 24q36 0 72.5 -9.5t69 -28.5t59.5 -46.5t44 -62.5v135h56v-585h-56v134q-17 -35 -44 -62.5t-59.5 -46t-69 -28t-72.5 -9.5zM363 41q53 0 98 19.5t79 53.5t53 80t19 98t-19 98
t-53 80t-79 54t-98 20q-51 0 -96 -19.5t-78.5 -54t-52.5 -80t-19 -98.5q0 -52 19 -98t52.5 -80t78.5 -53.5t96 -19.5zM204 815h74l120 -155h-54z" />
    <glyph glyph-name="aacute" unicode="&#xe1;" horiz-adv-x="747" 
d="M361 -12q-64 0 -119.5 24t-96 65.5t-63.5 96.5t-23 118t23 118.5t63.5 97t96 65.5t119.5 24q36 0 72.5 -9.5t69 -28.5t59.5 -46.5t44 -62.5v135h56v-585h-56v134q-17 -35 -44 -62.5t-59.5 -46t-69 -28t-72.5 -9.5zM363 41q53 0 98 19.5t79 53.5t53 80t19 98t-19 98
t-53 80t-79 54t-98 20q-51 0 -96 -19.5t-78.5 -54t-52.5 -80t-19 -98.5q0 -52 19 -98t52.5 -80t78.5 -53.5t96 -19.5zM443 815h75l-140 -155h-54z" />
    <glyph glyph-name="acircumflex" unicode="&#xe2;" horiz-adv-x="747" 
d="M361 -12q-64 0 -119.5 24t-96 65.5t-63.5 96.5t-23 118t23 118.5t63.5 97t96 65.5t119.5 24q36 0 72.5 -9.5t69 -28.5t59.5 -46.5t44 -62.5v135h56v-585h-56v134q-17 -35 -44 -62.5t-59.5 -46t-69 -28t-72.5 -9.5zM363 41q53 0 98 19.5t79 53.5t53 80t19 98t-19 98
t-53 80t-79 54t-98 20q-51 0 -96 -19.5t-78.5 -54t-52.5 -80t-19 -98.5q0 -52 19 -98t52.5 -80t78.5 -53.5t96 -19.5zM335 809h49l119 -155h-61l-83 110l-83 -110h-60z" />
    <glyph glyph-name="atilde" unicode="&#xe3;" horiz-adv-x="747" 
d="M361 -12q-64 0 -119.5 24t-96 65.5t-63.5 96.5t-23 118t23 118.5t63.5 97t96 65.5t119.5 24q36 0 72.5 -9.5t69 -28.5t59.5 -46.5t44 -62.5v135h56v-585h-56v134q-17 -35 -44 -62.5t-59.5 -46t-69 -28t-72.5 -9.5zM363 41q53 0 98 19.5t79 53.5t53 80t19 98t-19 98
t-53 80t-79 54t-98 20q-51 0 -96 -19.5t-78.5 -54t-52.5 -80t-19 -98.5q0 -52 19 -98t52.5 -80t78.5 -53.5t96 -19.5zM195 660q0 50 26 79t67 29q25 0 45.5 -9t40.5 -21l36.5 -21t35.5 -10q23 0 36.5 14t13.5 44h46q0 -51 -24.5 -80t-70.5 -29q-29 0 -51.5 11.5t-42.5 23.5
l-32 18.5t-33 8.5q-20 0 -33 -14.5t-13 -43.5h-47z" />
    <glyph glyph-name="adieresis" unicode="&#xe4;" horiz-adv-x="747" 
d="M361 -12q-64 0 -119.5 24t-96 65.5t-63.5 96.5t-23 118t23 118.5t63.5 97t96 65.5t119.5 24q36 0 72.5 -9.5t69 -28.5t59.5 -46.5t44 -62.5v135h56v-585h-56v134q-17 -35 -44 -62.5t-59.5 -46t-69 -28t-72.5 -9.5zM363 41q53 0 98 19.5t79 53.5t53 80t19 98t-19 98
t-53 80t-79 54t-98 20q-51 0 -96 -19.5t-78.5 -54t-52.5 -80t-19 -98.5q0 -52 19 -98t52.5 -80t78.5 -53.5t96 -19.5zM232 700q0 19 12.5 31t31.5 12q20 0 31.5 -12t11.5 -31t-11.5 -31.5t-31.5 -12.5t-32 12.5t-12 31.5zM400 700q0 19 12.5 31t31.5 12q20 0 31.5 -12
t11.5 -31t-11.5 -31.5t-31.5 -12.5t-32 12.5t-12 31.5z" />
    <glyph glyph-name="aring" unicode="&#xe5;" horiz-adv-x="747" 
d="M361 -12q-64 0 -119.5 24t-96 65.5t-63.5 96.5t-23 118t23 118.5t63.5 97t96 65.5t119.5 24q36 0 72.5 -9.5t69 -28.5t59.5 -46.5t44 -62.5v135h56v-585h-56v134q-17 -35 -44 -62.5t-59.5 -46t-69 -28t-72.5 -9.5zM363 41q53 0 98 19.5t79 53.5t53 80t19 98t-19 98
t-53 80t-79 54t-98 20q-51 0 -96 -19.5t-78.5 -54t-52.5 -80t-19 -98.5q0 -52 19 -98t52.5 -80t78.5 -53.5t96 -19.5zM365 655q-41 0 -69.5 28.5t-28.5 70.5t28.5 71t69.5 29q43 0 72 -29t29 -71t-29 -70.5t-72 -28.5zM365 700q23 0 39.5 15.5t16.5 38.5t-16.5 39t-39.5 16
q-22 0 -38 -16t-16 -39t16 -38.5t38 -15.5z" />
    <glyph glyph-name="ae" unicode="&#xe6;" horiz-adv-x="1147" 
d="M789 -12q-91 0 -160.5 40t-107.5 107q-14 -26 -38 -52.5t-56.5 -47.5t-74 -34t-90.5 -13q-55 0 -93 12.5t-62 34t-35.5 50t-11.5 60.5q-1 43 16.5 73t47.5 50.5t70.5 33.5t85.5 22q40 9 78.5 16.5t68.5 19t48 29t18 44.5q0 51 -43.5 84t-132.5 33q-91 0 -141.5 -44
t-50.5 -114v-4h-54v2q0 47 17.5 85t49.5 65t77 42t101 15q94 0 150 -33t73 -90q41 57 104.5 90t141.5 33q64 0 119 -22t95.5 -62t63.5 -95t23 -120v-20h-549q2 -51 22 -94.5t53.5 -75.5t79 -50t97.5 -18q88 0 149.5 47t84.5 122l52 -23q-15 -45 -42 -81.5t-64 -62.5t-82 -40
t-98 -14zM785 545q-48 0 -90 -16.5t-74 -45.5t-53 -68t-28 -85h486q-5 48 -24.5 87.5t-51 68t-73.5 44t-92 15.5zM264 37q47 0 85 14.5t67 37t49 49.5t31 52q-15 47 -15 100q0 14 1 27t3 26q-20 -25 -65.5 -37t-117.5 -26q-40 -7 -73.5 -16.5t-58 -24.5t-38.5 -37.5
t-14 -55.5q0 -22 8 -42t25.5 -35t45.5 -23.5t67 -8.5z" />
    <glyph glyph-name="ccedilla" unicode="&#xe7;" horiz-adv-x="697" 
d="M359 -233q-47 0 -80.5 15t-58.5 38l46 28q20 -17 40 -27.5t53 -10.5q35 0 57.5 14t22.5 36q0 20 -21.5 32t-61.5 12h-33v87q-57 7 -105.5 33.5t-84 66.5t-55 91.5t-19.5 109.5q0 65 24 120.5t65 96.5t96.5 64.5t119.5 23.5q48 0 91 -13t79 -37t63.5 -57t43.5 -73l-53 -22
q-29 69 -87.5 109t-136.5 40q-52 0 -97.5 -19.5t-78.5 -54t-52 -80t-19 -98.5q0 -52 19 -98t52.5 -80t79 -53.5t98.5 -19.5q81 0 138.5 43t85.5 111l54 -23q-17 -40 -43.5 -73t-61 -57.5t-77 -38.5t-90.5 -15v-47q54 -1 87.5 -22.5t33.5 -56.5q0 -21 -10.5 -38.5t-28.5 -30
t-42.5 -19.5t-52.5 -7z" />
    <glyph glyph-name="egrave" unicode="&#xe8;" horiz-adv-x="722" 
d="M366 -12q-71 0 -128 23.5t-96.5 64t-61 95.5t-21.5 119q0 65 23 121t63.5 97t96.5 65t121 24q64 0 118.5 -22t94.5 -62t62.5 -94.5t22.5 -119.5v-26h-547q3 -50 22 -93t52 -74t78 -48.5t100 -17.5q85 0 143 41.5t87 114.5l51 -24q-39 -88 -108 -136t-173 -48zM363 545
q-49 0 -91 -17t-74.5 -46t-54 -69t-27.5 -87h487q-4 48 -23.5 88.5t-50.5 69.5t-73 45t-93 16zM212 815h74l120 -155h-54z" />
    <glyph glyph-name="eacute" unicode="&#xe9;" horiz-adv-x="722" 
d="M366 -12q-71 0 -128 23.5t-96.5 64t-61 95.5t-21.5 119q0 65 23 121t63.5 97t96.5 65t121 24q64 0 118.5 -22t94.5 -62t62.5 -94.5t22.5 -119.5v-26h-547q3 -50 22 -93t52 -74t78 -48.5t100 -17.5q85 0 143 41.5t87 114.5l51 -24q-39 -88 -108 -136t-173 -48zM363 545
q-49 0 -91 -17t-74.5 -46t-54 -69t-27.5 -87h487q-4 48 -23.5 88.5t-50.5 69.5t-73 45t-93 16zM455 815h75l-140 -155h-54z" />
    <glyph glyph-name="ecircumflex" unicode="&#xea;" horiz-adv-x="722" 
d="M366 -12q-71 0 -128 23.5t-96.5 64t-61 95.5t-21.5 119q0 65 23 121t63.5 97t96.5 65t121 24q64 0 118.5 -22t94.5 -62t62.5 -94.5t22.5 -119.5v-26h-547q3 -50 22 -93t52 -74t78 -48.5t100 -17.5q85 0 143 41.5t87 114.5l51 -24q-39 -88 -108 -136t-173 -48zM363 545
q-49 0 -91 -17t-74.5 -46t-54 -69t-27.5 -87h487q-4 48 -23.5 88.5t-50.5 69.5t-73 45t-93 16zM344 811h49l119 -155h-61l-83 110l-83 -110h-60z" />
    <glyph glyph-name="edieresis" unicode="&#xeb;" horiz-adv-x="722" 
d="M366 -12q-71 0 -128 23.5t-96.5 64t-61 95.5t-21.5 119q0 65 23 121t63.5 97t96.5 65t121 24q64 0 118.5 -22t94.5 -62t62.5 -94.5t22.5 -119.5v-26h-547q3 -50 22 -93t52 -74t78 -48.5t100 -17.5q85 0 143 41.5t87 114.5l51 -24q-39 -88 -108 -136t-173 -48zM363 545
q-49 0 -91 -17t-74.5 -46t-54 -69t-27.5 -87h487q-4 48 -23.5 88.5t-50.5 69.5t-73 45t-93 16zM406 699q0 19 12.5 31t31.5 12q20 0 31.5 -12t11.5 -31t-11.5 -31.5t-31.5 -12.5t-32 12.5t-12 31.5zM238 699q0 19 12.5 31t31.5 12q20 0 31.5 -12t11.5 -31t-11.5 -31.5
t-31.5 -12.5t-32 12.5t-12 31.5z" />
    <glyph glyph-name="igrave" unicode="&#xec;" horiz-adv-x="226" 
d="M85 585h57v-585h-57v585zM-54 805h74l120 -155h-54z" />
    <glyph glyph-name="iacute" unicode="&#xed;" horiz-adv-x="226" 
d="M207 805h75l-140 -155h-54zM85 585h57v-585h-57v585z" />
    <glyph glyph-name="icircumflex" unicode="&#xee;" horiz-adv-x="226" 
d="M85 585h57v-585h-57v585zM89 787h49l119 -155h-61l-83 110l-83 -110h-60z" />
    <glyph glyph-name="idieresis" unicode="&#xef;" horiz-adv-x="226" 
d="M197 814h57v-164h-57v164zM-28 814h56v-164h-56v164zM85 585h57v-585h-57v585z" />
    <glyph glyph-name="eth" unicode="&#xf0;" horiz-adv-x="719" 
d="M327 753q-29 25 -61.5 50l-67.5 51h88l45 -35.5l42 -34.5l106 70h85l-155 -103q127 -117 187.5 -231.5t60.5 -233.5q0 -61 -23 -115t-63.5 -93.5t-94.5 -62.5t-117 -23q-62 0 -116 22.5t-94.5 62t-64 93.5t-23.5 116t23 116t63 93.5t93 62.5t113 23q68 0 118 -25t82 -67
q-55 111 -189 232l-116 -76h-86zM360 45q50 0 93.5 19t76 51.5t51 76.5t18.5 94q0 49 -18.5 93t-51 77t-76 52t-93.5 19q-49 0 -93 -19t-76.5 -51.5t-51.5 -76.5t-19 -94t19 -94t51.5 -76.5t76.5 -51.5t93 -19z" />
    <glyph glyph-name="ntilde" unicode="&#xf1;" horiz-adv-x="707" 
d="M85 585h55v-119q29 58 88 94.5t137 36.5q59 0 106.5 -18.5t82 -53.5t53 -84.5t18.5 -112.5v-328h-57v329q0 49 -14.5 88.5t-41.5 67.5t-66 43.5t-88 15.5q-46 0 -85.5 -16.5t-68.5 -45.5t-45.5 -68.5t-16.5 -85.5v-328h-57v585zM188 660q0 50 26 79t67 29q25 0 45.5 -9
t40.5 -21l36.5 -21t35.5 -10q23 0 36.5 14t13.5 44h46q0 -51 -24.5 -80t-70.5 -29q-29 0 -51.5 11.5t-42.5 23.5l-32 18.5t-33 8.5q-20 0 -33 -14.5t-13 -43.5h-47z" />
    <glyph glyph-name="ograve" unicode="&#xf2;" horiz-adv-x="726" 
d="M363 -12q-63 0 -118.5 23.5t-97 64.5t-65 96.5t-23.5 119.5t23.5 119.5t65 97t97 65t118.5 23.5t118.5 -23.5t96.5 -65t65 -97t24 -119.5t-24 -119.5t-65 -96.5t-96.5 -64.5t-118.5 -23.5zM363 41q51 0 96 19.5t78 53.5t52 80t19 98q0 53 -19 98.5t-52 80t-78 54
t-96 19.5q-52 0 -97 -19.5t-78 -54t-52 -80t-19 -98.5q0 -52 19 -98t52 -80t78 -53.5t97 -19.5zM199 815h74l120 -155h-54z" />
    <glyph glyph-name="oacute" unicode="&#xf3;" horiz-adv-x="726" 
d="M456 815h75l-140 -155h-54zM363 -12q-63 0 -118.5 23.5t-97 64.5t-65 96.5t-23.5 119.5t23.5 119.5t65 97t97 65t118.5 23.5t118.5 -23.5t96.5 -65t65 -97t24 -119.5t-24 -119.5t-65 -96.5t-96.5 -64.5t-118.5 -23.5zM363 41q51 0 96 19.5t78 53.5t52 80t19 98
q0 53 -19 98.5t-52 80t-78 54t-96 19.5q-52 0 -97 -19.5t-78 -54t-52 -80t-19 -98.5q0 -52 19 -98t52 -80t78 -53.5t97 -19.5z" />
    <glyph glyph-name="ocircumflex" unicode="&#xf4;" horiz-adv-x="726" 
d="M363 -12q-63 0 -118.5 23.5t-97 64.5t-65 96.5t-23.5 119.5t23.5 119.5t65 97t97 65t118.5 23.5t118.5 -23.5t96.5 -65t65 -97t24 -119.5t-24 -119.5t-65 -96.5t-96.5 -64.5t-118.5 -23.5zM363 41q51 0 96 19.5t78 53.5t52 80t19 98q0 53 -19 98.5t-52 80t-78 54
t-96 19.5q-52 0 -97 -19.5t-78 -54t-52 -80t-19 -98.5q0 -52 19 -98t52 -80t78 -53.5t97 -19.5zM338 811h49l119 -155h-61l-83 110l-83 -110h-60z" />
    <glyph glyph-name="otilde" unicode="&#xf5;" horiz-adv-x="726" 
d="M363 -12q-63 0 -118.5 23.5t-97 64.5t-65 96.5t-23.5 119.5t23.5 119.5t65 97t97 65t118.5 23.5t118.5 -23.5t96.5 -65t65 -97t24 -119.5t-24 -119.5t-65 -96.5t-96.5 -64.5t-118.5 -23.5zM363 41q51 0 96 19.5t78 53.5t52 80t19 98q0 53 -19 98.5t-52 80t-78 54
t-96 19.5q-52 0 -97 -19.5t-78 -54t-52 -80t-19 -98.5q0 -52 19 -98t52 -80t78 -53.5t97 -19.5zM190 660q0 50 26 79t67 29q25 0 45.5 -9t40.5 -21l36.5 -21t35.5 -10q23 0 36.5 14t13.5 44h46q0 -51 -24.5 -80t-70.5 -29q-29 0 -51.5 11.5t-42.5 23.5l-32 18.5t-33 8.5
q-20 0 -33 -14.5t-13 -43.5h-47z" />
    <glyph glyph-name="odieresis" unicode="&#xf6;" horiz-adv-x="726" 
d="M236 698q0 19 12.5 31t31.5 12q20 0 31.5 -12t11.5 -31t-11.5 -31.5t-31.5 -12.5t-32 12.5t-12 31.5zM404 698q0 19 12.5 31t31.5 12q20 0 31.5 -12t11.5 -31t-11.5 -31.5t-31.5 -12.5t-32 12.5t-12 31.5zM363 -12q-63 0 -118.5 23.5t-97 64.5t-65 96.5t-23.5 119.5
t23.5 119.5t65 97t97 65t118.5 23.5t118.5 -23.5t96.5 -65t65 -97t24 -119.5t-24 -119.5t-65 -96.5t-96.5 -64.5t-118.5 -23.5zM363 41q51 0 96 19.5t78 53.5t52 80t19 98q0 53 -19 98.5t-52 80t-78 54t-96 19.5q-52 0 -97 -19.5t-78 -54t-52 -80t-19 -98.5q0 -52 19 -98
t52 -80t78 -53.5t97 -19.5z" />
    <glyph glyph-name="divide" unicode="&#xf7;" horiz-adv-x="475" 
d="M53 390h370v-50h-370v50zM213 566h50v-122h-50v122zM213 284h50v-121h-50v121z" />
    <glyph glyph-name="oslash" unicode="&#xf8;" horiz-adv-x="726" 
d="M363 -12q-45 0 -86 12t-76 34l-25 -34h-63l47 64q-47 42 -74 100.5t-27 127.5q0 64 23.5 119.5t65 97t97 65t118.5 23.5q45 0 85.5 -12t75.5 -34l25 34h65l-49 -65q48 -42 75 -100.5t27 -127.5q0 -64 -24 -119.5t-65 -96.5t-96.5 -64.5t-118.5 -23.5zM117 292
q0 -55 20.5 -102t56.5 -82l297 399q-57 37 -128 37q-52 0 -97 -19.5t-78 -54t-52 -80t-19 -98.5zM363 41q51 0 96 19.5t78 53.5t52 80t19 98q0 54 -20.5 101t-55.5 82l-298 -398q28 -17 60.5 -26.5t68.5 -9.5z" />
    <glyph glyph-name="ugrave" unicode="&#xf9;" horiz-adv-x="707" 
d="M345 -12q-61 0 -110 18.5t-83 53.5t-52 84.5t-18 112.5v328h58v-329q0 -49 14 -88.5t41 -67.5t66 -43.5t88 -15.5q46 0 85.5 16.5t69 45.5t46 68.5t16.5 85.5v328h57v-585h-56v119q-29 -58 -87 -94.5t-135 -36.5zM190 803h74l120 -155h-54z" />
    <glyph glyph-name="uacute" unicode="&#xfa;" horiz-adv-x="707" 
d="M345 -12q-61 0 -110 18.5t-83 53.5t-52 84.5t-18 112.5v328h58v-329q0 -49 14 -88.5t41 -67.5t66 -43.5t88 -15.5q46 0 85.5 16.5t69 45.5t46 68.5t16.5 85.5v328h57v-585h-56v119q-29 -58 -87 -94.5t-135 -36.5zM433 796h75l-140 -155h-54z" />
    <glyph glyph-name="ucircumflex" unicode="&#xfb;" horiz-adv-x="707" 
d="M345 -12q-61 0 -110 18.5t-83 53.5t-52 84.5t-18 112.5v328h58v-329q0 -49 14 -88.5t41 -67.5t66 -43.5t88 -15.5q46 0 85.5 16.5t69 45.5t46 68.5t16.5 85.5v328h57v-585h-56v119q-29 -58 -87 -94.5t-135 -36.5zM329 805h49l119 -155h-61l-83 110l-83 -110h-60z" />
    <glyph glyph-name="udieresis" unicode="&#xfc;" horiz-adv-x="707" 
d="M345 -12q-61 0 -110 18.5t-83 53.5t-52 84.5t-18 112.5v328h58v-329q0 -49 14 -88.5t41 -67.5t66 -43.5t88 -15.5q46 0 85.5 16.5t69 45.5t46 68.5t16.5 85.5v328h57v-585h-56v119q-29 -58 -87 -94.5t-135 -36.5zM393 693q0 19 12.5 31t31.5 12q20 0 31.5 -12t11.5 -31
t-11.5 -31.5t-31.5 -12.5t-32 12.5t-12 31.5zM225 693q0 19 12.5 31t31.5 12q20 0 31.5 -12t11.5 -31t-11.5 -31.5t-31.5 -12.5t-32 12.5t-12 31.5z" />
    <glyph glyph-name="yacute" unicode="&#xfd;" horiz-adv-x="654" 
d="M305 33l-262 552h64l229 -487l214 487h62l-382 -855h-62zM414 786h75l-140 -155h-54z" />
    <glyph glyph-name="thorn" unicode="&#xfe;" horiz-adv-x="747" 
d="M386 -12q-36 0 -72 9.5t-68.5 27.5t-59.5 45t-44 61v-400h-56v1123h56v-400q17 34 44 60.5t59.5 45t68.5 28t72 9.5q64 0 119.5 -24t96 -65.5t63.5 -97t23 -118.5t-23.5 -118t-64 -96.5t-95.5 -65.5t-119 -24zM384 41q51 0 96 19.5t78 53.5t52 80t19 98q0 53 -19 98.5
t-52 80t-78 54t-96 19.5q-53 0 -98.5 -20t-79 -54t-52.5 -80t-19 -98t19 -98t52.5 -80t79 -53.5t98.5 -19.5z" />
    <glyph glyph-name="ydieresis" unicode="&#xff;" horiz-adv-x="654" 
d="M305 33l-262 552h64l229 -487l214 487h62l-382 -855h-62zM372 685q0 19 12.5 31t31.5 12q20 0 31.5 -12t11.5 -31t-11.5 -31.5t-31.5 -12.5t-32 12.5t-12 31.5zM204 685q0 19 12.5 31t31.5 12q20 0 31.5 -12t11.5 -31t-11.5 -31.5t-31.5 -12.5t-32 12.5t-12 31.5z" />
    <glyph glyph-name="Amacron" unicode="&#x100;" horiz-adv-x="698" 
d="M318 730h62l281 -730h-61l-79 204h-345l-78 -204h-61zM197 259h303l-151 394zM214 845h264v-50h-264v50z" />
    <glyph glyph-name="amacron" unicode="&#x101;" horiz-adv-x="747" 
d="M361 -12q-64 0 -119.5 24t-96 65.5t-63.5 96.5t-23 118t23 118.5t63.5 97t96 65.5t119.5 24q36 0 72.5 -9.5t69 -28.5t59.5 -46.5t44 -62.5v135h56v-585h-56v134q-17 -35 -44 -62.5t-59.5 -46t-69 -28t-72.5 -9.5zM363 41q53 0 98 19.5t79 53.5t53 80t19 98t-19 98
t-53 80t-79 54t-98 20q-51 0 -96 -19.5t-78.5 -54t-52.5 -80t-19 -98.5q0 -52 19 -98t52.5 -80t78.5 -53.5t96 -19.5zM230 716h264v-50h-264v50z" />
    <glyph glyph-name="Abreve" unicode="&#x102;" horiz-adv-x="698" 
d="M318 730h62l281 -730h-61l-79 204h-345l-78 -204h-61zM197 259h303l-151 394zM344 791q-41 0 -71.5 13t-50.5 34.5t-29.5 50t-9.5 59.5h49q0 -47 28 -80t84 -33q54 0 82.5 33t28.5 80h51q0 -31 -11 -59.5t-32 -50t-51 -34.5t-68 -13z" />
    <glyph glyph-name="abreve" unicode="&#x103;" horiz-adv-x="747" 
d="M361 -12q-64 0 -119.5 24t-96 65.5t-63.5 96.5t-23 118t23 118.5t63.5 97t96 65.5t119.5 24q36 0 72.5 -9.5t69 -28.5t59.5 -46.5t44 -62.5v135h56v-585h-56v134q-17 -35 -44 -62.5t-59.5 -46t-69 -28t-72.5 -9.5zM363 41q53 0 98 19.5t79 53.5t53 80t19 98t-19 98
t-53 80t-79 54t-98 20q-51 0 -96 -19.5t-78.5 -54t-52.5 -80t-19 -98.5q0 -52 19 -98t52.5 -80t78.5 -53.5t96 -19.5zM364 657q-41 0 -71.5 13t-50.5 34.5t-29.5 50t-9.5 59.5h49q0 -47 28 -80t84 -33q54 0 82.5 33t28.5 80h51q0 -31 -11 -59.5t-32 -50t-51 -34.5t-68 -13z
" />
    <glyph glyph-name="Aogonek" unicode="&#x104;" horiz-adv-x="698" 
d="M610 -208q-58 0 -93.5 27t-35.5 68q0 34 25 65t88 63l-73 189h-345l-78 -204h-61l281 730h62l281 -730q-36 -20 -59.5 -35t-37.5 -27.5t-19.5 -24t-5.5 -23.5q0 -24 20 -37.5t51 -13.5q28 0 48 11.5t38 27.5l45 -31q-24 -22 -58.5 -38.5t-72.5 -16.5zM197 259h303
l-151 394z" />
    <glyph glyph-name="aogonek" unicode="&#x105;" horiz-adv-x="747" 
d="M361 -12q-64 0 -119.5 24t-96 65.5t-63.5 96.5t-23 118t23 118.5t63.5 97t96 65.5t119.5 24q36 0 72.5 -9.5t69 -28.5t59.5 -46.5t44 -62.5v135h56v-585q-40 -32 -61 -60.5t-21 -54.5q0 -24 16 -39t43 -15q24 0 40.5 9t32.5 23l33 -40q-21 -17 -48.5 -29t-57.5 -12
q-58 0 -85.5 30t-27.5 71q0 35 22.5 68t57.5 62v121q-17 -35 -44 -62.5t-59.5 -46t-69 -28t-72.5 -9.5zM363 41q53 0 98 19.5t79 53.5t53 80t19 98t-19 98t-53 80t-79 54t-98 20q-51 0 -96 -19.5t-78.5 -54t-52.5 -80t-19 -98.5q0 -52 19 -98t52.5 -80t78.5 -53.5t96 -19.5z
" />
    <glyph glyph-name="Cacute" unicode="&#x106;" horiz-adv-x="796" 
d="M513 950h75l-140 -155h-54zM428 -10q-78 0 -146 29.5t-119 80.5t-80.5 119t-29.5 146t29.5 146t80.5 119t119 80.5t146 29.5q51 0 98.5 -13.5t89 -37.5t75.5 -58t59 -75l-50 -29q-41 71 -112 115t-160 44q-67 0 -124.5 -25.5t-100 -69t-67 -102t-24.5 -124.5t24.5 -124
t67 -101.5t100 -69t124.5 -25.5q97 0 169.5 46.5t111.5 121.5l51 -26q-24 -44 -58 -80.5t-76.5 -62.5t-92.5 -40t-105 -14z" />
    <glyph glyph-name="cacute" unicode="&#x107;" horiz-adv-x="697" 
d="M449 815h75l-140 -155h-54zM365 -12q-65 0 -121 24t-97 65t-64.5 96.5t-23.5 118.5q0 65 24 120.5t65 96.5t96.5 64.5t119.5 23.5q48 0 91 -13t79 -37t63.5 -57t43.5 -73l-53 -22q-29 69 -87.5 109t-136.5 40q-52 0 -97.5 -19.5t-78.5 -54t-52 -80t-19 -98.5
q0 -52 19 -98t52.5 -80t79 -53.5t98.5 -19.5q81 0 138.5 43t85.5 111l54 -23q-17 -40 -44 -74t-62.5 -58.5t-79 -38t-93.5 -13.5z" />
    <glyph glyph-name="Ccircumflex" unicode="&#x108;" horiz-adv-x="796" 
d="M428 -10q-78 0 -146 29.5t-119 80.5t-80.5 119t-29.5 146t29.5 146t80.5 119t119 80.5t146 29.5q51 0 98.5 -13.5t89 -37.5t75.5 -58t59 -75l-50 -29q-41 71 -112 115t-160 44q-67 0 -124.5 -25.5t-100 -69t-67 -102t-24.5 -124.5t24.5 -124t67 -101.5t100 -69
t124.5 -25.5q97 0 169.5 46.5t111.5 121.5l51 -26q-24 -44 -58 -80.5t-76.5 -62.5t-92.5 -40t-105 -14zM402 950h49l119 -155h-61l-83 110l-83 -110h-60z" />
    <glyph glyph-name="ccircumflex" unicode="&#x109;" horiz-adv-x="697" 
d="M365 -12q-65 0 -121 24t-97 65t-64.5 96.5t-23.5 118.5q0 65 24 120.5t65 96.5t96.5 64.5t119.5 23.5q48 0 91 -13t79 -37t63.5 -57t43.5 -73l-53 -22q-29 69 -87.5 109t-136.5 40q-52 0 -97.5 -19.5t-78.5 -54t-52 -80t-19 -98.5q0 -52 19 -98t52.5 -80t79 -53.5
t98.5 -19.5q81 0 138.5 43t85.5 111l54 -23q-17 -40 -44 -74t-62.5 -58.5t-79 -38t-93.5 -13.5zM340 811h49l119 -155h-61l-83 110l-83 -110h-60z" />
    <glyph glyph-name="Cdotaccent" unicode="&#x10a;" horiz-adv-x="796" 
d="M428 -10q-78 0 -146 29.5t-119 80.5t-80.5 119t-29.5 146t29.5 146t80.5 119t119 80.5t146 29.5q51 0 98.5 -13.5t89 -37.5t75.5 -58t59 -75l-50 -29q-41 71 -112 115t-160 44q-67 0 -124.5 -25.5t-100 -69t-67 -102t-24.5 -124.5t24.5 -124t67 -101.5t100 -69
t124.5 -25.5q97 0 169.5 46.5t111.5 121.5l51 -26q-24 -44 -58 -80.5t-76.5 -62.5t-92.5 -40t-105 -14zM385 880q0 21 14 34.5t35 13.5q23 0 36 -13.5t13 -34.5t-13 -35t-36 -14t-36 14t-13 35z" />
    <glyph glyph-name="cdotaccent" unicode="&#x10b;" horiz-adv-x="697" 
d="M365 -12q-65 0 -121 24t-97 65t-64.5 96.5t-23.5 118.5q0 65 24 120.5t65 96.5t96.5 64.5t119.5 23.5q48 0 91 -13t79 -37t63.5 -57t43.5 -73l-53 -22q-29 69 -87.5 109t-136.5 40q-52 0 -97.5 -19.5t-78.5 -54t-52 -80t-19 -98.5q0 -52 19 -98t52.5 -80t79 -53.5
t98.5 -19.5q81 0 138.5 43t85.5 111l54 -23q-17 -40 -44 -74t-62.5 -58.5t-79 -38t-93.5 -13.5zM315 706q0 21 14 34.5t35 13.5q23 0 36 -13.5t13 -34.5t-13 -35t-36 -14t-36 14t-13 35z" />
    <glyph glyph-name="Ccaron" unicode="&#x10c;" horiz-adv-x="796" 
d="M428 -10q-78 0 -146 29.5t-119 80.5t-80.5 119t-29.5 146t29.5 146t80.5 119t119 80.5t146 29.5q51 0 98.5 -13.5t89 -37.5t75.5 -58t59 -75l-50 -29q-41 71 -112 115t-160 44q-67 0 -124.5 -25.5t-100 -69t-67 -102t-24.5 -124.5t24.5 -124t67 -101.5t100 -69
t124.5 -25.5q97 0 169.5 46.5t111.5 121.5l51 -26q-24 -44 -58 -80.5t-76.5 -62.5t-92.5 -40t-105 -14zM280 950h59l81 -114l84 114h59l-118 -155h-48z" />
    <glyph glyph-name="ccaron" unicode="&#x10d;" horiz-adv-x="697" 
d="M365 -12q-65 0 -121 24t-97 65t-64.5 96.5t-23.5 118.5q0 65 24 120.5t65 96.5t96.5 64.5t119.5 23.5q48 0 91 -13t79 -37t63.5 -57t43.5 -73l-53 -22q-29 69 -87.5 109t-136.5 40q-52 0 -97.5 -19.5t-78.5 -54t-52 -80t-19 -98.5q0 -52 19 -98t52.5 -80t79 -53.5
t98.5 -19.5q81 0 138.5 43t85.5 111l54 -23q-17 -40 -44 -74t-62.5 -58.5t-79 -38t-93.5 -13.5zM225 815h59l81 -114l84 114h59l-118 -155h-48z" />
    <glyph glyph-name="Dcaron" unicode="&#x10e;" horiz-adv-x="711" 
d="M75 730h205q83 0 152 -28t119.5 -77t78.5 -115.5t28 -144.5t-29 -145t-79.5 -115.5t-119 -76.5t-148.5 -28h-207v730zM133 677v-623h145q69 0 127.5 23.5t101.5 65.5t67.5 99t24.5 123t-23.5 123t-66.5 99t-102 66t-131 24h-143zM158 950h59l81 -114l84 114h59l-118 -155
h-48z" />
    <glyph glyph-name="dcaron" unicode="&#x10f;" horiz-adv-x="754" 
d="M361 -12q-64 0 -119.5 24t-96 65.5t-63.5 96.5t-23 118t23 118.5t63.5 97t96 65.5t119.5 24q36 0 72 -9.5t68 -28t59 -45t45 -61.5v287h56v-740h-55v134q-17 -35 -44 -62.5t-59.5 -46t-69 -28t-72.5 -9.5zM363 41q53 0 98 19.5t79 53.5t53 80t19 98t-19 98t-53 80t-79 54
t-98 20q-51 0 -96 -19.5t-78.5 -54t-52.5 -80t-19 -98.5q0 -52 19 -98t52.5 -80t78.5 -53.5t96 -19.5zM759 740h55l-63 -172h-41z" />
    <glyph glyph-name="Dcroat" unicode="&#x110;" horiz-adv-x="731" 
d="M22 397h75v333h203q83 0 152.5 -28t120 -77t78.5 -115.5t28 -144.5t-29 -145t-79.5 -115.5t-119.5 -76.5t-149 -28h-205v341h-75v56zM155 677v-280h231v-56h-231v-287h142q69 0 128.5 23.5t103 65.5t68 99t24.5 123t-24 123t-67.5 99t-103 66t-131.5 24h-140z" />
    <glyph glyph-name="dcroat" unicode="&#x111;" horiz-adv-x="760" 
d="M497 674h108v66h56v-66h67v-49h-67v-625h-55v134q-17 -35 -44 -62.5t-59.5 -46t-69 -28t-72.5 -9.5q-64 0 -119.5 24t-96 65.5t-63.5 96.5t-23 118t23 118.5t63.5 97t96 65.5t119.5 24q36 0 72 -9.5t68 -28t59 -45t45 -61.5v172h-108v49zM363 41q53 0 98 19.5t79 53.5
t53 80t19 98t-19 98t-53 80t-79 54t-98 20q-51 0 -96 -19.5t-78.5 -54t-52.5 -80t-19 -98.5q0 -52 19 -98t52.5 -80t78.5 -53.5t96 -19.5z" />
    <glyph glyph-name="Emacron" unicode="&#x112;" horiz-adv-x="587" 
d="M75 730h447v-55h-389v-282h389v-54h-389v-284h389v-55h-447v730zM163 845h264v-50h-264v50z" />
    <glyph glyph-name="emacron" unicode="&#x113;" horiz-adv-x="722" 
d="M366 -12q-71 0 -128 23.5t-96.5 64t-61 95.5t-21.5 119q0 65 23 121t63.5 97t96.5 65t121 24q64 0 118.5 -22t94.5 -62t62.5 -94.5t22.5 -119.5v-26h-547q3 -50 22 -93t52 -74t78 -48.5t100 -17.5q85 0 143 41.5t87 114.5l51 -24q-39 -88 -108 -136t-173 -48zM363 545
q-49 0 -91 -17t-74.5 -46t-54 -69t-27.5 -87h487q-4 48 -23.5 88.5t-50.5 69.5t-73 45t-93 16zM237 719h264v-50h-264v50z" />
    <glyph glyph-name="Ebreve" unicode="&#x114;" horiz-adv-x="587" 
d="M75 730h447v-55h-389v-282h389v-54h-389v-284h389v-55h-447v730zM298 791q-41 0 -71.5 13t-50.5 34.5t-29.5 50t-9.5 59.5h49q0 -47 28 -80t84 -33q54 0 82.5 33t28.5 80h51q0 -31 -11 -59.5t-32 -50t-51 -34.5t-68 -13z" />
    <glyph glyph-name="ebreve" unicode="&#x115;" horiz-adv-x="722" 
d="M366 -12q-71 0 -128 23.5t-96.5 64t-61 95.5t-21.5 119q0 65 23 121t63.5 97t96.5 65t121 24q64 0 118.5 -22t94.5 -62t62.5 -94.5t22.5 -119.5v-26h-547q3 -50 22 -93t52 -74t78 -48.5t100 -17.5q85 0 143 41.5t87 114.5l51 -24q-39 -88 -108 -136t-173 -48zM363 545
q-49 0 -91 -17t-74.5 -46t-54 -69t-27.5 -87h487q-4 48 -23.5 88.5t-50.5 69.5t-73 45t-93 16zM365 656q-41 0 -71.5 13t-50.5 34.5t-29.5 50t-9.5 59.5h49q0 -47 28 -80t84 -33q54 0 82.5 33t28.5 80h51q0 -31 -11 -59.5t-32 -50t-51 -34.5t-68 -13z" />
    <glyph glyph-name="Edotaccent" unicode="&#x116;" horiz-adv-x="587" 
d="M75 730h447v-55h-389v-282h389v-54h-389v-284h389v-55h-447v730zM257 880q0 21 14 34.5t35 13.5q23 0 36 -13.5t13 -34.5t-13 -35t-36 -14t-36 14t-13 35z" />
    <glyph glyph-name="edotaccent" unicode="&#x117;" horiz-adv-x="722" 
d="M366 -12q-71 0 -128 23.5t-96.5 64t-61 95.5t-21.5 119q0 65 23 121t63.5 97t96.5 65t121 24q64 0 118.5 -22t94.5 -62t62.5 -94.5t22.5 -119.5v-26h-547q3 -50 22 -93t52 -74t78 -48.5t100 -17.5q85 0 143 41.5t87 114.5l51 -24q-39 -88 -108 -136t-173 -48zM363 545
q-49 0 -91 -17t-74.5 -46t-54 -69t-27.5 -87h487q-4 48 -23.5 88.5t-50.5 69.5t-73 45t-93 16zM316 708q0 21 14 34.5t35 13.5q23 0 36 -13.5t13 -34.5t-13 -35t-36 -14t-36 14t-13 35z" />
    <glyph glyph-name="Eogonek" unicode="&#x118;" horiz-adv-x="587" 
d="M75 730h447v-55h-389v-282h389v-54h-389v-284h389v-55q-36 -20 -59.5 -35t-37.5 -27.5t-19.5 -24t-5.5 -23.5q0 -24 20 -37.5t51 -13.5q28 0 48 11.5t38 27.5l45 -31q-24 -22 -58.5 -38.5t-72.5 -16.5q-58 0 -93.5 27t-35.5 68q0 29 18.5 57t66.5 56h-352v730z" />
    <glyph glyph-name="eogonek" unicode="&#x119;" horiz-adv-x="722" 
d="M374 -215q-58 0 -93.5 27t-35.5 68q0 29 17.5 56t62.5 54q-62 6 -111.5 31.5t-84 65.5t-52.5 92t-18 111q0 65 23 121t63.5 97t96.5 65t121 24q64 0 118.5 -22t94.5 -62t62.5 -94.5t22.5 -119.5v-26h-547q3 -50 22 -93t52 -74t78 -48.5t100 -17.5q85 0 143 41.5t87 114.5
l51 -24q-34 -75 -89 -121t-135 -58q-35 -20 -58.5 -35t-37 -27.5t-19 -24t-5.5 -23.5q0 -24 20 -37.5t51 -13.5q28 0 48 11.5t38 27.5l45 -31q-24 -22 -58.5 -38.5t-72.5 -16.5zM363 545q-49 0 -91 -17t-74.5 -46t-54 -69t-27.5 -87h487q-4 48 -23.5 88.5t-50.5 69.5t-73 45
t-93 16z" />
    <glyph glyph-name="Ecaron" unicode="&#x11a;" horiz-adv-x="587" 
d="M75 730h447v-55h-389v-282h389v-54h-389v-284h389v-55h-447v730zM153 950h59l81 -114l84 114h59l-118 -155h-48z" />
    <glyph glyph-name="ecaron" unicode="&#x11b;" horiz-adv-x="722" 
d="M366 -12q-71 0 -128 23.5t-96.5 64t-61 95.5t-21.5 119q0 65 23 121t63.5 97t96.5 65t121 24q64 0 118.5 -22t94.5 -62t62.5 -94.5t22.5 -119.5v-26h-547q3 -50 22 -93t52 -74t78 -48.5t100 -17.5q85 0 143 41.5t87 114.5l51 -24q-39 -88 -108 -136t-173 -48zM363 545
q-49 0 -91 -17t-74.5 -46t-54 -69t-27.5 -87h487q-4 48 -23.5 88.5t-50.5 69.5t-73 45t-93 16zM228 815h59l81 -114l84 114h59l-118 -155h-48z" />
    <glyph glyph-name="Gcircumflex" unicode="&#x11c;" horiz-adv-x="850" 
d="M430 -10q-80 0 -149 29.5t-119.5 80.5t-79.5 119t-29 146t29 146t80 119t120.5 80.5t151.5 29.5q106 0 189.5 -49.5t132.5 -134.5l-50 -29q-40 73 -110.5 116t-161.5 43q-71 0 -130 -25.5t-102 -69t-66.5 -102t-23.5 -124.5t23.5 -124t66 -101.5t101 -69t127.5 -25.5
t123.5 21.5t94.5 59.5t63.5 89.5t29.5 111.5h-316v54h374v-15q0 -76 -25 -144.5t-72.5 -120t-116 -81.5t-155.5 -30zM400 950h49l119 -155h-61l-83 110l-83 -110h-60z" />
    <glyph glyph-name="gcircumflex" unicode="&#x11d;" horiz-adv-x="747" 
d="M361 -12q-64 0 -119.5 24t-96 65.5t-63.5 96.5t-23 118t23 118.5t63.5 97t96 65.5t119.5 24q36 0 72.5 -9.5t69 -28.5t59.5 -46.5t44 -62.5v135h56v-573q0 -68 -20.5 -122.5t-59 -92.5t-92.5 -59t-120 -21q-54 0 -96 11t-75 31.5t-58.5 50t-46.5 67.5l55 25
q32 -62 84 -97.5t137 -35.5q54 0 98 17t74.5 48.5t47 76t16.5 99.5v124q-17 -35 -44 -62.5t-59.5 -46t-69 -28t-72.5 -9.5zM363 41q53 0 98 19.5t79 53.5t53 80t19 98t-19 98t-53 80t-79 54t-98 20q-51 0 -96 -19.5t-78.5 -54t-52.5 -80t-19 -98.5q0 -52 19 -98t52.5 -80
t78.5 -53.5t96 -19.5zM336 811h49l119 -155h-61l-83 110l-83 -110h-60z" />
    <glyph glyph-name="Gbreve" unicode="&#x11e;" horiz-adv-x="850" 
d="M430 -10q-80 0 -149 29.5t-119.5 80.5t-79.5 119t-29 146t29 146t80 119t120.5 80.5t151.5 29.5q106 0 189.5 -49.5t132.5 -134.5l-50 -29q-40 73 -110.5 116t-161.5 43q-71 0 -130 -25.5t-102 -69t-66.5 -102t-23.5 -124.5t23.5 -124t66 -101.5t101 -69t127.5 -25.5
t123.5 21.5t94.5 59.5t63.5 89.5t29.5 111.5h-316v54h374v-15q0 -76 -25 -144.5t-72.5 -120t-116 -81.5t-155.5 -30zM423 791q-41 0 -71.5 13t-50.5 34.5t-29.5 50t-9.5 59.5h49q0 -47 28 -80t84 -33q54 0 82.5 33t28.5 80h51q0 -31 -11 -59.5t-32 -50t-51 -34.5t-68 -13z
" />
    <glyph glyph-name="gbreve" unicode="&#x11f;" horiz-adv-x="747" 
d="M361 -12q-64 0 -119.5 24t-96 65.5t-63.5 96.5t-23 118t23 118.5t63.5 97t96 65.5t119.5 24q36 0 72.5 -9.5t69 -28.5t59.5 -46.5t44 -62.5v135h56v-573q0 -68 -20.5 -122.5t-59 -92.5t-92.5 -59t-120 -21q-54 0 -96 11t-75 31.5t-58.5 50t-46.5 67.5l55 25
q32 -62 84 -97.5t137 -35.5q54 0 98 17t74.5 48.5t47 76t16.5 99.5v124q-17 -35 -44 -62.5t-59.5 -46t-69 -28t-72.5 -9.5zM363 41q53 0 98 19.5t79 53.5t53 80t19 98t-19 98t-53 80t-79 54t-98 20q-51 0 -96 -19.5t-78.5 -54t-52.5 -80t-19 -98.5q0 -52 19 -98t52.5 -80
t78.5 -53.5t96 -19.5zM362 657q-41 0 -71.5 13t-50.5 34.5t-29.5 50t-9.5 59.5h49q0 -47 28 -80t84 -33q54 0 82.5 33t28.5 80h51q0 -31 -11 -59.5t-32 -50t-51 -34.5t-68 -13z" />
    <glyph glyph-name="Gdotaccent" unicode="&#x120;" horiz-adv-x="850" 
d="M430 -10q-80 0 -149 29.5t-119.5 80.5t-79.5 119t-29 146t29 146t80 119t120.5 80.5t151.5 29.5q106 0 189.5 -49.5t132.5 -134.5l-50 -29q-40 73 -110.5 116t-161.5 43q-71 0 -130 -25.5t-102 -69t-66.5 -102t-23.5 -124.5t23.5 -124t66 -101.5t101 -69t127.5 -25.5
t123.5 21.5t94.5 59.5t63.5 89.5t29.5 111.5h-316v54h374v-15q0 -76 -25 -144.5t-72.5 -120t-116 -81.5t-155.5 -30zM376 880q0 21 14 34.5t35 13.5q23 0 36 -13.5t13 -34.5t-13 -35t-36 -14t-36 14t-13 35z" />
    <glyph glyph-name="gdotaccent" unicode="&#x121;" horiz-adv-x="747" 
d="M361 -12q-64 0 -119.5 24t-96 65.5t-63.5 96.5t-23 118t23 118.5t63.5 97t96 65.5t119.5 24q36 0 72.5 -9.5t69 -28.5t59.5 -46.5t44 -62.5v135h56v-573q0 -68 -20.5 -122.5t-59 -92.5t-92.5 -59t-120 -21q-54 0 -96 11t-75 31.5t-58.5 50t-46.5 67.5l55 25
q32 -62 84 -97.5t137 -35.5q54 0 98 17t74.5 48.5t47 76t16.5 99.5v124q-17 -35 -44 -62.5t-59.5 -46t-69 -28t-72.5 -9.5zM363 41q53 0 98 19.5t79 53.5t53 80t19 98t-19 98t-53 80t-79 54t-98 20q-51 0 -96 -19.5t-78.5 -54t-52.5 -80t-19 -98.5q0 -52 19 -98t52.5 -80
t78.5 -53.5t96 -19.5zM311 713q0 21 14 34.5t35 13.5q23 0 36 -13.5t13 -34.5t-13 -35t-36 -14t-36 14t-13 35z" />
    <glyph glyph-name="Gcommaaccent" unicode="&#x122;" horiz-adv-x="850" 
d="M430 -10q-80 0 -149 29.5t-119.5 80.5t-79.5 119t-29 146t29 146t80 119t120.5 80.5t151.5 29.5q106 0 189.5 -49.5t132.5 -134.5l-50 -29q-40 73 -110.5 116t-161.5 43q-71 0 -130 -25.5t-102 -69t-66.5 -102t-23.5 -124.5t23.5 -124t66 -101.5t101 -69t127.5 -25.5
t123.5 21.5t94.5 59.5t63.5 89.5t29.5 111.5h-316v54h374v-15q0 -76 -25 -144.5t-72.5 -120t-116 -81.5t-155.5 -30zM363 -269l43 204h55l-58 -204h-40z" />
    <glyph glyph-name="gcommaaccent" unicode="&#x123;" horiz-adv-x="747" 
d="M361 -12q-64 0 -119.5 24t-96 65.5t-63.5 96.5t-23 118t23 118.5t63.5 97t96 65.5t119.5 24q36 0 72.5 -9.5t69 -28.5t59.5 -46.5t44 -62.5v135h56v-573q0 -68 -20.5 -122.5t-59 -92.5t-92.5 -59t-120 -21q-54 0 -96 11t-75 31.5t-58.5 50t-46.5 67.5l55 25
q32 -62 84 -97.5t137 -35.5q54 0 98 17t74.5 48.5t47 76t16.5 99.5v124q-17 -35 -44 -62.5t-59.5 -46t-69 -28t-72.5 -9.5zM363 41q53 0 98 19.5t79 53.5t53 80t19 98t-19 98t-53 80t-79 54t-98 20q-51 0 -96 -19.5t-78.5 -54t-52.5 -80t-19 -98.5q0 -52 19 -98t52.5 -80
t78.5 -53.5t96 -19.5zM335 660l43 204h55l-58 -204h-40z" />
    <glyph glyph-name="Hcircumflex" unicode="&#x124;" horiz-adv-x="688" 
d="M554 339h-422v-339h-58v730h58v-336h422v336h58v-730h-58v339zM318 950h49l119 -155h-61l-83 110l-83 -110h-60z" />
    <glyph glyph-name="hcircumflex" unicode="&#x125;" horiz-adv-x="709" 
d="M89 740h55v-269q30 56 88 91t135 35q59 0 106.5 -18.5t82 -53.5t53 -84.5t18.5 -112.5v-328h-58v329q0 49 -14 88.5t-41 68t-65.5 44t-88.5 15.5q-46 0 -85.5 -16.5t-68.5 -46t-45.5 -69t-16.5 -85.5v-328h-55v740zM93 943h49l119 -155h-61l-83 110l-83 -110h-60z" />
    <glyph glyph-name="Hbar" unicode="&#x126;" horiz-adv-x="721" 
d="M20 585h70v145h58v-145h422v145h58v-145h65v-45h-65v-540h-58v339h-422v-339h-58v540h-70v45zM148 394h422v146h-422v-146z" />
    <glyph glyph-name="hbar" unicode="&#x127;" horiz-adv-x="719" 
d="M19 675h79v65h55v-65h97v-44h-97v-160q30 56 88 91t135 35q59 0 106.5 -18.5t82 -53.5t53 -84.5t18.5 -112.5v-328h-58v329q0 49 -14 88.5t-41 68t-65.5 44t-88.5 15.5q-46 0 -85.5 -16.5t-68.5 -46t-45.5 -69t-16.5 -85.5v-328h-55v631h-79v44z" />
    <glyph glyph-name="Itilde" unicode="&#x128;" horiz-adv-x="224" 
d="M84 730h57v-730h-57v730zM-54 795q0 50 26 79t67 29q25 0 45.5 -9t40.5 -21l36.5 -21t35.5 -10q23 0 36.5 14t13.5 44h46q0 -51 -24.5 -80t-70.5 -29q-29 0 -51.5 11.5t-42.5 23.5l-32 18.5t-33 8.5q-20 0 -33 -14.5t-13 -43.5h-47z" />
    <glyph glyph-name="itilde" unicode="&#x129;" horiz-adv-x="226" 
d="M85 585h57v-585h-57v585zM-59 660q0 50 26 79t67 29q25 0 45.5 -9t40.5 -21l36.5 -21t35.5 -10q23 0 36.5 14t13.5 44h46q0 -51 -24.5 -80t-70.5 -29q-29 0 -51.5 11.5t-42.5 23.5l-32 18.5t-33 8.5q-20 0 -33 -14.5t-13 -43.5h-47z" />
    <glyph glyph-name="Imacron" unicode="&#x12a;" horiz-adv-x="227" 
d="M85 730h57v-730h-57v730zM-19 845h264v-50h-264v50z" />
    <glyph glyph-name="imacron" unicode="&#x12b;" horiz-adv-x="226" 
d="M85 585h57v-585h-57v585zM-19 714h264v-50h-264v50z" />
    <glyph glyph-name="Ibreve" unicode="&#x12c;" horiz-adv-x="227" 
d="M85 730h57v-730h-57v730zM111 791q-41 0 -71.5 13t-50.5 34.5t-29.5 50t-9.5 59.5h49q0 -47 28 -80t84 -33q54 0 82.5 33t28.5 80h51q0 -31 -11 -59.5t-32 -50t-51 -34.5t-68 -13z" />
    <glyph glyph-name="ibreve" unicode="&#x12d;" horiz-adv-x="226" 
d="M85 585h57v-585h-57v585zM113 647q-41 0 -71.5 13t-50.5 34.5t-29.5 50t-9.5 59.5h49q0 -47 28 -80t84 -33q54 0 82.5 33t28.5 80h51q0 -31 -11 -59.5t-32 -50t-51 -34.5t-68 -13z" />
    <glyph glyph-name="Iogonek" unicode="&#x12e;" horiz-adv-x="227" 
d="M120 -218q-58 0 -85.5 30t-27.5 71q0 35 21.5 67t56.5 61v719h57v-730h1q-40 -32 -61 -60.5t-21 -54.5q0 -24 16 -39t43 -15q24 0 40.5 9t32.5 23l33 -40q-21 -17 -48.5 -29t-57.5 -12z" />
    <glyph glyph-name="iogonek" unicode="&#x12f;" horiz-adv-x="226" 
d="M119 -218q-58 0 -85.5 30t-27.5 71q0 35 22 67.5t57 61.5v573h57v-585q-40 -32 -61 -60.5t-21 -54.5q0 -24 16 -39t43 -15q24 0 40.5 9t32.5 23l33 -40q-21 -17 -48.5 -29t-57.5 -12zM65 713q0 21 14 34.5t35 13.5q23 0 36 -13.5t13 -34.5t-13 -35t-36 -14t-36 14t-13 35
z" />
    <glyph glyph-name="Idotaccent" unicode="&#x130;" horiz-adv-x="227" 
d="M85 730h57v-730h-57v730zM64 880q0 21 14 34.5t35 13.5q23 0 36 -13.5t13 -34.5t-13 -35t-36 -14t-36 14t-13 35z" />
    <glyph glyph-name="dotlessi" unicode="&#x131;" horiz-adv-x="226" 
d="M85 585h57v-585h-57v585z" />
    <glyph glyph-name="IJ" unicode="&#x132;" horiz-adv-x="552" 
d="M224 54h79q61 0 93 36t32 102v538h58v-538q0 -91 -45 -141.5t-136 -50.5h-81v54zM66 730h58v-730h-58v730z" />
    <glyph glyph-name="ij" unicode="&#x133;" horiz-adv-x="454" 
d="M85 585h57v-585h-57v585zM65 713q0 21 14 34.5t35 13.5q23 0 36 -13.5t13 -34.5t-13 -35t-36 -14t-36 14t-13 35zM369 -20q0 -57 -9 -95t-31 -61t-59.5 -33t-94.5 -10h-90v56h82q47 0 75 6t44 22t21 44t5 72v604h57v-605zM292 713q0 21 14 34.5t35 13.5q23 0 36 -13.5
t13 -34.5t-13 -35t-36 -14t-36 14t-13 35z" />
    <glyph glyph-name="Jcircumflex" unicode="&#x134;" horiz-adv-x="476" 
d="M219 -10q-66 0 -112.5 28t-69.5 75l52 33q17 -37 49 -60t80 -23q60 0 94 39t34 106v542h58v-541q0 -92 -49 -145.5t-136 -53.5zM350 950h49l119 -155h-61l-83 110l-83 -110h-60z" />
    <glyph glyph-name="jcircumflex" unicode="&#x135;" horiz-adv-x="226" 
d="M-70 -212q47 0 77.5 5t47.5 21.5t23.5 47t6.5 80.5v643h57v-644q0 -62 -9.5 -102.5t-32.5 -64t-62.5 -33t-98.5 -9.5h-9v56zM89 800h49l119 -155h-61l-83 110l-83 -110h-60z" />
    <glyph glyph-name="Kcommaaccent" unicode="&#x136;" horiz-adv-x="649" 
d="M291 397l-158 -181v-216h-57v730h57v-437l382 437h71l-254 -293l290 -437h-67zM263 -269l43 204h55l-58 -204h-40z" />
    <glyph glyph-name="kcommaaccent" unicode="&#x137;" horiz-adv-x="607" 
d="M278 305l-136 -141v-164h-56v740h56v-509l340 354h73l-236 -245l251 -340h-67zM246 -258l43 204h55l-58 -204h-40z" />
    <glyph glyph-name="kgreenlandic" unicode="&#x138;" horiz-adv-x="607" 
d="M277 305l-135 -141v-164h-57v585h57v-354l339 354h74l-236 -245l251 -340h-68z" />
    <glyph glyph-name="Lacute" unicode="&#x139;" horiz-adv-x="533" 
d="M75 730h58v-675h347v-55h-405v730zM191 950h75l-140 -155h-54z" />
    <glyph glyph-name="lacute" unicode="&#x13a;" horiz-adv-x="231" 
d="M210 950h75l-140 -155h-54zM86 740h58v-740h-58v740z" />
    <glyph glyph-name="Lcommaaccent" unicode="&#x13b;" horiz-adv-x="533" 
d="M75 730h58v-675h347v-55h-405v730zM203 -269l43 204h55l-58 -204h-40z" />
    <glyph glyph-name="lcommaaccent" unicode="&#x13c;" horiz-adv-x="231" 
d="M9 -258l43 204h55l-58 -204h-40zM86 740h58v-740h-58v740z" />
    <glyph glyph-name="Lcaron" unicode="&#x13d;" horiz-adv-x="533" 
d="M75 730h58v-675h347v-55h-405v730zM330 729h55l-63 -172h-41z" />
    <glyph glyph-name="lcaron" unicode="&#x13e;" horiz-adv-x="264" 
d="M258 740h55l-63 -172h-41zM86 740h58v-740h-58v740z" />
    <glyph glyph-name="Ldot" unicode="&#x13f;" horiz-adv-x="542" 
d="M75 730h58v-675h347v-55h-405v730zM401 369q0 21 14 34.5t35 13.5q23 0 36 -13.5t13 -34.5t-13 -35t-36 -14t-36 14t-13 35z" />
    <glyph glyph-name="ldot" unicode="&#x140;" horiz-adv-x="382" 
d="M86 740h58v-740h-58v740zM252 286q0 21 14 34.5t35 13.5q23 0 36 -13.5t13 -34.5t-13 -35t-36 -14t-36 14t-13 35z" />
    <glyph glyph-name="Lslash" unicode="&#x141;" horiz-adv-x="561" 
d="M12 386l91 26v318h58v-301l143 42v-42l-143 -42v-332h347v-55h-405v370l-91 -27v43z" />
    <glyph glyph-name="lslash" unicode="&#x142;" horiz-adv-x="317" 
d="M13 409l116 50v395h58v-369l117 51v-49l-117 -50v-437h-58v412l-116 -50v47z" />
    <glyph glyph-name="Nacute" unicode="&#x143;" horiz-adv-x="742" 
d="M75 730h64l470 -640v640h58v-730h-62l-472 643v-643h-58v730zM466 950h75l-140 -155h-54z" />
    <glyph glyph-name="nacute" unicode="&#x144;" horiz-adv-x="707" 
d="M85 585h55v-119q29 58 88 94.5t137 36.5q59 0 106.5 -18.5t82 -53.5t53 -84.5t18.5 -112.5v-328h-57v329q0 49 -14.5 88.5t-41.5 67.5t-66 43.5t-88 15.5q-46 0 -85.5 -16.5t-68.5 -45.5t-45.5 -68.5t-16.5 -85.5v-328h-57v585zM449 815h75l-140 -155h-54z" />
    <glyph glyph-name="Ncommaaccent" unicode="&#x145;" horiz-adv-x="742" 
d="M75 730h64l470 -640v640h58v-730h-62l-472 643v-643h-58v730zM296 -269l43 204h55l-58 -204h-40z" />
    <glyph glyph-name="ncommaaccent" unicode="&#x146;" horiz-adv-x="707" 
d="M85 585h55v-119q29 58 88 94.5t137 36.5q59 0 106.5 -18.5t82 -53.5t53 -84.5t18.5 -112.5v-328h-57v329q0 49 -14.5 88.5t-41.5 67.5t-66 43.5t-88 15.5q-46 0 -85.5 -16.5t-68.5 -45.5t-45.5 -68.5t-16.5 -85.5v-328h-57v585zM285 -254l43 204h55l-58 -204h-40z" />
    <glyph glyph-name="Ncaron" unicode="&#x147;" horiz-adv-x="742" 
d="M75 730h64l470 -640v640h58v-730h-62l-472 643v-643h-58v730zM231 950h59l81 -114l84 114h59l-118 -155h-48z" />
    <glyph glyph-name="ncaron" unicode="&#x148;" horiz-adv-x="707" 
d="M85 585h55v-119q29 58 88 94.5t137 36.5q59 0 106.5 -18.5t82 -53.5t53 -84.5t18.5 -112.5v-328h-57v329q0 49 -14.5 88.5t-41.5 67.5t-66 43.5t-88 15.5q-46 0 -85.5 -16.5t-68.5 -45.5t-45.5 -68.5t-16.5 -85.5v-328h-57v585zM228 815h59l81 -114l84 114h59l-118 -155
h-48z" />
    <glyph glyph-name="Eng" unicode="&#x14a;" horiz-adv-x="742" 
d="M453 -157h49q58 0 82.5 28.5t24.5 89.5v39l-476 643v-643h-58v730h64l470 -635v635h58v-771q0 -82 -37 -127t-123 -45h-54v56z" />
    <glyph glyph-name="eng" unicode="&#x14b;" horiz-adv-x="707" 
d="M412 -212q47 0 77.5 5t48 21.5t24 47t6.5 80.5v387q0 49 -14.5 88.5t-41.5 67.5t-66 43.5t-88 15.5q-46 0 -85.5 -16.5t-68.5 -45.5t-45.5 -68.5t-16.5 -85.5v-328h-57v585h55v-119q29 58 88 94.5t137 36.5q59 0 106.5 -18.5t82 -53.5t53 -84.5t18.5 -112.5v-387
q0 -62 -9.5 -102.5t-33 -64t-63 -33t-99.5 -9.5h-8v56z" />
    <glyph glyph-name="Omacron" unicode="&#x14c;" horiz-adv-x="855" 
d="M292 845h264v-50h-264v50zM428 -10q-78 0 -146 29.5t-119 80.5t-80.5 119t-29.5 146t29.5 146t80.5 119t119 80.5t146 29.5t146 -29.5t119 -80.5t80.5 -119t29.5 -146t-29.5 -146t-80.5 -119t-119 -80.5t-146 -29.5zM428 45q67 0 124.5 25.5t100 69t66.5 101.5t24 124
t-24 124.5t-66.5 102t-100 68.5t-124.5 25t-124.5 -25t-100 -68.5t-67 -102t-24.5 -124.5t24.5 -124t67 -101.5t100 -69t124.5 -25.5z" />
    <glyph glyph-name="omacron" unicode="&#x14d;" horiz-adv-x="726" 
d="M230 720h264v-50h-264v50zM363 -12q-63 0 -118.5 23.5t-97 64.5t-65 96.5t-23.5 119.5t23.5 119.5t65 97t97 65t118.5 23.5t118.5 -23.5t96.5 -65t65 -97t24 -119.5t-24 -119.5t-65 -96.5t-96.5 -64.5t-118.5 -23.5zM363 41q51 0 96 19.5t78 53.5t52 80t19 98
q0 53 -19 98.5t-52 80t-78 54t-96 19.5q-52 0 -97 -19.5t-78 -54t-52 -80t-19 -98.5q0 -52 19 -98t52 -80t78 -53.5t97 -19.5z" />
    <glyph glyph-name="Obreve" unicode="&#x14e;" horiz-adv-x="855" 
d="M428 -10q-78 0 -146 29.5t-119 80.5t-80.5 119t-29.5 146t29.5 146t80.5 119t119 80.5t146 29.5t146 -29.5t119 -80.5t80.5 -119t29.5 -146t-29.5 -146t-80.5 -119t-119 -80.5t-146 -29.5zM428 45q67 0 124.5 25.5t100 69t66.5 101.5t24 124t-24 124.5t-66.5 102
t-100 68.5t-124.5 25t-124.5 -25t-100 -68.5t-67 -102t-24.5 -124.5t24.5 -124t67 -101.5t100 -69t124.5 -25.5zM423 792q-41 0 -71.5 13t-50.5 34.5t-29.5 50t-9.5 59.5h49q0 -47 28 -80t84 -33q54 0 82.5 33t28.5 80h51q0 -31 -11 -59.5t-32 -50t-51 -34.5t-68 -13z" />
    <glyph glyph-name="obreve" unicode="&#x14f;" horiz-adv-x="726" 
d="M363 -12q-63 0 -118.5 23.5t-97 64.5t-65 96.5t-23.5 119.5t23.5 119.5t65 97t97 65t118.5 23.5t118.5 -23.5t96.5 -65t65 -97t24 -119.5t-24 -119.5t-65 -96.5t-96.5 -64.5t-118.5 -23.5zM363 41q51 0 96 19.5t78 53.5t52 80t19 98q0 53 -19 98.5t-52 80t-78 54
t-96 19.5q-52 0 -97 -19.5t-78 -54t-52 -80t-19 -98.5q0 -52 19 -98t52 -80t78 -53.5t97 -19.5zM362 657q-41 0 -71.5 13t-50.5 34.5t-29.5 50t-9.5 59.5h49q0 -47 28 -80t84 -33q54 0 82.5 33t28.5 80h51q0 -31 -11 -59.5t-32 -50t-51 -34.5t-68 -13z" />
    <glyph glyph-name="Ohungarumlaut" unicode="&#x150;" horiz-adv-x="855" 
d="M447 950h71l-140 -155h-50zM569 950h71l-140 -155h-51zM428 -10q-78 0 -146 29.5t-119 80.5t-80.5 119t-29.5 146t29.5 146t80.5 119t119 80.5t146 29.5t146 -29.5t119 -80.5t80.5 -119t29.5 -146t-29.5 -146t-80.5 -119t-119 -80.5t-146 -29.5zM428 45q67 0 124.5 25.5
t100 69t66.5 101.5t24 124t-24 124.5t-66.5 102t-100 68.5t-124.5 25t-124.5 -25t-100 -68.5t-67 -102t-24.5 -124.5t24.5 -124t67 -101.5t100 -69t124.5 -25.5z" />
    <glyph glyph-name="ohungarumlaut" unicode="&#x151;" horiz-adv-x="726" 
d="M391 815h71l-140 -155h-50zM513 815h71l-140 -155h-51zM363 -12q-63 0 -118.5 23.5t-97 64.5t-65 96.5t-23.5 119.5t23.5 119.5t65 97t97 65t118.5 23.5t118.5 -23.5t96.5 -65t65 -97t24 -119.5t-24 -119.5t-65 -96.5t-96.5 -64.5t-118.5 -23.5zM363 41q51 0 96 19.5
t78 53.5t52 80t19 98q0 53 -19 98.5t-52 80t-78 54t-96 19.5q-52 0 -97 -19.5t-78 -54t-52 -80t-19 -98.5q0 -52 19 -98t52 -80t78 -53.5t97 -19.5z" />
    <glyph glyph-name="OE" unicode="&#x152;" horiz-adv-x="1255" 
d="M744 174q-47 -83 -129 -133.5t-188 -50.5q-78 0 -146 29.5t-118.5 80.5t-80 119t-29.5 146t29.5 146t80 119t118.5 80.5t146 29.5q106 0 188 -50.5t129 -133.5v174h446v-55h-388v-282h388v-54h-388v-284h388v-55h-446v174zM427 47q66 0 124 25t100.5 68.5t67.5 101
t25 123.5t-25 124t-67.5 101.5t-100.5 68.5t-124 25t-123.5 -25t-100 -68.5t-67.5 -101.5t-25 -124t25 -123.5t67.5 -101t100 -68.5t123.5 -25z" />
    <glyph glyph-name="oe" unicode="&#x153;" horiz-adv-x="1275" 
d="M363 -12q-63 0 -118.5 23.5t-97 64.5t-65 96.5t-23.5 119.5t23.5 119.5t65 97t97 65t118.5 23.5q47 0 89.5 -13t77.5 -36.5t62.5 -56.5t44.5 -73q17 40 43.5 73t62 56.5t78.5 36.5t92 13q64 0 118.5 -22t95 -62t63.5 -95t23 -120v-20h-549q2 -51 22 -94.5t54 -75.5
t79 -50t97 -18q89 0 150 47t85 122l51 -23q-15 -45 -41.5 -81.5t-63.5 -62.5t-82.5 -40t-98.5 -14q-102 0 -175 48.5t-106 128.5q-17 -39 -44 -72t-62 -56t-77 -36t-89 -13zM363 41q51 0 96 19.5t78 53.5t52 80t19 98q0 53 -19 98.5t-52 80t-78 54t-96 19.5q-52 0 -97 -19.5
t-78 -54t-52 -80t-19 -98.5q0 -52 19 -98t52 -80t78 -53.5t97 -19.5zM913 545q-48 0 -90 -16.5t-74.5 -45.5t-53.5 -68t-28 -85h487q-5 48 -24.5 87.5t-51 68t-73.5 44t-92 15.5z" />
    <glyph glyph-name="Racute" unicode="&#x154;" horiz-adv-x="596" 
d="M330 272h-197v-272h-58v730h228q51 0 95 -18t76.5 -49t50.5 -72.5t18 -88.5q0 -36 -11.5 -70t-32.5 -62t-50.5 -49.5t-65.5 -32.5l164 -288h-65zM133 677v-352h165q42 0 76 14.5t59 39.5t38.5 57t13.5 66q0 37 -13.5 69t-38 55.5t-59 37t-75.5 13.5h-166zM357 950h75
l-140 -155h-54z" />
    <glyph glyph-name="racute" unicode="&#x155;" horiz-adv-x="450" 
d="M85 585h55v-104q23 53 67 81.5t106 28.5q39 0 66.5 -8.5t54.5 -24.5l-34 -50q-20 14 -40.5 22t-48.5 8q-78 0 -123.5 -51.5t-45.5 -143.5v-343h-57v585zM342 812h75l-140 -155h-54z" />
    <glyph glyph-name="Rcommaaccent" unicode="&#x156;" horiz-adv-x="596" 
d="M330 272h-197v-272h-58v730h228q51 0 95 -18t76.5 -49t50.5 -72.5t18 -88.5q0 -36 -11.5 -70t-32.5 -62t-50.5 -49.5t-65.5 -32.5l164 -288h-65zM133 677v-352h165q42 0 76 14.5t59 39.5t38.5 57t13.5 66q0 37 -13.5 69t-38 55.5t-59 37t-75.5 13.5h-166zM246 -281
l43 204h55l-58 -204h-40z" />
    <glyph glyph-name="rcommaaccent" unicode="&#x157;" horiz-adv-x="450" 
d="M85 585h55v-104q23 53 67 81.5t106 28.5q39 0 66.5 -8.5t54.5 -24.5l-34 -50q-20 14 -40.5 22t-48.5 8q-78 0 -123.5 -51.5t-45.5 -143.5v-343h-57v585zM42 -258l43 204h55l-58 -204h-40z" />
    <glyph glyph-name="Rcaron" unicode="&#x158;" horiz-adv-x="596" 
d="M330 272h-197v-272h-58v730h228q51 0 95 -18t76.5 -49t50.5 -72.5t18 -88.5q0 -36 -11.5 -70t-32.5 -62t-50.5 -49.5t-65.5 -32.5l164 -288h-65zM133 677v-352h165q42 0 76 14.5t59 39.5t38.5 57t13.5 66q0 37 -13.5 69t-38 55.5t-59 37t-75.5 13.5h-166zM167 950h59
l81 -114l84 114h59l-118 -155h-48z" />
    <glyph glyph-name="rcaron" unicode="&#x159;" horiz-adv-x="450" 
d="M85 585h55v-104q23 53 67 81.5t106 28.5q39 0 66.5 -8.5t54.5 -24.5l-34 -50q-20 14 -40.5 22t-48.5 8q-78 0 -123.5 -51.5t-45.5 -143.5v-343h-57v585zM110 811h59l81 -114l84 114h59l-118 -155h-48z" />
    <glyph glyph-name="Sacute" unicode="&#x15a;" horiz-adv-x="557" 
d="M366 949h75l-140 -155h-54zM273 -10q-81 0 -141.5 32.5t-101.5 87.5l48 37q35 -51 84 -77.5t111 -26.5q37 0 69 11t55.5 31t37 48.5t13.5 63.5q0 37 -15.5 62.5t-41.5 43.5t-59.5 30.5t-69.5 24.5q-38 12 -74.5 27t-65.5 37t-47 54t-18 79q0 40 17 74t46 58.5t68.5 38.5
t85.5 14q74 0 126.5 -27t88.5 -73l-45 -35q-29 41 -70.5 62.5t-99.5 21.5q-33 0 -62 -10t-50.5 -27.5t-33.5 -42t-12 -54.5q0 -35 15 -59t40.5 -40.5t58.5 -28.5l68 -24q38 -13 75.5 -28t67 -38.5t47.5 -57t18 -82.5q0 -43 -17 -80.5t-48 -65.5t-74 -44.5t-94 -16.5z" />
    <glyph glyph-name="sacute" unicode="&#x15b;" horiz-adv-x="542" 
d="M355 815h75l-140 -155h-54zM267 -12q-75 0 -135 30.5t-95 78.5l45 36q29 -40 77.5 -67t108.5 -27q40 0 69.5 10t49.5 27t30 39.5t10 46.5q0 29 -14.5 47.5t-38.5 31t-54.5 21t-62.5 16.5q-36 9 -70.5 20t-61.5 28.5t-43.5 44.5t-16.5 67q0 32 14 61t40.5 51t63.5 35
t83 13q63 0 116 -22.5t88 -62.5l-43 -35q-30 34 -69 52t-92 18q-69 0 -106.5 -31t-37.5 -78q0 -27 14 -45t37 -30.5t52.5 -21t61.5 -16.5q36 -9 71.5 -20.5t63 -29.5t45 -45t17.5 -69q0 -31 -13 -62t-39.5 -56t-67.5 -40.5t-97 -15.5z" />
    <glyph glyph-name="Scircumflex" unicode="&#x15c;" horiz-adv-x="557" 
d="M273 -10q-81 0 -141.5 32.5t-101.5 87.5l48 37q35 -51 84 -77.5t111 -26.5q37 0 69 11t55.5 31t37 48.5t13.5 63.5q0 37 -15.5 62.5t-41.5 43.5t-59.5 30.5t-69.5 24.5q-38 12 -74.5 27t-65.5 37t-47 54t-18 79q0 40 17 74t46 58.5t68.5 38.5t85.5 14q74 0 126.5 -27
t88.5 -73l-45 -35q-29 41 -70.5 62.5t-99.5 21.5q-33 0 -62 -10t-50.5 -27.5t-33.5 -42t-12 -54.5q0 -35 15 -59t40.5 -40.5t58.5 -28.5l68 -24q38 -13 75.5 -28t67 -38.5t47.5 -57t18 -82.5q0 -43 -17 -80.5t-48 -65.5t-74 -44.5t-94 -16.5zM253 950h49l119 -155h-61
l-83 110l-83 -110h-60z" />
    <glyph glyph-name="scircumflex" unicode="&#x15d;" horiz-adv-x="542" 
d="M267 -12q-75 0 -135 30.5t-95 78.5l45 36q29 -40 77.5 -67t108.5 -27q40 0 69.5 10t49.5 27t30 39.5t10 46.5q0 29 -14.5 47.5t-38.5 31t-54.5 21t-62.5 16.5q-36 9 -70.5 20t-61.5 28.5t-43.5 44.5t-16.5 67q0 32 14 61t40.5 51t63.5 35t83 13q63 0 116 -22.5t88 -62.5
l-43 -35q-30 34 -69 52t-92 18q-69 0 -106.5 -31t-37.5 -78q0 -27 14 -45t37 -30.5t52.5 -21t61.5 -16.5q36 -9 71.5 -20.5t63 -29.5t45 -45t17.5 -69q0 -31 -13 -62t-39.5 -56t-67.5 -40.5t-97 -15.5zM240 812h49l119 -155h-61l-83 110l-83 -110h-60z" />
    <glyph glyph-name="Scedilla" unicode="&#x15e;" horiz-adv-x="557" 
d="M281 -227q-47 0 -80.5 15t-58.5 38l46 28q20 -17 40 -27.5t53 -10.5q35 0 57.5 14t22.5 36q0 20 -21.5 32t-61.5 12h-33v82q-71 5 -124.5 36t-90.5 82l48 37q35 -51 84 -77.5t111 -26.5q37 0 69 11t55.5 31t37 48.5t13.5 63.5q0 37 -15.5 62.5t-41.5 43.5t-59.5 30.5
t-69.5 24.5q-38 12 -74.5 27t-65.5 37t-47 54t-18 79q0 40 17 74t46 58.5t68.5 38.5t85.5 14q74 0 126.5 -27t88.5 -73l-45 -35q-29 41 -70.5 62.5t-99.5 21.5q-33 0 -62 -10t-50.5 -27.5t-33.5 -42t-12 -54.5q0 -35 15 -59t40.5 -40.5t58.5 -28.5l68 -24q38 -13 75.5 -28
t67 -38.5t47.5 -57t18 -82.5q0 -40 -15.5 -76t-43.5 -64t-67 -45.5t-86 -20.5v-44q54 -1 87.5 -22.5t33.5 -56.5q0 -21 -10.5 -38.5t-28.5 -30t-42.5 -19.5t-52.5 -7z" />
    <glyph glyph-name="scedilla" unicode="&#x15f;" horiz-adv-x="542" 
d="M276 -232q-47 0 -80.5 15t-58.5 38l46 28q20 -17 40 -27.5t53 -10.5q35 0 57.5 14t22.5 36q0 20 -21.5 32t-61.5 12h-33v85q-66 5 -118.5 34.5t-84.5 72.5l45 36q29 -40 77.5 -67t108.5 -27q40 0 69.5 10t49.5 27t30 39.5t10 46.5q0 29 -14.5 47.5t-38.5 31t-54.5 21
t-62.5 16.5q-36 9 -70.5 20t-61.5 28.5t-43.5 44.5t-16.5 67q0 32 14 61t40.5 51t63.5 35t83 13q63 0 116 -22.5t88 -62.5l-43 -35q-30 34 -69 52t-92 18q-69 0 -106.5 -31t-37.5 -78q0 -27 14 -45t37 -30.5t52.5 -21t61.5 -16.5q36 -9 71.5 -20.5t63 -29.5t45 -45t17.5 -69
q0 -29 -11.5 -58.5t-35.5 -54t-61 -41t-87 -19.5v-47q54 -1 87.5 -22.5t33.5 -56.5q0 -21 -10.5 -38.5t-28.5 -30t-42.5 -19.5t-52.5 -7z" />
    <glyph glyph-name="Scaron" unicode="&#x160;" horiz-adv-x="557" 
d="M273 -10q-81 0 -141.5 32.5t-101.5 87.5l48 37q35 -51 84 -77.5t111 -26.5q37 0 69 11t55.5 31t37 48.5t13.5 63.5q0 37 -15.5 62.5t-41.5 43.5t-59.5 30.5t-69.5 24.5q-38 12 -74.5 27t-65.5 37t-47 54t-18 79q0 40 17 74t46 58.5t68.5 38.5t85.5 14q74 0 126.5 -27
t88.5 -73l-45 -35q-29 41 -70.5 62.5t-99.5 21.5q-33 0 -62 -10t-50.5 -27.5t-33.5 -42t-12 -54.5q0 -35 15 -59t40.5 -40.5t58.5 -28.5l68 -24q38 -13 75.5 -28t67 -38.5t47.5 -57t18 -82.5q0 -43 -17 -80.5t-48 -65.5t-74 -44.5t-94 -16.5zM138 950h59l81 -114l84 114h59
l-118 -155h-48z" />
    <glyph glyph-name="scaron" unicode="&#x161;" horiz-adv-x="542" 
d="M267 -12q-75 0 -135 30.5t-95 78.5l45 36q29 -40 77.5 -67t108.5 -27q40 0 69.5 10t49.5 27t30 39.5t10 46.5q0 29 -14.5 47.5t-38.5 31t-54.5 21t-62.5 16.5q-36 9 -70.5 20t-61.5 28.5t-43.5 44.5t-16.5 67q0 32 14 61t40.5 51t63.5 35t83 13q63 0 116 -22.5t88 -62.5
l-43 -35q-30 34 -69 52t-92 18q-69 0 -106.5 -31t-37.5 -78q0 -27 14 -45t37 -30.5t52.5 -21t61.5 -16.5q36 -9 71.5 -20.5t63 -29.5t45 -45t17.5 -69q0 -31 -13 -62t-39.5 -56t-67.5 -40.5t-97 -15.5zM125 815h59l81 -114l84 114h59l-118 -155h-48z" />
    <glyph glyph-name="Tcommaaccent" unicode="&#x162;" horiz-adv-x="610" 
d="M238 -269l43 204h55l-58 -204h-40zM276 677h-228v53h514v-53h-228v-677h-58v677z" />
    <glyph glyph-name="tcommaaccent" unicode="&#x163;" horiz-adv-x="402" 
d="M36 585h104v136l55 36v-172h154v-52h-154v-323q0 -50 6.5 -81t23.5 -48t47 -22.5t77 -5.5v-53h-9q-60 0 -98.5 9t-61 32.5t-31.5 64t-9 103.5v324h-104v52zM170 -269l43 204h55l-58 -204h-40z" />
    <glyph glyph-name="Tcaron" unicode="&#x164;" horiz-adv-x="610" 
d="M276 677h-228v53h514v-53h-228v-677h-58v677zM160 950h59l81 -114l84 114h59l-118 -155h-48z" />
    <glyph glyph-name="tcaron" unicode="&#x165;" horiz-adv-x="402" 
d="M36 585h104v136l55 36v-172h154v-52h-154v-323q0 -50 6.5 -81t23.5 -48t47 -22.5t77 -5.5v-53h-9q-60 0 -98.5 9t-61 32.5t-31.5 64t-9 103.5v324h-104v52zM319 843h55l-63 -172h-41z" />
    <glyph glyph-name="Tbar" unicode="&#x166;" horiz-adv-x="610" 
d="M166 425h110v252h-228v53h514v-53h-228v-252h116v-53h-116v-372h-58v372h-110v53z" />
    <glyph glyph-name="tbar" unicode="&#x167;" horiz-adv-x="402" 
d="M36 585h104v136l55 36v-172h154v-52h-154v-193h154v-52h-154v-78q0 -50 6.5 -81t23.5 -48t47 -22.5t77 -5.5v-53h-9q-60 0 -98.5 9t-61 32.5t-31.5 64t-9 103.5v79h-104v52h104v193h-104v52z" />
    <glyph glyph-name="Utilde" unicode="&#x168;" horiz-adv-x="641" 
d="M320 -10q-53 0 -98.5 19t-78.5 52.5t-52 79t-19 97.5v492h58v-495q0 -39 14.5 -74t40 -60.5t60.5 -40.5t75 -15t75 15t60.5 41t40.5 60.5t15 74.5v494h58v-492q0 -52 -19 -97.5t-52.5 -79t-79 -52.5t-98.5 -19zM149 795q0 50 26 79t67 29q25 0 45.5 -9t40.5 -21l36.5 -21
t35.5 -10q23 0 36.5 14t13.5 44h46q0 -51 -24.5 -80t-70.5 -29q-29 0 -51.5 11.5t-42.5 23.5l-32 18.5t-33 8.5q-20 0 -33 -14.5t-13 -43.5h-47z" />
    <glyph glyph-name="utilde" unicode="&#x169;" horiz-adv-x="707" 
d="M345 -12q-61 0 -110 18.5t-83 53.5t-52 84.5t-18 112.5v328h58v-329q0 -49 14 -88.5t41 -67.5t66 -43.5t88 -15.5q46 0 85.5 16.5t69 45.5t46 68.5t16.5 85.5v328h57v-585h-56v119q-29 -58 -87 -94.5t-135 -36.5zM186 660q0 50 26 79t67 29q25 0 45.5 -9t40.5 -21
l36.5 -21t35.5 -10q23 0 36.5 14t13.5 44h46q0 -51 -24.5 -80t-70.5 -29q-29 0 -51.5 11.5t-42.5 23.5l-32 18.5t-33 8.5q-20 0 -33 -14.5t-13 -43.5h-47z" />
    <glyph glyph-name="Umacron" unicode="&#x16a;" horiz-adv-x="641" 
d="M320 -10q-53 0 -98.5 19t-78.5 52.5t-52 79t-19 97.5v492h58v-495q0 -39 14.5 -74t40 -60.5t60.5 -40.5t75 -15t75 15t60.5 41t40.5 60.5t15 74.5v494h58v-492q0 -52 -19 -97.5t-52.5 -79t-79 -52.5t-98.5 -19zM187 845h264v-50h-264v50z" />
    <glyph glyph-name="umacron" unicode="&#x16b;" horiz-adv-x="707" 
d="M345 -12q-61 0 -110 18.5t-83 53.5t-52 84.5t-18 112.5v328h58v-329q0 -49 14 -88.5t41 -67.5t66 -43.5t88 -15.5q46 0 85.5 16.5t69 45.5t46 68.5t16.5 85.5v328h57v-585h-56v119q-29 -58 -87 -94.5t-135 -36.5zM221 714h264v-50h-264v50z" />
    <glyph glyph-name="Ubreve" unicode="&#x16c;" horiz-adv-x="641" 
d="M320 -10q-53 0 -98.5 19t-78.5 52.5t-52 79t-19 97.5v492h58v-495q0 -39 14.5 -74t40 -60.5t60.5 -40.5t75 -15t75 15t60.5 41t40.5 60.5t15 74.5v494h58v-492q0 -52 -19 -97.5t-52.5 -79t-79 -52.5t-98.5 -19zM317 791q-41 0 -71.5 13t-50.5 34.5t-29.5 50t-9.5 59.5h49
q0 -47 28 -80t84 -33q54 0 82.5 33t28.5 80h51q0 -31 -11 -59.5t-32 -50t-51 -34.5t-68 -13z" />
    <glyph glyph-name="ubreve" unicode="&#x16d;" horiz-adv-x="707" 
d="M345 -12q-61 0 -110 18.5t-83 53.5t-52 84.5t-18 112.5v328h58v-329q0 -49 14 -88.5t41 -67.5t66 -43.5t88 -15.5q46 0 85.5 16.5t69 45.5t46 68.5t16.5 85.5v328h57v-585h-56v119q-29 -58 -87 -94.5t-135 -36.5zM355 643q-41 0 -71.5 13t-50.5 34.5t-29.5 50t-9.5 59.5
h49q0 -47 28 -80t84 -33q54 0 82.5 33t28.5 80h51q0 -31 -11 -59.5t-32 -50t-51 -34.5t-68 -13z" />
    <glyph glyph-name="Uring" unicode="&#x16e;" horiz-adv-x="641" 
d="M315 791q-41 0 -69.5 28.5t-28.5 70.5t28.5 71t69.5 29q43 0 72 -29t29 -71t-29 -70.5t-72 -28.5zM315 836q23 0 39.5 15.5t16.5 38.5t-16.5 39t-39.5 16q-22 0 -38 -16t-16 -39t16 -38.5t38 -15.5zM320 -10q-53 0 -98.5 19t-78.5 52.5t-52 79t-19 97.5v492h58v-495
q0 -39 14.5 -74t40 -60.5t60.5 -40.5t75 -15t75 15t60.5 41t40.5 60.5t15 74.5v494h58v-492q0 -52 -19 -97.5t-52.5 -79t-79 -52.5t-98.5 -19z" />
    <glyph glyph-name="uring" unicode="&#x16f;" horiz-adv-x="707" 
d="M345 -12q-61 0 -110 18.5t-83 53.5t-52 84.5t-18 112.5v328h58v-329q0 -49 14 -88.5t41 -67.5t66 -43.5t88 -15.5q46 0 85.5 16.5t69 45.5t46 68.5t16.5 85.5v328h57v-585h-56v119q-29 -58 -87 -94.5t-135 -36.5zM351 617q-41 0 -69.5 28.5t-28.5 70.5t28.5 71t69.5 29
q43 0 72 -29t29 -71t-29 -70.5t-72 -28.5zM351 662q23 0 39.5 15.5t16.5 38.5t-16.5 39t-39.5 16q-22 0 -38 -16t-16 -39t16 -38.5t38 -15.5z" />
    <glyph glyph-name="Uhungarumlaut" unicode="&#x170;" horiz-adv-x="641" 
d="M320 -10q-53 0 -98.5 19t-78.5 52.5t-52 79t-19 97.5v492h58v-495q0 -39 14.5 -74t40 -60.5t60.5 -40.5t75 -15t75 15t60.5 41t40.5 60.5t15 74.5v494h58v-492q0 -52 -19 -97.5t-52.5 -79t-79 -52.5t-98.5 -19zM336 950h71l-140 -155h-50zM458 950h71l-140 -155h-51z" />
    <glyph glyph-name="uhungarumlaut" unicode="&#x171;" horiz-adv-x="707" 
d="M345 -12q-61 0 -110 18.5t-83 53.5t-52 84.5t-18 112.5v328h58v-329q0 -49 14 -88.5t41 -67.5t66 -43.5t88 -15.5q46 0 85.5 16.5t69 45.5t46 68.5t16.5 85.5v328h57v-585h-56v119q-29 -58 -87 -94.5t-135 -36.5zM487 804h71l-140 -155h-51zM365 804h71l-140 -155h-50z
" />
    <glyph glyph-name="Uogonek" unicode="&#x172;" horiz-adv-x="641" 
d="M322 -210q-58 0 -93.5 27t-35.5 68q0 29 17.5 55.5t61.5 54.5q-44 8 -80.5 29.5t-63 53.5t-41.5 73t-15 87v492h58v-495q0 -39 14.5 -74t40 -60.5t60.5 -40.5t75 -15t75 15t60.5 41t40.5 60.5t15 74.5v494h58v-492q0 -46 -15 -87.5t-42 -73.5t-64.5 -53.5t-82.5 -29.5
q-33 -18 -55 -32.5t-35 -27t-18.5 -23.5t-5.5 -23q0 -24 20 -37.5t51 -13.5q28 0 48 11.5t38 27.5l45 -31q-24 -22 -58.5 -38.5t-72.5 -16.5z" />
    <glyph glyph-name="uogonek" unicode="&#x173;" horiz-adv-x="707" 
d="M600 -218q-58 0 -85.5 30t-27.5 71q0 35 22.5 68t57.5 62v106q-29 -58 -87 -94.5t-135 -36.5q-61 0 -110 18.5t-83 53.5t-52 84.5t-18 112.5v328h58v-329q0 -49 14 -88.5t41 -67.5t66 -43.5t88 -15.5q46 0 85.5 16.5t69 45.5t46 68.5t16.5 85.5v328h57v-585
q-40 -32 -61 -60.5t-21 -54.5q0 -24 16 -39t43 -15q24 0 40.5 9t32.5 23l33 -40q-21 -17 -48.5 -29t-57.5 -12z" />
    <glyph glyph-name="Wcircumflex" unicode="&#x174;" horiz-adv-x="1072" 
d="M42 730h61l186 -641l218 641h55l216 -641l193 641h60l-223 -730h-59l-216 640l-217 -640h-59zM508 950h49l119 -155h-61l-83 110l-83 -110h-60z" />
    <glyph glyph-name="wcircumflex" unicode="&#x175;" horiz-adv-x="979" 
d="M47 585h61l159 -501l199 501h49l193 -503l164 503h60l-194 -585h-54l-195 502l-200 -502h-54zM465 803h49l119 -155h-61l-83 110l-83 -110h-60z" />
    <glyph glyph-name="Ycircumflex" unicode="&#x176;" horiz-adv-x="612" 
d="M278 347l-245 383h65l208 -328l208 328h65l-243 -381v-349h-58v347zM280 950h49l119 -155h-61l-83 110l-83 -110h-60z" />
    <glyph glyph-name="ycircumflex" unicode="&#x177;" horiz-adv-x="654" 
d="M305 33l-262 552h64l229 -487l214 487h62l-382 -855h-62zM307 806h49l119 -155h-61l-83 110l-83 -110h-60z" />
    <glyph glyph-name="Ydieresis" unicode="&#x178;" horiz-adv-x="612" 
d="M278 347l-245 383h65l208 -328l208 328h65l-243 -381v-349h-58v347zM346 880q0 19 12.5 31t31.5 12q20 0 31.5 -12t11.5 -31t-11.5 -31.5t-31.5 -12.5t-32 12.5t-12 31.5zM178 880q0 19 12.5 31t31.5 12q20 0 31.5 -12t11.5 -31t-11.5 -31.5t-31.5 -12.5t-32 12.5
t-12 31.5z" />
    <glyph glyph-name="Zacute" unicode="&#x179;" horiz-adv-x="600" 
d="M58 53l415 622h-399v55h467v-53l-415 -622h417v-55h-485v53zM386 950h75l-140 -155h-54z" />
    <glyph glyph-name="zacute" unicode="&#x17a;" horiz-adv-x="628" 
d="M57 54l439 479h-424v52h495v-54l-437 -478h441v-53h-514v54zM402 807h75l-140 -155h-54z" />
    <glyph glyph-name="Zdotaccent" unicode="&#x17b;" horiz-adv-x="600" 
d="M58 53l415 622h-399v55h467v-53l-415 -622h417v-55h-485v53zM256 880q0 21 14 34.5t35 13.5q23 0 36 -13.5t13 -34.5t-13 -35t-36 -14t-36 14t-13 35z" />
    <glyph glyph-name="zdotaccent" unicode="&#x17c;" horiz-adv-x="628" 
d="M57 54l439 479h-424v52h495v-54l-437 -478h441v-53h-514v54zM274 698q0 21 14 34.5t35 13.5q23 0 36 -13.5t13 -34.5t-13 -35t-36 -14t-36 14t-13 35z" />
    <glyph glyph-name="Zcaron" unicode="&#x17d;" horiz-adv-x="600" 
d="M58 53l415 622h-399v55h467v-53l-415 -622h417v-55h-485v53zM162 950h59l81 -114l84 114h59l-118 -155h-48z" />
    <glyph glyph-name="zcaron" unicode="&#x17e;" horiz-adv-x="628" 
d="M57 54l439 479h-424v52h495v-54l-437 -478h441v-53h-514v54zM180 806h59l81 -114l84 114h59l-118 -155h-48z" />
    <glyph glyph-name="florin" unicode="&#x192;" 
d="M122 403h159l43 141q16 54 34.5 89.5t42 57t53 30.5t67.5 9h4v-52q-28 0 -49.5 -6.5t-38 -22t-30 -42.5t-25.5 -69l-41 -135h148v-51h-164l-50 -166q-16 -53 -32.5 -88.5t-40 -57.5t-55.5 -31t-79 -9h-5v53q35 0 59 6.5t41 22t29.5 42.5t24.5 68l48 160h-143v51z" />
    <glyph glyph-name="Aringacute" unicode="&#x1fa;" horiz-adv-x="698" 
d="M305 697q-26 11 -42.5 36t-16.5 56q0 42 28.5 71t69.5 29q43 0 72 -29t29 -71q0 -29 -15 -52.5t-39 -35.5l270 -701h-61l-79 204h-345l-78 -204h-61zM197 259h303l-151 394zM434 1076h75l-140 -155h-54zM344 735q23 0 39.5 15.5t16.5 38.5t-16.5 39t-39.5 16
q-22 0 -38 -16t-16 -39t16 -38.5t38 -15.5z" />
    <glyph glyph-name="aringacute" unicode="&#x1fb;" horiz-adv-x="747" 
d="M361 -12q-64 0 -119.5 24t-96 65.5t-63.5 96.5t-23 118q0 53 16.5 101t46 87t71 66.5t90.5 40.5q-23 26 -23 64q0 42 28.5 71t69.5 29q43 0 72 -29t29 -71q0 -36 -24 -65q54 -14 99.5 -48.5t71.5 -87.5v135h56v-585h-56v134q-17 -35 -44 -62.5t-59.5 -46t-69 -28
t-72.5 -9.5zM363 41q53 0 98 19.5t79 53.5t53 80t19 98t-19 98t-53 80t-79 54t-98 20q-51 0 -96 -19.5t-78.5 -54t-52.5 -80t-19 -98.5q0 -52 19 -98t52.5 -80t78.5 -53.5t96 -19.5zM446 941h75l-140 -155h-54zM362 597q22 2 37 17t15 37q0 23 -16.5 39t-39.5 16
q-22 0 -38 -16t-16 -39t16 -38.5t38 -15.5h4z" />
    <glyph glyph-name="AEacute" unicode="&#x1fc;" horiz-adv-x="1037" 
d="M401 730h561v-55h-485l63 -282h422v-54h-410l63 -284h347v-55h-393l-45 199h-327l-100 -199h-66zM224 252h288l-88 395zM691 950h75l-140 -155h-54z" />
    <glyph glyph-name="aeacute" unicode="&#x1fd;" horiz-adv-x="1147" 
d="M789 -12q-91 0 -160.5 40t-107.5 107q-14 -26 -38 -52.5t-56.5 -47.5t-74 -34t-90.5 -13q-55 0 -93 12.5t-62 34t-35.5 50t-11.5 60.5q-1 43 16.5 73t47.5 50.5t70.5 33.5t85.5 22q40 9 78.5 16.5t68.5 19t48 29t18 44.5q0 51 -43.5 84t-132.5 33q-91 0 -141.5 -44
t-50.5 -114v-4h-54v2q0 47 17.5 85t49.5 65t77 42t101 15q94 0 150 -33t73 -90q41 57 104.5 90t141.5 33q64 0 119 -22t95.5 -62t63.5 -95t23 -120v-20h-549q2 -51 22 -94.5t53.5 -75.5t79 -50t97.5 -18q88 0 149.5 47t84.5 122l52 -23q-15 -45 -42 -81.5t-64 -62.5t-82 -40
t-98 -14zM785 545q-48 0 -90 -16.5t-74 -45.5t-53 -68t-28 -85h486q-5 48 -24.5 87.5t-51 68t-73.5 44t-92 15.5zM264 37q47 0 85 14.5t67 37t49 49.5t31 52q-15 47 -15 100q0 14 1 27t3 26q-20 -25 -65.5 -37t-117.5 -26q-40 -7 -73.5 -16.5t-58 -24.5t-38.5 -37.5
t-14 -55.5q0 -22 8 -42t25.5 -35t45.5 -23.5t67 -8.5zM645 798h75l-140 -155h-54z" />
    <glyph glyph-name="Oslashacute" unicode="&#x1fe;" horiz-adv-x="855" 
d="M182 82q-60 52 -94.5 125t-34.5 158q0 78 29.5 146t80.5 119t119 80.5t146 29.5q57 0 108 -15.5t95 -44.5l38 50h68l-63 -83q60 -52 94.5 -124.5t34.5 -157.5q0 -78 -29.5 -146t-80.5 -119t-119 -80.5t-146 -29.5q-57 0 -108 15t-95 44l-37 -49h-68zM112 365
q0 -71 27.5 -132.5t75.5 -105.5l383 508q-37 24 -79.5 37t-90.5 13q-67 0 -124.5 -25t-100 -68.5t-67 -102t-24.5 -124.5zM428 45q67 0 124.5 25.5t100 69t66.5 101.5t24 124q0 71 -27.5 131.5t-75.5 105.5l-382 -508q37 -23 79.5 -36t90.5 -13zM511 950h75l-140 -155h-54z
" />
    <glyph glyph-name="oslashacute" unicode="&#x1ff;" horiz-adv-x="726" 
d="M363 -12q-45 0 -86 12t-76 34l-25 -34h-63l47 64q-47 42 -74 100.5t-27 127.5q0 64 23.5 119.5t65 97t97 65t118.5 23.5q45 0 85.5 -12t75.5 -34l25 34h65l-49 -65q48 -42 75 -100.5t27 -127.5q0 -64 -24 -119.5t-65 -96.5t-96.5 -64.5t-118.5 -23.5zM117 292
q0 -55 20.5 -102t56.5 -82l297 399q-57 37 -128 37q-52 0 -97 -19.5t-78 -54t-52 -80t-19 -98.5zM363 41q51 0 96 19.5t78 53.5t52 80t19 98q0 54 -20.5 101t-55.5 82l-298 -398q28 -17 60.5 -26.5t68.5 -9.5zM451 816h75l-140 -155h-54z" />
    <glyph glyph-name="Scommaaccent" unicode="&#x218;" horiz-adv-x="557" 
d="M213 -256l43 204h55l-58 -204h-40zM273 -10q-81 0 -141.5 32.5t-101.5 87.5l48 37q35 -51 84 -77.5t111 -26.5q37 0 69 11t55.5 31t37 48.5t13.5 63.5q0 37 -15.5 62.5t-41.5 43.5t-59.5 30.5t-69.5 24.5q-38 12 -74.5 27t-65.5 37t-47 54t-18 79q0 40 17 74t46 58.5
t68.5 38.5t85.5 14q74 0 126.5 -27t88.5 -73l-45 -35q-29 41 -70.5 62.5t-99.5 21.5q-33 0 -62 -10t-50.5 -27.5t-33.5 -42t-12 -54.5q0 -35 15 -59t40.5 -40.5t58.5 -28.5l68 -24q38 -13 75.5 -28t67 -38.5t47.5 -57t18 -82.5q0 -43 -17 -80.5t-48 -65.5t-74 -44.5
t-94 -16.5z" />
    <glyph glyph-name="scommaaccent" unicode="&#x219;" horiz-adv-x="542" 
d="M188 -282l43 204h55l-58 -204h-40zM267 -12q-75 0 -135 30.5t-95 78.5l45 36q29 -40 77.5 -67t108.5 -27q40 0 69.5 10t49.5 27t30 39.5t10 46.5q0 29 -14.5 47.5t-38.5 31t-54.5 21t-62.5 16.5q-36 9 -70.5 20t-61.5 28.5t-43.5 44.5t-16.5 67q0 32 14 61t40.5 51
t63.5 35t83 13q63 0 116 -22.5t88 -62.5l-43 -35q-30 34 -69 52t-92 18q-69 0 -106.5 -31t-37.5 -78q0 -27 14 -45t37 -30.5t52.5 -21t61.5 -16.5q36 -9 71.5 -20.5t63 -29.5t45 -45t17.5 -69q0 -31 -13 -62t-39.5 -56t-67.5 -40.5t-97 -15.5z" />
    <glyph glyph-name="dotlessj" unicode="&#x237;" horiz-adv-x="226" 
d="M-70 -212q47 0 77.5 5t47.5 21.5t23.5 47t6.5 80.5v643h57v-644q0 -62 -9.5 -102.5t-32.5 -64t-62.5 -33t-98.5 -9.5h-9v56z" />
    <glyph glyph-name="circumflex" unicode="&#x2c6;" horiz-adv-x="502" 
d="M227 720h49l119 -155h-61l-83 110l-83 -110h-60z" />
    <glyph glyph-name="caron" unicode="&#x2c7;" horiz-adv-x="502" 
d="M110 720h59l81 -114l84 114h59l-118 -155h-48z" />
    <glyph glyph-name="breve" unicode="&#x2d8;" horiz-adv-x="502" 
d="M250 558q-41 0 -71.5 13t-50.5 34.5t-29.5 50t-9.5 59.5h49q0 -47 28 -80t84 -33q54 0 82.5 33t28.5 80h51q0 -31 -11 -59.5t-32 -50t-51 -34.5t-68 -13z" />
    <glyph glyph-name="dotaccent" unicode="&#x2d9;" horiz-adv-x="506" 
d="M194 650q0 21 14 34.5t35 13.5q23 0 36 -13.5t13 -34.5t-13 -35t-36 -14t-36 14t-13 35z" />
    <glyph glyph-name="ring" unicode="&#x2da;" horiz-adv-x="502" 
d="M247 561q-41 0 -69.5 28.5t-28.5 70.5t28.5 71t69.5 29q43 0 72 -29t29 -71t-29 -70.5t-72 -28.5zM247 606q23 0 39.5 15.5t16.5 38.5t-16.5 39t-39.5 16q-22 0 -38 -16t-16 -39t16 -38.5t38 -15.5z" />
    <glyph glyph-name="ogonek" unicode="&#x2db;" horiz-adv-x="502" 
d="M244 -209q-58 0 -93.5 27t-35.5 68q0 36 29.5 70t104.5 69l46 -26q-36 -20 -59.5 -35t-37.5 -27.5t-19.5 -24t-5.5 -23.5q0 -24 20 -37.5t51 -13.5q28 0 48 11.5t38 27.5l45 -31q-24 -22 -58.5 -38.5t-72.5 -16.5z" />
    <glyph glyph-name="tilde" unicode="&#x2dc;" horiz-adv-x="502" 
d="M76 565q0 50 26 79t67 29q25 0 45.5 -9t40.5 -21l36.5 -21t35.5 -10q23 0 36.5 14t13.5 44h46q0 -51 -24.5 -80t-70.5 -29q-29 0 -51.5 11.5t-42.5 23.5l-32 18.5t-33 8.5q-20 0 -33 -14.5t-13 -43.5h-47z" />
    <glyph glyph-name="hungarumlaut" unicode="&#x2dd;" horiz-adv-x="502" 
d="M212 720h71l-140 -155h-50zM334 720h71l-140 -155h-51z" />
    <glyph glyph-name="uni0328" unicode="&#x328;" horiz-adv-x="502" 
d="M274 -218q-58 0 -85.5 30t-27.5 71q0 38 26.5 73.5t66.5 67.5l43 -24q-40 -32 -61 -60.5t-21 -54.5q0 -24 16 -39t43 -15q24 0 40.5 9t32.5 23l33 -40q-21 -17 -48.5 -29t-57.5 -12z" />
    <glyph glyph-name="pi" unicode="&#x3c0;" horiz-adv-x="741" 
d="M43 730h656v-56h-143v-499q0 -60 21.5 -90.5t75.5 -30.5h41v-54h-45q-81 0 -116 46t-35 129v499h-266v-674h-58v674h-131v56z" />
    <glyph glyph-name="pi" unicode="&#x3d6;" horiz-adv-x="741" 
d="M43 730h656v-56h-143v-499q0 -60 21.5 -90.5t75.5 -30.5h41v-54h-45q-81 0 -116 46t-35 129v499h-266v-674h-58v674h-131v56z" />
    <glyph glyph-name="uni0E3F" unicode="&#xe3f;" horiz-adv-x="536" 
d="M66 663h175v67h51v-67h3q40 0 73 -11t56.5 -31.5t36.5 -49.5t13 -64q0 -45 -21.5 -79.5t-62.5 -52.5q45 -17 69 -54t24 -88q0 -38 -13.5 -68.5t-37.5 -52.5t-57.5 -33.5t-74.5 -11.5h-8v-67h-51v67h-175v596zM123 120h118v227h-118v-227zM292 347v-227h9q57 0 91 32
t34 82t-32.5 81.5t-94.5 31.5h-7zM123 401h118v210h-118v-210zM292 611v-210h10q55 0 85.5 30.5t30.5 75.5q0 46 -34 75t-89 29h-3z" />
    <glyph glyph-name="Wgrave" unicode="&#x1e80;" horiz-adv-x="1072" 
d="M42 730h61l186 -641l218 641h55l216 -641l193 641h60l-223 -730h-59l-216 640l-217 -640h-59zM365 950h74l120 -155h-54z" />
    <glyph glyph-name="wgrave" unicode="&#x1e81;" horiz-adv-x="979" 
d="M47 585h61l159 -501l199 501h49l193 -503l164 503h60l-194 -585h-54l-195 502l-200 -502h-54zM321 808h74l120 -155h-54z" />
    <glyph glyph-name="Wacute" unicode="&#x1e82;" horiz-adv-x="1072" 
d="M42 730h61l186 -641l218 641h55l216 -641l193 641h60l-223 -730h-59l-216 640l-217 -640h-59zM621 950h75l-140 -155h-54z" />
    <glyph glyph-name="wacute" unicode="&#x1e83;" horiz-adv-x="979" 
d="M47 585h61l159 -501l199 501h49l193 -503l164 503h60l-194 -585h-54l-195 502l-200 -502h-54zM585 805h75l-140 -155h-54z" />
    <glyph glyph-name="Wdieresis" unicode="&#x1e84;" horiz-adv-x="1072" 
d="M42 730h61l186 -641l218 641h55l216 -641l193 641h60l-223 -730h-59l-216 640l-217 -640h-59zM575 880q0 19 12.5 31t31.5 12q20 0 31.5 -12t11.5 -31t-11.5 -31.5t-31.5 -12.5t-32 12.5t-12 31.5zM407 880q0 19 12.5 31t31.5 12q20 0 31.5 -12t11.5 -31t-11.5 -31.5
t-31.5 -12.5t-32 12.5t-12 31.5z" />
    <glyph glyph-name="wdieresis" unicode="&#x1e85;" horiz-adv-x="979" 
d="M47 585h61l159 -501l199 501h49l193 -503l164 503h60l-194 -585h-54l-195 502l-200 -502h-54zM530 701q0 19 12.5 31t31.5 12q20 0 31.5 -12t11.5 -31t-11.5 -31.5t-31.5 -12.5t-32 12.5t-12 31.5zM362 701q0 19 12.5 31t31.5 12q20 0 31.5 -12t11.5 -31t-11.5 -31.5
t-31.5 -12.5t-32 12.5t-12 31.5z" />
    <glyph glyph-name="Ygrave" unicode="&#x1ef2;" horiz-adv-x="612" 
d="M278 347l-245 383h65l208 -328l208 328h65l-243 -381v-349h-58v347zM139 950h74l120 -155h-54z" />
    <glyph glyph-name="ygrave" unicode="&#x1ef3;" horiz-adv-x="654" 
d="M305 33l-262 552h64l229 -487l214 487h62l-382 -855h-62zM162 788h74l120 -155h-54z" />
    <glyph glyph-name="figuredash" unicode="&#x2012;" horiz-adv-x="676" 
d="M53 277h570v-51h-570v51z" />
    <glyph glyph-name="endash" unicode="&#x2013;" horiz-adv-x="526" 
d="M53 277h420v-51h-420v51z" />
    <glyph glyph-name="emdash" unicode="&#x2014;" horiz-adv-x="726" 
d="M53 277h620v-51h-620v51z" />
    <glyph glyph-name="uni2015" unicode="&#x2015;" horiz-adv-x="1026" 
d="M53 277h920v-51h-920v51z" />
    <glyph glyph-name="doublebar" unicode="&#x2016;" horiz-adv-x="350" 
d="M66 730h58v-960h-58v960zM226 730h58v-960h-58v960z" />
    <glyph glyph-name="quoteleft" unicode="&#x2018;" horiz-adv-x="189" 
d="M143 526h-40l-61 204h57z" />
    <glyph glyph-name="quoteright" unicode="&#x2019;" horiz-adv-x="189" 
d="M44 526l44 204h57l-62 -204h-39z" />
    <glyph glyph-name="quotesinglbase" unicode="&#x201a;" horiz-adv-x="190" 
d="M33 -117l44 204h57l-61 -204h-40z" />
    <glyph glyph-name="reversequoteleft" unicode="&#x201b;" horiz-adv-x="189" 
d="M44 526l44 204h57l-62 -204h-39z" />
    <glyph glyph-name="quotedblleft" unicode="&#x201c;" horiz-adv-x="293" 
d="M143 526h-38l-61 204h55zM248 526h-39l-59 204h54z" />
    <glyph glyph-name="quotedblright" unicode="&#x201d;" horiz-adv-x="293" 
d="M44 526l44 204h57l-62 -204h-39zM149 526l44 204h57l-61 -204h-40z" />
    <glyph glyph-name="quotedblbase" unicode="&#x201e;" horiz-adv-x="295" 
d="M35 -117l44 204h57l-61 -204h-40zM140 -117l45 204h57l-62 -204h-40z" />
    <glyph glyph-name="reversequotedblleft" unicode="&#x201f;" horiz-adv-x="293" 
d="M44 526l44 204h57l-62 -204h-39zM149 526l44 204h57l-61 -204h-40z" />
    <glyph glyph-name="dagger" unicode="&#x2020;" horiz-adv-x="585" 
d="M66 500h196v230h58v-230h199v-51h-199v-449h-58v449h-196v51z" />
    <glyph glyph-name="daggerdbl" unicode="&#x2021;" horiz-adv-x="585" 
d="M66 519h196v211h58v-211h199v-51h-199v-199h199v-50h-199v-219h-58v219h-196v50h196v199h-196v51z" />
    <glyph glyph-name="bullet" unicode="&#x2022;" horiz-adv-x="305" 
d="M153 191q-25 0 -42.5 17.5t-17.5 42.5t17.5 42.5t42.5 17.5t42.5 -17.5t17.5 -42.5t-17.5 -42.5t-42.5 -17.5z" />
    <glyph glyph-name="ellipsis" unicode="&#x2026;" horiz-adv-x="459" 
d="M39 35q0 19 12 30.5t31 11.5q20 0 31.5 -11.5t11.5 -30.5t-11.5 -31t-31.5 -12t-31.5 12t-11.5 31zM186 35q0 19 12 30.5t31 11.5q20 0 31.5 -11.5t11.5 -30.5t-11.5 -31t-31.5 -12t-31.5 12t-11.5 31zM335 35q0 19 12 30.5t31 11.5q20 0 31.5 -11.5t11.5 -30.5
t-11.5 -31t-31.5 -12t-31.5 12t-11.5 31z" />
    <glyph glyph-name="perthousand" unicode="&#x2030;" horiz-adv-x="1272" 
d="M714 730h73l-627 -730h-73zM632 -11q-35 0 -65 13t-52.5 36t-35.5 53.5t-13 64.5q0 35 13 65t35.5 52.5t52.5 35.5t65 13t65 -13t52.5 -35.5t35.5 -52.5t13 -65q0 -34 -13 -64.5t-35.5 -53.5t-52.5 -36t-65 -13zM632 38q24 0 45 9t36.5 25t25 37.5t9.5 46.5
q0 24 -9.5 45.5t-25 37.5t-36.5 25t-45 9t-45 -9t-37 -25t-25 -37.5t-9 -45.5q0 -25 9 -46.5t25 -37.5t37 -25t45 -9zM242 407q-34 0 -64.5 13t-53 36t-35.5 53.5t-13 64.5q0 35 13 65t35.5 52.5t53 35.5t64.5 13q35 0 65 -13t52.5 -35.5t35.5 -52.5t13 -65q0 -34 -13 -64.5
t-35.5 -53.5t-52.5 -36t-65 -13zM242 456q24 0 45 9.5t37 25.5t25 37.5t9 45.5t-9 45.5t-25 37.5t-37 25t-45 9t-45 -9t-36.5 -25t-25 -37.5t-9.5 -45.5t9.5 -45.5t25 -37.5t36.5 -25.5t45 -9.5zM1030 -11q-34 0 -64.5 13t-53 36t-35.5 53.5t-13 64.5q0 35 13 65t35.5 52.5
t53 35.5t64.5 13q35 0 65 -13t53 -35.5t36 -52.5t13 -65q0 -34 -13 -64.5t-36 -53.5t-53 -36t-65 -13zM1030 38q24 0 45 9t36.5 25t25 37.5t9.5 46.5q0 24 -9.5 45.5t-25 37.5t-36.5 25t-45 9t-44.5 -9t-36.5 -25t-25 -37.5t-9 -45.5q0 -25 9 -46.5t25 -37.5t36.5 -25
t44.5 -9z" />
    <glyph glyph-name="minute" unicode="&#x2032;" horiz-adv-x="189" 
d="M44 526l44 204h57l-62 -204h-39z" />
    <glyph glyph-name="second" unicode="&#x2033;" horiz-adv-x="293" 
d="M44 526l44 204h57l-62 -204h-39zM149 526l44 204h57l-61 -204h-40z" />
    <glyph glyph-name="tripleprime" unicode="&#x2034;" horiz-adv-x="393" 
d="M80 500q-1 9 -4 27.5t-5.5 39.5t-4.5 42t-2 37v84h51v-84q0 -15 -2 -36.5l-4 -42.5t-4.5 -39.5t-4.5 -27.5h-20zM187 500q-1 9 -4 27.5t-5.5 39.5t-4.5 42t-2 37v84h51v-84q0 -15 -2 -36.5l-4 -42.5t-4.5 -39.5t-4.5 -27.5h-20zM294 500q-1 9 -4 27.5t-5.5 39.5t-4.5 42
t-2 37v84h51v-84q0 -15 -2 -36.5l-4 -42.5t-4.5 -39.5t-4.5 -27.5h-20z" />
    <glyph glyph-name="guilsinglleft" unicode="&#x2039;" horiz-adv-x="289" 
d="M70 231v38l150 119v-48l-115 -91l115 -89v-48z" />
    <glyph glyph-name="guilsinglright" unicode="&#x203a;" horiz-adv-x="289" 
d="M70 160l114 90l-114 90v49l150 -119v-39l-150 -119v48z" />
    <glyph glyph-name="fraction" unicode="&#x2044;" horiz-adv-x="649" 
d="M555 730h68l-527 -730h-68z" />
    <glyph glyph-name="uni2070" unicode="&#x2070;" horiz-adv-x="497" 
d="M248 302q-45 0 -84.5 17t-68.5 46.5t-46 69t-17 84.5t17 84.5t46 69t68.5 46.5t84.5 17t84.5 -17t69 -46.5t46.5 -69t17 -84.5t-17 -84.5t-46.5 -69t-69 -46.5t-84.5 -17zM248 352q35 0 65 13.5t52 36t35 53t13 64.5q0 35 -13 65t-35 53t-52 36t-65 13q-34 0 -64 -13
t-52.5 -36t-35 -53t-12.5 -65q0 -34 12.5 -64.5t35 -53t52.5 -36t64 -13.5z" />
    <glyph glyph-name="uni2074" unicode="&#x2074;" horiz-adv-x="375" 
d="M229 405h-195v48l193 277h54v-277h61v-48h-61v-97h-52v97zM229 453v196l-138 -196h138z" />
    <glyph glyph-name="uni2075" unicode="&#x2075;" horiz-adv-x="353" 
d="M177 302q-51 0 -87.5 22.5t-54.5 57.5l48 28q13 -26 36.5 -43t58.5 -17q38 0 64.5 25.5t26.5 67.5q0 45 -27.5 69t-64.5 24q-33 0 -55.5 -16t-36.5 -42l-47 21l31 231h229v-49h-187l-18 -132q15 14 37 24t51 10q28 0 53.5 -9t45 -26.5t31 -43.5t11.5 -61q0 -31 -11 -57
t-30 -44.5t-45.5 -29t-58.5 -10.5z" />
    <glyph glyph-name="uni2076" unicode="&#x2076;" horiz-adv-x="362" 
d="M179 302q-32 0 -59.5 11.5t-47.5 31t-31 46t-11 56.5q0 29 8.5 56t23.5 48l121 179h61l-99 -145q22 8 43 8q29 0 54.5 -11t44 -30.5t29.5 -46t11 -57.5t-11.5 -58t-31.5 -46.5t-47 -30.5t-58 -11zM178 350q20 0 37.5 7.5t31 21t21.5 31.5t8 39q0 20 -8 38t-21.5 31.5
t-31 21t-37.5 7.5q-41 0 -69.5 -28.5t-28.5 -70.5t28.5 -70t69.5 -28z" />
    <glyph glyph-name="uni2077" unicode="&#x2077;" horiz-adv-x="327" 
d="M241 680h-207v50h262v-45l-170 -377h-56z" />
    <glyph glyph-name="uni2078" unicode="&#x2078;" horiz-adv-x="343" 
d="M171 302q-31 0 -56 10t-42.5 27.5t-26.5 40.5t-9 48q0 35 18 62.5t47 42.5q-23 14 -36 36t-13 53q0 23 8.5 44t24 36.5t37 24.5t48.5 9q26 0 48 -9t38 -24.5t24.5 -36.5t8.5 -44q0 -31 -14 -52.5t-37 -35.5q30 -14 48 -41.5t18 -64.5q0 -25 -9 -48t-26 -40.5t-42 -27.5
t-57 -10zM171 350q38 0 60 23t22 55t-21.5 56t-60.5 24q-38 0 -60 -24t-22 -56t22 -55t60 -23zM171 557q30 0 48.5 18.5t18.5 46.5q0 27 -18 46.5t-49 19.5q-30 0 -47.5 -19.5t-17.5 -46.5q0 -28 17.5 -46.5t47.5 -18.5z" />
    <glyph glyph-name="uni2079" unicode="&#x2079;" horiz-adv-x="355" 
d="M210 457q-18 -7 -42 -7q-28 0 -53 11t-43.5 30t-29.5 45t-11 57t11.5 57t31 45t46 30t57.5 11q32 0 58.5 -11t46.5 -30.5t31 -45.5t11 -56q0 -27 -8 -52.5t-21 -45.5l-121 -187h-63zM178 496q20 0 37.5 7.5t30.5 21t20.5 31t7.5 37.5q0 40 -28 68t-68 28t-68 -28t-28 -69
q0 -40 28 -68t68 -28z" />
    <glyph glyph-name="uni207A" unicode="&#x207a;" horiz-adv-x="284" 
d="M35 541h86v84h43v-84h84v-44h-84v-85h-43v85h-86v44z" />
    <glyph glyph-name="uni207B" unicode="&#x207b;" horiz-adv-x="284" 
d="M35 542h213v-45h-213v45z" />
    <glyph glyph-name="uni207C" unicode="&#x207c;" horiz-adv-x="284" 
d="M35 587h213v-44h-213v44zM35 492h213v-44h-213v44z" />
    <glyph glyph-name="uni207D" unicode="&#x207d;" horiz-adv-x="272" 
d="M195 233q-74 51 -116.5 121t-42.5 169q0 100 42.5 170t113.5 120l33 -43q-60 -41 -97.5 -101t-37.5 -146q0 -85 38.5 -145t98.5 -101z" />
    <glyph glyph-name="uni207E" unicode="&#x207e;" horiz-adv-x="273" 
d="M45 277q60 41 98.5 101t38.5 145q0 86 -37.5 146t-97.5 101l34 43q70 -51 112.5 -121t42.5 -169t-42.5 -169t-115.5 -121z" />
    <glyph glyph-name="uni2080" unicode="&#x2080;" horiz-adv-x="497" 
d="M248 -6q-45 0 -84.5 17t-68.5 46.5t-46 69t-17 84.5t17 84.5t46 69t68.5 46.5t84.5 17t84.5 -17t69 -46.5t46.5 -69t17 -84.5t-17 -84.5t-46.5 -69t-69 -46.5t-84.5 -17zM248 44q35 0 65 13.5t52 36t35 53t13 64.5q0 35 -13 65t-35 53t-52 36t-65 13q-34 0 -64 -13
t-52.5 -36t-35 -53t-12.5 -65q0 -34 12.5 -64.5t35 -53t52.5 -36t64 -13.5z" />
    <glyph glyph-name="uni2081" unicode="&#x2081;" horiz-adv-x="286" 
d="M37 49h84v285q-9 -15 -29.5 -25.5t-40.5 -10.5h-6v55h3q21 0 35 6.5t22.5 16.5t12.5 22.5t4 23.5h51v-373h81v-49h-217v49z" />
    <glyph glyph-name="uni2082" unicode="&#x2082;" horiz-adv-x="344" 
d="M39 50q0 26 10.5 47.5t27.5 40t38 34.5l42 31l36.5 25.5t31 25.5t21.5 27.5t8 30.5q0 30 -22 50t-60 20q-33 0 -56 -18t-37 -47l-45 23q19 40 54 64t84 24q63 0 99 -33.5t36 -82.5q0 -25 -10 -45.5t-26 -38t-36 -32.5t-41 -29l-37.5 -26t-32.5 -27.5t-23 -30t-9 -33.5
h216v-50h-269v50z" />
    <glyph glyph-name="uni2083" unicode="&#x2083;" horiz-adv-x="329" 
d="M158 -6q-41 0 -75 14t-58 43l44 34q32 -43 89 -43q38 0 62.5 21t24.5 55q0 36 -26 56t-66 20h-42v48h42q41 0 63 20t22 52q0 31 -22.5 49.5t-59.5 18.5q-29 0 -50 -12.5t-33 -31.5l-44 25q18 28 51 46.5t76 18.5q61 0 96.5 -31t35.5 -83q0 -32 -15 -56t-42 -39
q30 -14 48 -39.5t18 -61.5q0 -54 -36.5 -89t-102.5 -35z" />
    <glyph glyph-name="uni2084" unicode="&#x2084;" horiz-adv-x="375" 
d="M229 97h-195v48l193 277h54v-277h61v-48h-61v-97h-52v97zM229 145v196l-138 -196h138z" />
    <glyph glyph-name="uni2085" unicode="&#x2085;" horiz-adv-x="353" 
d="M177 -6q-51 0 -87.5 22.5t-54.5 57.5l48 28q13 -26 36.5 -43t58.5 -17q38 0 64.5 25.5t26.5 67.5q0 45 -27.5 69t-64.5 24q-33 0 -55.5 -16t-36.5 -42l-47 21l31 231h229v-49h-187l-18 -132q15 14 37 24t51 10q28 0 53.5 -9t45 -26.5t31 -43.5t11.5 -61q0 -31 -11 -57
t-30 -44.5t-45.5 -29t-58.5 -10.5z" />
    <glyph glyph-name="uni2086" unicode="&#x2086;" horiz-adv-x="365" 
d="M183 -6q-32 0 -59.5 11.5t-47.5 31t-31 46t-11 56.5q0 29 8.5 56t23.5 48l121 179h61l-99 -145q22 8 43 8q29 0 54.5 -11t44 -30.5t29.5 -46t11 -57.5t-11.5 -58t-31.5 -46.5t-47 -30.5t-58 -11zM182 42q20 0 37.5 7.5t31 21t21.5 31.5t8 39q0 20 -8 38t-21.5 31.5
t-31 21t-37.5 7.5q-41 0 -69.5 -28.5t-28.5 -70.5t28.5 -70t69.5 -28z" />
    <glyph glyph-name="uni2087" unicode="&#x2087;" horiz-adv-x="327" 
d="M241 372h-207v50h262v-45l-170 -377h-56z" />
    <glyph glyph-name="uni2088" unicode="&#x2088;" horiz-adv-x="343" 
d="M171 -6q-31 0 -56 10t-42.5 27.5t-26.5 40.5t-9 48q0 35 18 62.5t47 42.5q-23 14 -36 36t-13 53q0 23 8.5 44t24 36.5t37 24.5t48.5 9q26 0 48 -9t38 -24.5t24.5 -36.5t8.5 -44q0 -31 -14 -52.5t-37 -35.5q30 -14 48 -41.5t18 -64.5q0 -25 -9 -48t-26 -40.5t-42 -27.5
t-57 -10zM171 42q38 0 60 23t22 55t-21.5 56t-60.5 24q-38 0 -60 -24t-22 -56t22 -55t60 -23zM171 249q30 0 48.5 18.5t18.5 46.5q0 27 -18 46.5t-49 19.5q-30 0 -47.5 -19.5t-17.5 -46.5q0 -28 17.5 -46.5t47.5 -18.5z" />
    <glyph glyph-name="uni2089" unicode="&#x2089;" horiz-adv-x="355" 
d="M210 149q-18 -7 -42 -7q-28 0 -53 11t-43.5 30t-29.5 45t-11 57t11.5 57t31 45t46 30t57.5 11q32 0 58.5 -11t46.5 -30.5t31 -45.5t11 -56q0 -27 -8 -52.5t-21 -45.5l-121 -187h-63zM178 188q20 0 37.5 7.5t30.5 21t20.5 31t7.5 37.5q0 40 -28 68t-68 28t-68 -28t-28 -69
q0 -40 28 -68t68 -28z" />
    <glyph glyph-name="uni208A" unicode="&#x208a;" horiz-adv-x="284" 
d="M35 233h86v84h43v-84h84v-44h-84v-85h-43v85h-86v44z" />
    <glyph glyph-name="uni208B" unicode="&#x208b;" horiz-adv-x="284" 
d="M35 234h213v-45h-213v45z" />
    <glyph glyph-name="uni208C" unicode="&#x208c;" horiz-adv-x="284" 
d="M35 279h213v-44h-213v44zM35 184h213v-44h-213v44z" />
    <glyph glyph-name="uni208D" unicode="&#x208d;" horiz-adv-x="272" 
d="M195 -75q-74 51 -116.5 121t-42.5 169q0 100 42.5 170t113.5 120l33 -43q-60 -41 -97.5 -101t-37.5 -146q0 -85 38.5 -145t98.5 -101z" />
    <glyph glyph-name="uni208E" unicode="&#x208e;" horiz-adv-x="273" 
d="M45 -31q60 41 98.5 101t38.5 145q0 86 -37.5 146t-97.5 101l34 43q70 -51 112.5 -121t42.5 -169t-42.5 -169t-115.5 -121z" />
    <glyph glyph-name="uni20A1" unicode="&#x20a1;" horiz-adv-x="797" 
d="M139 -120l73 179q-72 51 -115 130.5t-43 175.5q0 78 29.5 146t80.5 119t119 80.5t146 29.5q15 0 30 -1.5t30 -3.5l43 105h51l-48 -116q35 -10 67 -27l59 143h51l-69 -168q32 -23 60 -52t48 -64l-49 -29q-31 54 -81 93l-235 -572q21 -3 43 -3q97 0 169.5 46.5t112.5 121.5
l51 -26q-24 -44 -58 -80.5t-77 -62.5t-92.5 -40t-105.5 -14q-33 0 -65 6l-47 -116h-50l52 126q-18 5 -34.5 12.5l-33.5 15.5l-63 -154h-49zM114 365q0 -78 32 -143t88 -110l234 571q-19 3 -39 3q-67 0 -124.5 -25.5t-100 -69t-66.5 -102t-24 -124.5zM273 86
q16 -9 32.5 -16.5t34.5 -12.5l241 589q-16 9 -32.5 16t-33.5 12z" />
    <glyph glyph-name="uni20A2" unicode="&#x20a2;" horiz-adv-x="797" 
d="M429 -10q-78 0 -146 29.5t-119 80.5t-80.5 119t-29.5 146t29.5 146t80.5 119t119 80.5t146 29.5q51 0 99 -13.5t89 -37.5t75.5 -58t58.5 -75l-49 -29q-41 71 -112 115t-161 44q-67 0 -124.5 -25.5t-100 -69t-66.5 -102t-24 -124.5q0 -61 21 -115.5t57.5 -97.5t87 -70.5
t110.5 -34.5v351h56v-99q21 47 63 73t101 26h59v-53h-59q-81 0 -122 -47.5t-41 -138.5v-114q91 5 158.5 50.5t105.5 117.5l51 -26q-24 -44 -58 -80.5t-77 -62.5t-92.5 -40t-105.5 -14z" />
    <glyph glyph-name="franc" unicode="&#x20a3;" horiz-adv-x="544" 
d="M66 730h413v-55h-355v-206h355v-53h-355v-107h355v-53h-355v-256h-58v730z" />
    <glyph glyph-name="lira" unicode="&#x20a4;" horiz-adv-x="697" 
d="M75 430h108q-10 25 -16 53t-6 61q0 44 15 80.5t42.5 62t66 39.5t85.5 14q75 0 125.5 -28.5t82.5 -77.5l-47 -36q-25 46 -63 69t-98 23q-69 0 -110.5 -40t-41.5 -105q0 -32 7 -60.5t18 -54.5h232v-90h-185q21 -39 37.5 -79.5t16.5 -89.5q0 -36 -12 -68q31 -26 64 -46
t76 -20q56 0 84 30t28 110v18h58v-25q0 -97 -41.5 -138.5t-123.5 -41.5q-55 0 -94 22t-72 50q-22 -32 -57.5 -52t-82.5 -20q-65 0 -95 29t-30 74q0 44 30.5 72t84.5 29q40 0 71.5 -17.5t60.5 -40.5q3 15 3 32q0 51 -20 91t-45 81h-156v90zM171 35q36 0 62.5 16t42.5 42
q-26 23 -53 39t-60 16t-49.5 -15.5t-16.5 -40.5q0 -26 19.5 -41.5t54.5 -15.5z" />
    <glyph glyph-name="uni20A6" unicode="&#x20a6;" horiz-adv-x="815" 
d="M31 457h81v273h61l200 -273h272v273h58v-273h80v-46h-80v-93h80v-45h-80v-273h-59l-201 273h-274v-273h-57v273h-81v45h81v93h-81v46zM169 318h241l-68 93h-173v-93zM475 318h170v93h-238zM169 646v-189h139zM645 87v186h-137z" />
    <glyph glyph-name="peseta" unicode="&#x20a7;" horiz-adv-x="1266" 
d="M829 0q-55 0 -92 10t-59 32.5t-31 59t-9 90.5v257h-86q-6 -47 -27.5 -86.5t-55.5 -68.5t-80 -45t-102 -16h-163v-233h-58v730h221q58 0 105.5 -17.5t82 -48t55 -72.5t23.5 -92h85v119l58 31v-150h122v-51h-122v-256q0 -42 6.5 -68.5t22 -42.5t42.5 -22t69 -6h180
q74 0 108 25t34 66q0 23 -11.5 37t-31 24t-44.5 16.5t-52 12.5q-30 7 -60 15.5t-53.5 23.5t-38.5 38.5t-15 59.5q0 28 12 53t35 44t55.5 30.5t72.5 11.5q54 0 101 -19.5t78 -54.5l-42 -35q-52 60 -137 60q-57 0 -88 -25.5t-31 -63.5q0 -22 11.5 -36.5t31 -24t45 -16
l52.5 -13.5q31 -7 61 -16t54 -24t39 -38.5t15 -59.5q0 -30 -11 -56.5t-35 -46t-63 -31t-95 -11.5h-184zM124 677v-390h160q49 0 88 15t66.5 41.5t42 62t14.5 76.5q0 42 -14.5 77.5t-42 62t-66.5 41t-88 14.5h-160z" />
    <glyph glyph-name="uni20A8" unicode="&#x20a8;" horiz-adv-x="987" 
d="M729 -11q-97 0 -172.5 25.5t-134.5 70.5t-103 106.5t-79 133.5h44q42 0 76 14.5t59 39.5t38.5 57t13.5 66q0 37 -13.5 69t-38 55.5t-59 37t-75.5 13.5h-161v-677h-58v730h223q51 0 95 -18t76.5 -49t50.5 -72.5t18 -88.5q0 -41 -14 -79t-40.5 -68t-63.5 -50t-82 -26
q29 -51 67 -94.5t86.5 -76t109 -51t135.5 -18.5q79 0 116.5 30.5t37.5 70.5q0 23 -12 38t-32 25t-45.5 16.5l-52.5 13.5q-30 8 -60 17.5t-53.5 24.5t-38 38.5t-14.5 58.5q0 28 12 53t35 44t55.5 30.5t72.5 11.5q54 0 101 -19.5t78 -54.5l-42 -35q-52 60 -137 60
q-57 0 -88 -25.5t-31 -63.5q0 -22 12 -36.5t31.5 -24.5t44.5 -17l52 -14q30 -7 60.5 -16.5t54.5 -25.5t39 -39.5t15 -59.5q0 -28 -11.5 -55.5t-37 -48.5t-65 -34t-95.5 -13z" />
    <glyph glyph-name="uni20A9" unicode="&#x20a9;" horiz-adv-x="1091" 
d="M31 457h102l-81 273h62l79 -273h232l93 273h54l92 -273h236l82 273h59l-84 -273h102v-46h-116l-28 -93h144v-45h-158l-83 -273h-58l-92 273h-249l-92 -273h-59l-81 273h-156v45h143l-28 93h-115v46zM435 318h218l-32 93h-155zM711 318h147l28 93h-207zM233 318h145l32 93
h-204zM482 457h124l-62 183zM789 87l56 186h-119zM300 89l63 184h-117z" />
    <glyph glyph-name="uni20AA" unicode="&#x20aa;" horiz-adv-x="671" 
d="M66 730h177q104 0 153 -53t49 -166v-304q0 -32 -12 -45.5t-45 -13.5v363q0 84 -32 124.5t-111 40.5h-121v-676h-58v730zM226 574q32 0 45 -14t13 -46v-460h123q75 0 107.5 40.5t32.5 124.5v511h58v-511q0 -113 -50 -166t-150 -53h-179v574z" />
    <glyph glyph-name="Euro" unicode="&#x20ac;" 
d="M31 504h67q0 52 17 95.5t47 74.5t72 48.5t92 17.5q56 0 99.5 -20t72.5 -54l-40 -36q-45 57 -131 57q-81 0 -125.5 -49.5t-45.5 -133.5h283l-8 -47h-275v-184h245l-8 -47h-237v-3q0 -85 44 -132.5t125 -47.5q96 0 139 63l45 -37q-29 -38 -75.5 -58.5t-107.5 -20.5
q-109 0 -168.5 62.5t-59.5 170.5v3h-67v47h67v184h-67v47z" />
    <glyph glyph-name="uni20AE" unicode="&#x20ae;" horiz-adv-x="624" 
d="M148 400l136 56v221h-229v53h514v-53h-228v-198l139 58v-47l-139 -57v-92l139 57v-47l-139 -57v-294h-57v270l-136 -55v47l136 55v92l-136 -55v46z" />
    <glyph glyph-name="uni20B1" unicode="&#x20b1;" horiz-adv-x="702" 
d="M31 574h81v156h220q94 0 159 -43t91 -113h88v-45h-75q2 -11 3 -23t1 -24t-1 -23.5t-3 -22.5h75v-46h-88q-26 -71 -91 -114t-159 -43h-163v-233h-57v390h-81v46h81v93h-81v45zM541 482q0 22 -5 47h-367v-93h367q5 23 5 46zM169 677v-103h350q-24 47 -72.5 75t-117.5 28
h-160zM329 287q69 0 117.5 28t72.5 75h-350v-103h160z" />
    <glyph glyph-name="published" unicode="&#x2117;" horiz-adv-x="858" 
d="M429 -125q-78 0 -146 29.5t-119 80.5t-80.5 119t-29.5 146t29.5 146t80.5 119t119 80.5t146 29.5t146 -29.5t119 -80.5t80.5 -119t29.5 -146t-29.5 -146t-80.5 -119t-119 -80.5t-146 -29.5zM429 -74q68 0 126 25.5t101 69.5t67.5 103t24.5 126t-24.5 126t-67.5 103
t-101 69.5t-126 25.5q-67 0 -125.5 -25.5t-101.5 -69.5t-67.5 -103t-24.5 -126t24.5 -126t67.5 -103t101.5 -69.5t125.5 -25.5zM306 443h155q30 0 54.5 -10t42 -27t27.5 -40.5t10 -50.5t-8.5 -51.5t-25.5 -43.5t-41.5 -30t-56.5 -11h-103v-117h-54v381zM360 396v-168h95
q39 0 62.5 26t23.5 61t-24.5 58t-61.5 23h-95z" />
    <glyph glyph-name="servicemark" unicode="&#x2120;" horiz-adv-x="653" 
d="M278 730h39l120 -159l123 159h37v-290h-44v217l-116 -148l-117 148v-217h-42v290zM128 435q-64 0 -98 45l38 28q11 -15 25.5 -24.5t34.5 -9.5q23 0 37 13.5t14 34.5q0 24 -21.5 33.5t-48 19t-48 26.5t-21.5 55q0 33 25 53.5t62 20.5q30 0 51.5 -10.5t36.5 -28.5l-39 -25
q-17 25 -50 25q-21 0 -33 -10.5t-12 -25.5q0 -22 22 -31l48.5 -19t48.5 -27t22 -56q0 -36 -25.5 -61.5t-68.5 -25.5z" />
    <glyph glyph-name="trademark" unicode="&#x2122;" horiz-adv-x="681" 
d="M306 730h40l119 -158l123 158h37v-290h-43v217l-117 -148l-117 149v-218h-42v290zM132 691h-95v39h232v-39h-94v-251h-43v251z" />
    <glyph glyph-name="uni2153" unicode="&#x2153;" horiz-adv-x="823" 
d="M632 730h68l-527 -730h-68zM651 -6q-41 0 -75 14t-58 43l44 34q32 -43 89 -43q38 0 62.5 21t24.5 55q0 36 -26 56t-66 20h-42v48h42q41 0 63 20t22 52q0 31 -22.5 49.5t-59.5 18.5q-29 0 -50 -12.5t-33 -31.5l-44 25q18 28 51 46.5t76 18.5q61 0 96.5 -31t35.5 -83
q0 -32 -15 -56t-42 -39q30 -14 48 -39.5t18 -61.5q0 -54 -36.5 -89t-102.5 -35zM37 357h84v285q-9 -15 -29.5 -25.5t-40.5 -10.5h-6v55h3q21 0 35 6.5t22.5 16.5t12.5 22.5t4 23.5h51v-373h81v-49h-217v49z" />
    <glyph glyph-name="uni2154" unicode="&#x2154;" horiz-adv-x="838" 
d="M656 730h68l-527 -730h-68zM39 358q0 26 10.5 47.5t27.5 40t38 34.5l42 31l36.5 25.5t31 25.5t21.5 27.5t8 30.5q0 30 -22 50t-60 20q-33 0 -56 -18t-37 -47l-45 23q19 40 54 64t84 24q63 0 99 -33.5t36 -82.5q0 -25 -10 -45.5t-26 -38t-36 -32.5t-41 -29l-37.5 -26
t-32.5 -27.5t-23 -30t-9 -33.5h216v-50h-269v50zM666 -6q-41 0 -75 14t-58 43l44 34q32 -43 89 -43q38 0 62.5 21t24.5 55q0 36 -26 56t-66 20h-42v48h42q41 0 63 20t22 52q0 31 -22.5 49.5t-59.5 18.5q-29 0 -50 -12.5t-33 -31.5l-44 25q18 28 51 46.5t76 18.5
q61 0 96.5 -31t35.5 -83q0 -32 -15 -56t-42 -39q30 -14 48 -39.5t18 -61.5q0 -54 -36.5 -89t-102.5 -35z" />
    <glyph glyph-name="uni2155" unicode="&#x2155;" horiz-adv-x="836" 
d="M659 -6q-51 0 -87.5 22.5t-54.5 57.5l48 28q13 -26 36.5 -43t58.5 -17q38 0 64.5 25.5t26.5 67.5q0 45 -27.5 69t-64.5 24q-33 0 -55.5 -16t-36.5 -42l-47 21l31 231h229v-49h-187l-18 -132q15 14 37 24t51 10q28 0 53.5 -9t45 -26.5t31 -43.5t11.5 -61q0 -31 -11 -57
t-30 -44.5t-45.5 -29t-58.5 -10.5zM632 730h68l-527 -730h-68zM37 357h84v285q-9 -15 -29.5 -25.5t-40.5 -10.5h-6v55h3q21 0 35 6.5t22.5 16.5t12.5 22.5t4 23.5h51v-373h81v-49h-217v49z" />
    <glyph glyph-name="uni2156" unicode="&#x2156;" horiz-adv-x="851" 
d="M674 -6q-51 0 -87.5 22.5t-54.5 57.5l48 28q13 -26 36.5 -43t58.5 -17q38 0 64.5 25.5t26.5 67.5q0 45 -27.5 69t-64.5 24q-33 0 -55.5 -16t-36.5 -42l-47 21l31 231h229v-49h-187l-18 -132q15 14 37 24t51 10q28 0 53.5 -9t45 -26.5t31 -43.5t11.5 -61q0 -31 -11 -57
t-30 -44.5t-45.5 -29t-58.5 -10.5zM652 730h68l-527 -730h-68zM39 358q0 26 10.5 47.5t27.5 40t38 34.5l42 31l36.5 25.5t31 25.5t21.5 27.5t8 30.5q0 30 -22 50t-60 20q-33 0 -56 -18t-37 -47l-45 23q19 40 54 64t84 24q63 0 99 -33.5t36 -82.5q0 -25 -10 -45.5t-26 -38
t-36 -32.5t-41 -29l-37.5 -26t-32.5 -27.5t-23 -30t-9 -33.5h216v-50h-269v50z" />
    <glyph glyph-name="uni2157" unicode="&#x2157;" horiz-adv-x="867" 
d="M690 -6q-51 0 -87.5 22.5t-54.5 57.5l48 28q13 -26 36.5 -43t58.5 -17q38 0 64.5 25.5t26.5 67.5q0 45 -27.5 69t-64.5 24q-33 0 -55.5 -16t-36.5 -42l-47 21l31 231h229v-49h-187l-18 -132q15 14 37 24t51 10q28 0 53.5 -9t45 -26.5t31 -43.5t11.5 -61q0 -31 -11 -57
t-30 -44.5t-45.5 -29t-58.5 -10.5zM663 730h68l-527 -730h-68zM158 302q-41 0 -75 14t-58 43l44 34q32 -43 89 -43q38 0 62.5 21t24.5 55q0 36 -26 56t-66 20h-42v48h42q41 0 63 20t22 52q0 31 -22.5 49.5t-59.5 18.5q-29 0 -50 -12.5t-33 -31.5l-44 25q18 28 51 46.5
t76 18.5q61 0 96.5 -31t35.5 -83q0 -32 -15 -56t-42 -39q30 -14 48 -39.5t18 -61.5q0 -54 -36.5 -89t-102.5 -35z" />
    <glyph glyph-name="uni2158" unicode="&#x2158;" horiz-adv-x="850" 
d="M229 405h-195v48l193 277h54v-277h61v-48h-61v-97h-52v97zM673 -6q-51 0 -87.5 22.5t-54.5 57.5l48 28q13 -26 36.5 -43t58.5 -17q38 0 64.5 25.5t26.5 67.5q0 45 -27.5 69t-64.5 24q-33 0 -55.5 -16t-36.5 -42l-47 21l31 231h229v-49h-187l-18 -132q15 14 37 24t51 10
q28 0 53.5 -9t45 -26.5t31 -43.5t11.5 -61q0 -31 -11 -57t-30 -44.5t-45.5 -29t-58.5 -10.5zM646 730h68l-527 -730h-68zM229 453v196l-138 -196h138z" />
    <glyph glyph-name="uni2159" unicode="&#x2159;" horiz-adv-x="787" 
d="M603 -6q-32 0 -59.5 11.5t-47.5 31t-31 46t-11 56.5q0 29 8.5 56t23.5 48l121 179h61l-99 -145q22 8 43 8q29 0 54.5 -11t44 -30.5t29.5 -46t11 -57.5t-11.5 -58t-31.5 -46.5t-47 -30.5t-58 -11zM632 730h68l-527 -730h-68zM37 357h84v285q-9 -15 -29.5 -25.5
t-40.5 -10.5h-6v55h3q21 0 35 6.5t22.5 16.5t12.5 22.5t4 23.5h51v-373h81v-49h-217v49zM602 42q20 0 37.5 7.5t31 21t21.5 31.5t8 39q0 20 -8 38t-21.5 31.5t-31 21t-37.5 7.5q-41 0 -69.5 -28.5t-28.5 -70.5t28.5 -70t69.5 -28z" />
    <glyph glyph-name="uni215A" unicode="&#x215a;" horiz-adv-x="823" 
d="M640 -6q-32 0 -59.5 11.5t-47.5 31t-31 46t-11 56.5q0 29 8.5 56t23.5 48l121 179h61l-99 -145q22 8 43 8q29 0 54.5 -11t44 -30.5t29.5 -46t11 -57.5t-11.5 -58t-31.5 -46.5t-47 -30.5t-58 -11zM177 302q-51 0 -87.5 22.5t-54.5 57.5l48 28q13 -26 36.5 -43t58.5 -17
q38 0 64.5 25.5t26.5 67.5q0 45 -27.5 69t-64.5 24q-33 0 -55.5 -16t-36.5 -42l-47 21l31 231h229v-49h-187l-18 -132q15 14 37 24t51 10q28 0 53.5 -9t45 -26.5t31 -43.5t11.5 -61q0 -31 -11 -57t-30 -44.5t-45.5 -29t-58.5 -10.5zM669 730h68l-527 -730h-68zM639 42
q20 0 37.5 7.5t31 21t21.5 31.5t8 39q0 20 -8 38t-21.5 31.5t-31 21t-37.5 7.5q-41 0 -69.5 -28.5t-28.5 -70.5t28.5 -70t69.5 -28z" />
    <glyph glyph-name="uni215B" unicode="&#x215b;" horiz-adv-x="839" 
d="M666 -6q-31 0 -56 10t-42.5 27.5t-26.5 40.5t-9 48q0 35 18 62.5t47 42.5q-23 14 -36 36t-13 53q0 23 8.5 44t24 36.5t37 24.5t48.5 9q26 0 48 -9t38 -24.5t24.5 -36.5t8.5 -44q0 -31 -14 -52.5t-37 -35.5q30 -14 48 -41.5t18 -64.5q0 -25 -9 -48t-26 -40.5t-42 -27.5
t-57 -10zM631 730h68l-527 -730h-68zM37 357h84v285q-9 -15 -29.5 -25.5t-40.5 -10.5h-6v55h3q21 0 35 6.5t22.5 16.5t12.5 22.5t4 23.5h51v-373h81v-49h-217v49zM666 42q38 0 60 23t22 55t-21.5 56t-60.5 24q-38 0 -60 -24t-22 -56t22 -55t60 -23zM666 249q30 0 48.5 18.5
t18.5 46.5q0 27 -18 46.5t-49 19.5q-30 0 -47.5 -19.5t-17.5 -46.5q0 -28 17.5 -46.5t47.5 -18.5z" />
    <glyph glyph-name="uni215C" unicode="&#x215c;" horiz-adv-x="870" 
d="M698 -6q-31 0 -56 10t-42.5 27.5t-26.5 40.5t-9 48q0 35 18 62.5t47 42.5q-23 14 -36 36t-13 53q0 23 8.5 44t24 36.5t37 24.5t48.5 9q26 0 48 -9t38 -24.5t24.5 -36.5t8.5 -44q0 -31 -14 -52.5t-37 -35.5q30 -14 48 -41.5t18 -64.5q0 -25 -9 -48t-26 -40.5t-42 -27.5
t-57 -10zM663 730h68l-527 -730h-68zM158 302q-41 0 -75 14t-58 43l44 34q32 -43 89 -43q38 0 62.5 21t24.5 55q0 36 -26 56t-66 20h-42v48h42q41 0 63 20t22 52q0 31 -22.5 49.5t-59.5 18.5q-29 0 -50 -12.5t-33 -31.5l-44 25q18 28 51 46.5t76 18.5q61 0 96.5 -31
t35.5 -83q0 -32 -15 -56t-42 -39q30 -14 48 -39.5t18 -61.5q0 -54 -36.5 -89t-102.5 -35zM698 42q38 0 60 23t22 55t-21.5 56t-60.5 24q-38 0 -60 -24t-22 -56t22 -55t60 -23zM698 249q30 0 48.5 18.5t18.5 46.5q0 27 -18 46.5t-49 19.5q-30 0 -47.5 -19.5t-17.5 -46.5
q0 -28 17.5 -46.5t47.5 -18.5z" />
    <glyph glyph-name="uni215D" unicode="&#x215d;" horiz-adv-x="876" 
d="M704 -6q-31 0 -56 10t-42.5 27.5t-26.5 40.5t-9 48q0 35 18 62.5t47 42.5q-23 14 -36 36t-13 53q0 23 8.5 44t24 36.5t37 24.5t48.5 9q26 0 48 -9t38 -24.5t24.5 -36.5t8.5 -44q0 -31 -14 -52.5t-37 -35.5q30 -14 48 -41.5t18 -64.5q0 -25 -9 -48t-26 -40.5t-42 -27.5
t-57 -10zM177 302q-51 0 -87.5 22.5t-54.5 57.5l48 28q13 -26 36.5 -43t58.5 -17q38 0 64.5 25.5t26.5 67.5q0 45 -27.5 69t-64.5 24q-33 0 -55.5 -16t-36.5 -42l-47 21l31 231h229v-49h-187l-18 -132q15 14 37 24t51 10q28 0 53.5 -9t45 -26.5t31 -43.5t11.5 -61
q0 -31 -11 -57t-30 -44.5t-45.5 -29t-58.5 -10.5zM669 730h68l-527 -730h-68zM704 42q38 0 60 23t22 55t-21.5 56t-60.5 24q-38 0 -60 -24t-22 -56t22 -55t60 -23zM704 249q30 0 48.5 18.5t18.5 46.5q0 27 -18 46.5t-49 19.5q-30 0 -47.5 -19.5t-17.5 -46.5
q0 -28 17.5 -46.5t47.5 -18.5z" />
    <glyph glyph-name="uni215E" unicode="&#x215e;" horiz-adv-x="792" 
d="M620 -6q-31 0 -56 10t-42.5 27.5t-26.5 40.5t-9 48q0 35 18 62.5t47 42.5q-23 14 -36 36t-13 53q0 23 8.5 44t24 36.5t37 24.5t48.5 9q26 0 48 -9t38 -24.5t24.5 -36.5t8.5 -44q0 -31 -14 -52.5t-37 -35.5q30 -14 48 -41.5t18 -64.5q0 -25 -9 -48t-26 -40.5t-42 -27.5
t-57 -10zM585 730h68l-527 -730h-68zM262 680h-207v50h262v-45l-170 -377h-56zM620 42q38 0 60 23t22 55t-21.5 56t-60.5 24q-38 0 -60 -24t-22 -56t22 -55t60 -23zM620 249q30 0 48.5 18.5t18.5 46.5q0 27 -18 46.5t-49 19.5q-30 0 -47.5 -19.5t-17.5 -46.5
q0 -28 17.5 -46.5t47.5 -18.5z" />
    <glyph glyph-name="uni215F" unicode="&#x215f;" horiz-adv-x="727" 
d="M632 730h68l-527 -730h-68zM37 357h84v285q-9 -15 -29.5 -25.5t-40.5 -10.5h-6v55h3q21 0 35 6.5t22.5 16.5t12.5 22.5t4 23.5h51v-373h81v-49h-217v49z" />
    <glyph glyph-name="arrowleft" unicode="&#x2190;" horiz-adv-x="896" 
d="M258 127q-15 33 -39 66.5t-52 62.5t-58.5 53.5t-59.5 39.5v35q29 15 59.5 39.5t58.5 53.5t52 62.5t39 66.5l48 -30q-13 -27 -33 -53.5t-42.5 -50.5t-46 -44t-44.5 -34h686v-55h-688q21 -14 45 -34t47 -43.5t43 -50t33 -53.5z" />
    <glyph glyph-name="arrowup" unicode="&#x2191;" horiz-adv-x="896" 
d="M412 670q-14 -21 -34 -44.5t-43.5 -45.5t-49.5 -41t-53 -32l-30 48q33 15 66 38.5t62 51.5t53.5 58.5t39.5 59.5h35q16 -29 40 -59.5t53.5 -58.5t62.5 -51.5t66 -38.5l-30 -48q-27 13 -53.5 32.5t-50 42t-43.5 46t-34 44.5v-672h-57v670z" />
    <glyph glyph-name="arrowright" unicode="&#x2192;" horiz-adv-x="896" 
d="M573 157q12 27 31.5 53.5t42.5 50.5t47 44t45 34h-686v55h686q-21 14 -45 34t-46.5 43.5t-42 50t-32.5 53.5l49 31q15 -33 38 -66.5t51 -63t59 -54t60 -39.5v-34q-29 -15 -60 -39.5t-59 -53.5t-52 -62.5t-39 -66.5z" />
    <glyph glyph-name="arrowdown" unicode="&#x2193;" horiz-adv-x="896" 
d="M423 -33q-15 29 -39.5 59.5t-53.5 58.5t-62.5 51.5t-66.5 38.5l30 48q26 -13 52 -32t50 -41t44 -45.5t34 -44.5v670h57v-674q14 21 33.5 45t43.5 46.5t50.5 42.5t53.5 33l31 -48q-33 -15 -66.5 -38.5t-62.5 -51.5t-53.5 -58.5t-39.5 -59.5h-35z" />
    <glyph glyph-name="uni2196" unicode="&#x2196;" horiz-adv-x="896" 
d="M207 557q6 -25 8.5 -55.5t2 -63.5t-5.5 -65.5t-15 -60.5l-55 13q13 34 19.5 74t7 80.5t-4 79t-14.5 69.5l25 26q32 -10 71 -14.5t79.5 -3.5t80.5 7.5t74 19.5l12 -55q-28 -10 -60.5 -15t-65.5 -6t-64 2t-56 8l486 -486l-40 -39z" />
    <glyph glyph-name="uni2197" unicode="&#x2197;" horiz-adv-x="896" 
d="M144 111l483 484q-25 -5 -55.5 -7.5t-63 -1.5t-65 6t-60.5 15l13 55q34 -13 74 -19.5t80.5 -7.5t79.5 3.5t70 14.5l25 -25q-10 -31 -14.5 -70t-3.5 -79.5t7.5 -80.5t19.5 -74l-55 -13q-10 28 -15 61t-6 66t2 64t8 56l-486 -486z" />
    <glyph glyph-name="uni2198" unicode="&#x2198;" horiz-adv-x="896" 
d="M700 78q-32 10 -71 14.5t-79.5 3.5t-80.5 -7.5t-74 -19.5l-12 55q28 10 60.5 15t65.5 6t64 -2t56 -8l-486 486l39 39l485 -486q-5 25 -7.5 56t-2 64t5.5 65.5t15 60.5l55 -13q-13 -34 -19.5 -74t-7.5 -80.5t3.5 -79t14.5 -69.5z" />
    <glyph glyph-name="uni2199" unicode="&#x2199;" horiz-adv-x="896" 
d="M479 70q-34 13 -74 19.5t-81 7.5t-79.5 -3.5t-69.5 -14.5l-25 25q10 32 14.5 70.5t3.5 79t-7.5 80.5t-19.5 74l55 13q10 -28 14.5 -61.5t5.5 -66.5t-2 -64t-8 -56l486 487l39 -39l-484 -485q25 5 56 7.5t63.5 2t65 -5.5t60.5 -15z" />
    <glyph glyph-name="partialdiff" unicode="&#x2202;" horiz-adv-x="611" 
d="M305 -7q-52 0 -98.5 19t-80.5 52.5t-54 79.5t-20 99t19.5 98.5t53.5 79.5t78.5 53t95.5 19q57 0 97 -19.5t66 -51.5q-37 72 -111 147t-194 161h88q161 -125 237.5 -243.5t76.5 -243.5q0 -52 -19.5 -97.5t-54 -79.5t-80.5 -53.5t-100 -19.5zM306 46q41 0 76.5 15.5
t61.5 42t41.5 62.5t15.5 77q0 40 -15 75.5t-41.5 62.5t-62 42.5t-76.5 15.5q-40 0 -75.5 -15.5t-62.5 -42t-42.5 -62t-15.5 -76.5t15.5 -77t42.5 -62.5t62.5 -42t75.5 -15.5z" />
    <glyph glyph-name="Delta" unicode="&#x2206;" horiz-adv-x="897" 
d="M20 0l429 742l428 -742h-857zM118 55h661l-330 575z" />
    <glyph glyph-name="product" unicode="&#x220f;" horiz-adv-x="741" 
d="M43 730h656v-56h-132v-674h-58v674h-277v-674h-58v674h-131v56z" />
    <glyph glyph-name="summation" unicode="&#x2211;" horiz-adv-x="575" 
d="M43 59l268 320l-261 293v58h480v-55h-408l262 -297l-271 -323h417v-55h-487v59z" />
    <glyph glyph-name="minus" unicode="&#x2212;" horiz-adv-x="475" 
d="M53 391h370v-50h-370v50z" />
    <glyph glyph-name="radical" unicode="&#x221a;" horiz-adv-x="776" 
d="M140 443h-95v57h137l165 -438l317 668h63l-350 -730h-66z" />
    <glyph glyph-name="infinity" unicode="&#x221e;" horiz-adv-x="940" 
d="M260 232q-31 0 -59 12t-49 32.5t-33 48.5t-12 59q0 32 12 59.5t33 48t49 32.5t59 12q28 0 55.5 -10t54 -26t53 -37t51.5 -43l51.5 43.5t52 37t54 26t55.5 9.5q32 0 59.5 -12t48.5 -32.5t33 -48t12 -59.5q0 -31 -12 -59t-33 -48.5t-48.5 -32.5t-59.5 -12q-28 0 -55.5 9.5
t-54 26t-52.5 37.5l-51 43l-51 -43t-53 -37.5t-54.5 -26t-55.5 -9.5zM261 283q42 0 85.5 30t89.5 70q-46 40 -89.5 70t-85.5 30q-20 0 -38.5 -8t-32.5 -22t-22 -32t-8 -38t8 -38t22 -32t32.5 -22t38.5 -8zM687 285q20 0 38.5 8t32 22t21 32t7.5 38t-8 38t-21.5 32t-31.5 22
t-38 8q-43 0 -86 -30.5t-88 -70.5q45 -40 88.5 -69.5t85.5 -29.5z" />
    <glyph glyph-name="integral" unicode="&#x222b;" horiz-adv-x="343" 
d="M-6 -151q41 0 66 5t39 19t18.5 39.5t4.5 66.5v569q0 54 8.5 89t29 56t55.5 29t87 8h5v-53q-41 0 -66 -4.5t-39 -18.5t-18.5 -39.5t-4.5 -67.5v-568q0 -54 -8.5 -89.5t-29 -56t-55 -29t-87.5 -8.5h-5v53z" />
    <glyph glyph-name="approxequal" unicode="&#x2248;" horiz-adv-x="467" 
d="M48 463q22 11 44 18.5t53 7.5q23 0 46 -6t45.5 -13t44.5 -13t41 -6q29 0 49.5 6.5t46.5 18.5v-52q-21 -12 -42 -18.5t-54 -6.5q-21 0 -44 6t-46.5 13l-45.5 13t-41 6q-30 0 -52 -7.5t-45 -18.5v52zM48 299q22 11 43 18.5t52 7.5q23 0 46.5 -6l47 -12.5l46 -12.5t41.5 -6
q29 0 48.5 6t45.5 18v-52q-21 -12 -41 -17.5t-53 -5.5q-21 0 -44.5 6l-47.5 12.5l-47 12.5t-42 6q-30 0 -51 -8t-44 -19v52z" />
    <glyph glyph-name="notequal" unicode="&#x2260;" horiz-adv-x="475" 
d="M311 469h112v-50h-136l-54 -112h190v-49h-214l-32 -67h-53l32 67h-103v49h126l54 112h-180v50h204l33 67h54z" />
    <glyph glyph-name="equivalence" unicode="&#x2261;" horiz-adv-x="475" 
d="M53 387h370v-49h-370v49zM53 227h370v-49h-370v49zM53 549h370v-50h-370v50z" />
    <glyph glyph-name="lessequal" unicode="&#x2264;" horiz-adv-x="475" 
d="M52 418v50l370 141v-52l-309 -114l309 -118v-52zM52 225h370v-50h-370v50z" />
    <glyph glyph-name="greaterequal" unicode="&#x2265;" horiz-adv-x="475" 
d="M52 325l310 118l-310 114v52l370 -141v-50l-370 -145v52zM52 225h370v-50h-370v50z" />
    <glyph glyph-name="squaremultiply" unicode="&#x22a0;" horiz-adv-x="926" 
d="M100 730h726v-730h-726v730zM158 55h610v620h-610v-620zM261 189l170 177l-169 175l34 34l169 -175l167 175l34 -35l-168 -174l169 -174l-34 -34l-168 173l-170 -177z" />
    <glyph glyph-name="house" unicode="&#x2302;" horiz-adv-x="874" 
d="M100 0v427l337 323l337 -323v-427h-674z" />
    <glyph glyph-name="blacksquare" unicode="&#x25a0;" horiz-adv-x="926" 
d="M100 730h726v-730h-726v730z" />
    <glyph glyph-name="blacksquare" unicode="&#xe740;" horiz-adv-x="926" 
d="M100 730h726v-730h-726v730z" />
    <glyph glyph-name="whitesquare" unicode="&#x25a1;" horiz-adv-x="926" 
d="M100 730h726v-730h-726v730zM158 55h610v620h-610v-620z" />
    <glyph glyph-name="blacksmallsquare" unicode="&#x25aa;" horiz-adv-x="700" 
d="M100 500h500v-500h-500v500z" />
    <glyph glyph-name="whitesmallsquare" unicode="&#x25ab;" horiz-adv-x="700" 
d="M100 500h500v-500h-500v500zM158 55h384v390h-384v-390z" />
    <glyph glyph-name="triagup" unicode="&#x25b2;" horiz-adv-x="897" 
d="M20 0l429 742l428 -742h-857z" />
    <glyph glyph-name="triagrt" unicode="&#x25ba;" horiz-adv-x="897" 
d="M100 800l742 -428l-742 -429v857z" />
    <glyph glyph-name="triagdn" unicode="&#x25bc;" horiz-adv-x="897" 
d="M877 730l-428 -742l-429 742h857z" />
    <glyph glyph-name="triaglf" unicode="&#x25c4;" horiz-adv-x="897" 
d="M797 -57l-742 429l742 428v-857z" />
    <glyph glyph-name="lozenge" unicode="&#x25ca;" horiz-adv-x="843" 
d="M33 366l380 380l382 -382l-380 -380zM415 58l307 307l-309 308l-307 -307z" />
    <glyph glyph-name="whitecircle" unicode="&#x25cb;" horiz-adv-x="927" 
d="M464 -10q-78 0 -146 29.5t-119 80.5t-80.5 119t-29.5 146t29.5 146t80.5 119t119 80.5t146 29.5t146 -29.5t119 -80.5t80.5 -119t29.5 -146t-29.5 -146t-80.5 -119t-119 -80.5t-146 -29.5zM464 45q67 0 124.5 25.5t100 69t67 101.5t24.5 124t-24.5 124.5t-67 102
t-100 68.5t-124.5 25t-124.5 -25t-100 -68.5t-67 -102t-24.5 -124.5t24.5 -124t67 -101.5t100 -69t124.5 -25.5z" />
    <glyph glyph-name="whitecircle" unicode="&#x25ef;" horiz-adv-x="927" 
d="M464 -10q-78 0 -146 29.5t-119 80.5t-80.5 119t-29.5 146t29.5 146t80.5 119t119 80.5t146 29.5t146 -29.5t119 -80.5t80.5 -119t29.5 -146t-29.5 -146t-80.5 -119t-119 -80.5t-146 -29.5zM464 45q67 0 124.5 25.5t100 69t67 101.5t24.5 124t-24.5 124.5t-67 102
t-100 68.5t-124.5 25t-124.5 -25t-100 -68.5t-67 -102t-24.5 -124.5t24.5 -124t67 -101.5t100 -69t124.5 -25.5z" />
    <glyph glyph-name="bullseye" unicode="&#x25ce;" horiz-adv-x="927" 
d="M464 -10q-78 0 -146 29.5t-119 80.5t-80.5 119t-29.5 146t29.5 146t80.5 119t119 80.5t146 29.5t146 -29.5t119 -80.5t80.5 -119t29.5 -146t-29.5 -146t-80.5 -119t-119 -80.5t-146 -29.5zM464 45q67 0 124.5 25.5t100 69t67 101.5t24.5 124t-24.5 124.5t-67 102
t-100 68.5t-124.5 25t-124.5 -25t-100 -68.5t-67 -102t-24.5 -124.5t24.5 -124t67 -101.5t100 -69t124.5 -25.5zM464 150q-44 0 -83 16.5t-68 45.5t-45.5 68t-16.5 84t16.5 84t45.5 68t68 45.5t83 16.5q45 0 84 -16.5t68 -45.5t45.5 -68t16.5 -84t-16.5 -84t-45.5 -68
t-68 -45.5t-84 -16.5zM464 204q33 0 62 12.5t50 34t33.5 50.5t12.5 63t-12.5 63t-33.5 50.5t-50 34t-62 12.5t-61.5 -12.5t-49.5 -34t-33 -50.5t-12 -63t12 -63t33 -50.5t49.5 -34t61.5 -12.5zM411 365q0 23 15 38.5t38 15.5t38.5 -15.5t15.5 -38.5t-15.5 -38t-38.5 -15
t-38 15t-15 38z" />
    <glyph glyph-name="blackcircle" unicode="&#x25cf;" horiz-adv-x="927" 
d="M464 -10q-78 0 -146 29.5t-119 80.5t-80.5 119t-29.5 146t29.5 146t80.5 119t119 80.5t146 29.5t146 -29.5t119 -80.5t80.5 -119t29.5 -146t-29.5 -146t-80.5 -119t-119 -80.5t-146 -29.5z" />
    <glyph glyph-name="uni25E2" unicode="&#x25e2;" horiz-adv-x="897" 
d="M267 -73l-222 828l828 -222z" />
    <glyph glyph-name="uni25E3" unicode="&#x25e3;" horiz-adv-x="897" 
d="M26 533l828 222l-222 -828z" />
    <glyph glyph-name="uni25E4" unicode="&#x25e4;" horiz-adv-x="897" 
d="M29 168l606 606l222 -828z" />
    <glyph glyph-name="uni25E5" unicode="&#x25e5;" horiz-adv-x="897" 
d="M44 -58l223 828l605 -607z" />
    <glyph glyph-name="uni2605" unicode="&#x2605;" horiz-adv-x="900" 
d="M634 85l-187 135l-186 -135l72 219l-186 135l229 -1l72 218l71 -218l230 -1l-187 -134z" />
    <glyph glyph-name="ballotboxwithx" unicode="&#x2612;" horiz-adv-x="700" 
d="M100 500h500v-500h-500v500zM158 55h384v390h-384v-390zM348 282l104 107l34 -34l-103 -106l106 -104l-34 -35l-106 104l-103 -106l-34 34l103 106l-106 104l34 34z" />
    <glyph glyph-name="uni263C" unicode="&#x263c;" horiz-adv-x="928" 
d="M287 365q0 36 14 67.5t37.5 55t55 37.5t67.5 14t67.5 -14t55 -37.5t37.5 -55t14 -67.5t-14 -67.5t-37.5 -55t-55 -37.5t-67.5 -14t-67.5 14t-55 37.5t-37.5 55t-14 67.5zM434 719h54l-17 -142h-20zM488 13h-54l17 142h20zM108 339v54l142 -17v-20zM814 393v-54l-142 17
v20zM140 519l28 47l115 -87l-10 -15zM782 213l-28 -47l-115 87l10 15zM261 659l47 28l55 -133l-15 -10zM661 73l-47 -28l-55 133l15 10zM614 687l47 -28l-87 -115l-15 10zM308 45l-47 28l87 115l15 -10zM752 566l30 -46l-133 -56l-10 16zM170 166l-30 46l133 56l10 -16z" />
    <glyph glyph-name="uni263E" unicode="&#x263e;" horiz-adv-x="787" 
d="M534 616q-49 0 -93 -20t-76 -54t-51 -79.5t-19 -97.5t19 -97.5t51 -79.5t76 -54t93 -20q18 0 36 3.5t35 8.5q-38 -27 -83.5 -42t-94.5 -15q-61 0 -115 23.5t-94 63.5t-63.5 94t-23.5 115t23.5 115t63.5 94t94 63.5t115 23.5q49 0 94.5 -15t83.5 -42q-17 5 -35 8.5
t-36 3.5z" />
    <glyph glyph-name="spade" unicode="&#x2660;" horiz-adv-x="920" 
d="M335 0l26 50t31 69t26 82t11 89q-9 -26 -24 -50.5t-36 -43.5t-48.5 -30.5t-61.5 -11.5q-35 0 -66 12.5t-54.5 34t-37 50.5t-13.5 61q0 43 13.5 80.5t42 75t73 78t106.5 89.5l140 112h1l140 -112q62 -49 105.5 -89.5t70.5 -78t39.5 -75t12.5 -80.5q0 -32 -12.5 -60.5
t-34 -50t-50 -34t-60.5 -12.5q-37 0 -66 11.5t-51.5 30t-38.5 43t-25 50.5q0 -45 12 -89t28 -82t33 -69l27 -50h-259z" />
    <glyph glyph-name="club" unicode="&#x2663;" horiz-adv-x="920" 
d="M336 0l22.5 43t27.5 58t25.5 69.5t15.5 77.5q-21 -52 -65 -85t-102 -33q-37 0 -69 14t-56 38t-38 56t-14 69t14 69t38 56t56 38t69 14q11 0 21.5 -2t20.5 -5q-19 41 -19 87q0 36 13.5 68t37.5 56t56 38t68 14t68 -14t56 -38t38 -56t14 -68q0 -45 -19 -88q22 8 46 8
q37 0 69 -14t56 -38t37.5 -56t13.5 -69t-14 -69t-38 -56t-56 -38t-69 -14q-58 0 -100.5 33t-62.5 84q5 -39 17.5 -76.5t27.5 -69.5t29.5 -58l23.5 -43h-259z" />
    <glyph glyph-name="heart" unicode="&#x2665;" horiz-adv-x="920" 
d="M89 550q0 39 14 73.5t39 60.5t58 41t72 15q38 0 70.5 -12.5t56.5 -34t39 -51t19 -63.5q5 34 19.5 63.5t38.5 51t56 34t71 12.5t73 -15t60 -41t41 -60.5t15 -73.5q0 -43 -13 -86.5t-41 -92t-72 -105.5t-106 -126l-142 -157l-141 157q-62 69 -105.5 126t-70.5 105.5t-39 92
t-12 86.5z" />
    <glyph glyph-name="diamond" unicode="&#x2666;" horiz-adv-x="920" 
d="M460 791l327 -401l-327 -400l-327 400z" />
    <glyph glyph-name="uni267B" unicode="&#x267b;" horiz-adv-x="921" 
d="M822 244l-91 -157q-14 -22 -29.5 -37t-52.5 -15h-54v-47l-106 128l106 127v-46h136q21 0 37.5 7.5t28.5 17.5q14 10 24 24zM182 111l-90 158q-12 23 -17.5 44t13.5 52l27 46l-40 23l164 29l55 -156l-38 23l-33 -57l-24 -41.5t-11 -19.5q-11 -18 -12.5 -36t0.5 -32
q2 -17 8 -33h-2zM389 729h182q26 -1 47 -6.5t39 -37.5l26 -46l41 23l-58 -157l-162 30l38 22l-67 118q-11 18 -25.5 28.5t-28.5 16.5q-16 6 -32 8v1zM260 670q4 6 12.5 14.5t19.5 14.5q21 12 45 13.5t46 -4.5t39.5 -17t24.5 -25l-109 -189l-141 81zM302 35q-8 0 -19.5 2.5
t-22.5 9.5q-21 12 -34.5 32.5t-19.5 42t-4.5 42t9.5 33.5h218v-162h-127zM832 381q4 -6 6.5 -17t2.5 -24q0 -24 -10.5 -45.5t-27 -37.5t-34.5 -25.5t-33 -9.5l-109 189l140 80z" />
    <glyph glyph-name="uni267C" unicode="&#x267c;" horiz-adv-x="921" 
d="M837 366q0 -78 -29.5 -146.5t-80.5 -119t-119 -80t-146 -29.5t-147 29.5t-120 80t-80.5 119t-29.5 146.5t29.5 146.5t80.5 120t120 81t147 29.5t146 -29.5t119 -81t80.5 -120t29.5 -146.5zM255 520l109 -63l84 146q-6 11 -19 19.5t-30.5 13t-36 3.5t-34.5 -10
q-8 -5 -15 -11.5t-9 -11.5zM399 651q13 -2 26 -7q11 -4 22 -12t19 -22l53 -91l-30 -18l126 -23l44 122l-31 -18l-21 36q-14 24 -30 29t-37 5h-141v-1zM431 114v126h-170q-6 -10 -7 -26t4 -33t15.5 -32.5t26.5 -25.5q8 -5 17 -7t15 -2h99zM244 173q-5 12 -6 25q-2 12 -0.5 26
t9.5 28l53 91l30 -18l-43 121l-127 -22l31 -18l-21 -36q-15 -25 -10.5 -41t13.5 -34l70 -122h1zM697 468l-110 -63l85 -147q12 0 26 7.5t27 20t21 29.5t8 36q0 10 -2.5 18.5t-5.5 13.5zM738 277q-8 -10 -18 -18t-22.5 -13.5t-29.5 -5.5h-105v35l-83 -98l83 -99v36h41
q29 0 41.5 11.5t22.5 28.5l71 122z" />
    <glyph glyph-name="uni267D" unicode="&#x267d;" horiz-adv-x="921" 
d="M837 366q0 -78 -29.5 -146.5t-80.5 -119t-119 -80t-146 -29.5t-147 29.5t-120 80t-80.5 119t-29.5 146.5t29.5 146.5t80.5 120t120 81t147 29.5t146 -29.5t119 -81t80.5 -120t29.5 -146.5zM818 366q0 74 -28 139.5t-76 114t-113 76.5t-139 28q-75 0 -140 -28t-114 -76.5
t-77 -114t-28 -139.5t28 -139t77 -113.5t114 -76.5t140 -28q74 0 139 28t113 76.5t76 113.5t28 139zM304 606q2 5 9 11.5t15 11.5q16 9 34.5 10t36 -3.5t30.5 -13t19 -19.5l-84 -146l-109 63zM399 652h141q21 0 37 -5t30 -29l21 -36l31 18l-44 -122l-126 23l30 18l-53 91
q-8 14 -19.5 22t-21.5 12q-13 5 -26 7v1zM332 114q-6 0 -15 2t-17 7q-16 10 -26.5 25.5t-15.5 32.5t-4 33t7 26h170v-126h-99zM243 173l-70 122q-9 18 -13.5 34t10.5 41l21 36l-31 18l127 22l43 -121l-30 18l-53 -91q-8 -14 -9.5 -28t0.5 -26q1 -13 6 -25h-1zM746 383
q3 -5 5.5 -13.5t2.5 -18.5q0 -19 -8 -36t-21 -29.5t-27 -20t-26 -7.5l-85 147l110 63zM739 276l-71 -122q-10 -17 -22.5 -28.5t-41.5 -11.5h-41v-36l-83 99l83 98v-35h105q17 0 29.5 6t22.5 13q10 8 18 18z" />
    <glyph glyph-name="mediumwhitecircle" unicode="&#x26aa;" horiz-adv-x="698" 
d="M349 -10q-54 0 -101 20t-82.5 55t-55.5 82.5t-20 102.5t20 102.5t55.5 82.5t82.5 55t101 20t101.5 -20t82.5 -55t55.5 -82.5t20.5 -102.5t-20.5 -102.5t-55.5 -82.5t-82.5 -55t-101.5 -20zM349 42q42 0 79 16.5t64.5 44.5t43 66t15.5 81t-15.5 81t-43 66t-64.5 44.5
t-79 16.5t-79 -16.5t-64.5 -44.5t-43 -66t-15.5 -81t15.5 -81t43 -66t64.5 -44.5t79 -16.5z" />
    <glyph glyph-name="mediumblackcircle" unicode="&#x26ab;" horiz-adv-x="698" 
d="M349 -10q-54 0 -101 20.5t-82.5 55.5t-55.5 82.5t-20 101.5t20 101.5t55.5 82.5t82.5 55.5t101 20.5t101 -20.5t82.5 -55.5t55.5 -82.5t20 -101.5t-20 -101.5t-55.5 -82.5t-82.5 -55.5t-101 -20.5z" />
    <glyph glyph-name="anglebracketleft" unicode="&#x3008;" horiz-adv-x="360" 
d="M37 250l228 480h62l-228 -480l228 -480h-62z" />
    <glyph glyph-name="anglebracketright" unicode="&#x3009;" horiz-adv-x="360" 
d="M34 -230l228 480l-228 480h62l228 -480l-228 -480h-62z" />
    <glyph glyph-name="R.alt" unicode="&#xe141;" horiz-adv-x="596" 
d="M330 272h-197v-272h-58v730h228q51 0 95 -18t76.5 -49t50.5 -72.5t18 -88.5q0 -36 -11.5 -70t-32.5 -62t-50.5 -49.5t-65.5 -32.5l164 -288h-65zM133 677v-352h165q42 0 76 14.5t59 39.5t38.5 57t13.5 66q0 37 -13.5 69t-38 55.5t-59 37t-75.5 13.5h-166z" />
    <glyph glyph-name="Racute.alt" unicode="&#xe142;" horiz-adv-x="596" 
d="M330 272h-197v-272h-58v730h228q51 0 95 -18t76.5 -49t50.5 -72.5t18 -88.5q0 -36 -11.5 -70t-32.5 -62t-50.5 -49.5t-65.5 -32.5l164 -288h-65zM133 677v-352h165q42 0 76 14.5t59 39.5t38.5 57t13.5 66q0 37 -13.5 69t-38 55.5t-59 37t-75.5 13.5h-166zM357 950h75
l-140 -155h-54z" />
    <glyph glyph-name="Rcaron.alt" unicode="&#xe143;" horiz-adv-x="596" 
d="M330 272h-197v-272h-58v730h228q51 0 95 -18t76.5 -49t50.5 -72.5t18 -88.5q0 -36 -11.5 -70t-32.5 -62t-50.5 -49.5t-65.5 -32.5l164 -288h-65zM133 677v-352h165q42 0 76 14.5t59 39.5t38.5 57t13.5 66q0 37 -13.5 69t-38 55.5t-59 37t-75.5 13.5h-166zM167 950h59
l81 -114l84 114h59l-118 -155h-48z" />
    <glyph glyph-name="Rcommaaccent.alt" unicode="&#xe146;" horiz-adv-x="596" 
d="M330 272h-197v-272h-58v730h228q51 0 95 -18t76.5 -49t50.5 -72.5t18 -88.5q0 -36 -11.5 -70t-32.5 -62t-50.5 -49.5t-65.5 -32.5l164 -288h-65zM133 677v-352h165q42 0 76 14.5t59 39.5t38.5 57t13.5 66q0 37 -13.5 69t-38 55.5t-59 37t-75.5 13.5h-166zM246 -281
l43 204h55l-58 -204h-40z" />
    <glyph glyph-name="cordinal" unicode="&#xe181;" horiz-adv-x="405" 
d="M210 435q-31 0 -58.5 12t-47.5 32t-32 47.5t-12 58.5q0 32 12 59.5t32 47.5t47.5 32t58.5 12q45 0 80 -22.5t54 -57.5l-39 -22q-13 26 -38 42.5t-57 16.5q-22 0 -41.5 -8.5t-34 -23t-22.5 -34t-8 -42.5q0 -22 8 -41.5t22.5 -34t34 -23t41.5 -8.5q35 0 59.5 17t37.5 45
l40 -20q-19 -38 -54.5 -61.5t-82.5 -23.5z" />
    <glyph glyph-name="p.smcp" unicode="&#xe200;" horiz-adv-x="524" 
d="M72 596h184q49 0 89 -15.5t68.5 -43t44 -64.5t15.5 -81q0 -43 -15.5 -80.5t-44 -65t-69 -43t-89.5 -15.5h-127v-188h-56v596zM128 543v-302h124q38 0 68 11.5t51 32t32.5 48t11.5 59.5t-11.5 60t-32.5 48t-51 31.5t-68 11.5h-124z" />
    <glyph glyph-name="p.smcp" unicode="&#xf770;" horiz-adv-x="524" 
d="M72 596h184q49 0 89 -15.5t68.5 -43t44 -64.5t15.5 -81q0 -43 -15.5 -80.5t-44 -65t-69 -43t-89.5 -15.5h-127v-188h-56v596zM128 543v-302h124q38 0 68 11.5t51 32t32.5 48t11.5 59.5t-11.5 60t-32.5 48t-51 31.5t-68 11.5h-124z" />
    <glyph glyph-name="a.smcp" unicode="&#xe201;" horiz-adv-x="576" 
d="M258 596h60l226 -596h-58l-58 153h-279l-58 -153h-59zM170 208h237l-119 313z" />
    <glyph glyph-name="a.smcp" unicode="&#xf761;" horiz-adv-x="576" 
d="M258 596h60l226 -596h-58l-58 153h-279l-58 -153h-59zM170 208h237l-119 313z" />
    <glyph glyph-name="b.smcp" unicode="&#xe202;" horiz-adv-x="538" 
d="M72 596h222q40 0 73 -11.5t56.5 -32t36.5 -49t13 -63.5q0 -44 -21 -78t-60 -52q46 -17 71.5 -54.5t25.5 -89.5q0 -38 -13.5 -68.5t-37.5 -52.5t-57.5 -33.5t-74.5 -11.5h-234v596zM129 280v-228h178q57 0 91 32.5t34 82.5t-32.5 81.5t-94.5 31.5h-176zM129 544v-210h172
q55 0 85.5 30t30.5 76t-34 75t-89 29h-165z" />
    <glyph glyph-name="b.smcp" unicode="&#xf762;" horiz-adv-x="538" 
d="M72 596h222q40 0 73 -11.5t56.5 -32t36.5 -49t13 -63.5q0 -44 -21 -78t-60 -52q46 -17 71.5 -54.5t25.5 -89.5q0 -38 -13.5 -68.5t-37.5 -52.5t-57.5 -33.5t-74.5 -11.5h-234v596zM129 280v-228h178q57 0 91 32.5t34 82.5t-32.5 81.5t-94.5 31.5h-176zM129 544v-210h172
q55 0 85.5 30t30.5 76t-34 75t-89 29h-165z" />
    <glyph glyph-name="c.smcp" unicode="&#xe203;" horiz-adv-x="661" 
d="M357 -9q-66 0 -122 24.5t-97 66t-64.5 97.5t-23.5 119q0 64 24 120t65.5 97t97 65t118.5 24q43 0 83 -11.5t74.5 -32t63 -49.5t47.5 -64l-51 -26q-31 57 -87.5 93.5t-128.5 36.5q-53 0 -98.5 -20t-78.5 -54.5t-52 -80.5t-19 -98t19.5 -98.5t53 -80.5t78.5 -54t96 -20
q78 0 134.5 39t87.5 101l53 -24q-40 -77 -111 -123.5t-162 -46.5z" />
    <glyph glyph-name="c.smcp" unicode="&#xf763;" horiz-adv-x="661" 
d="M357 -9q-66 0 -122 24.5t-97 66t-64.5 97.5t-23.5 119q0 64 24 120t65.5 97t97 65t118.5 24q43 0 83 -11.5t74.5 -32t63 -49.5t47.5 -64l-51 -26q-31 57 -87.5 93.5t-128.5 36.5q-53 0 -98.5 -20t-78.5 -54.5t-52 -80.5t-19 -98t19.5 -98.5t53 -80.5t78.5 -54t96 -20
q78 0 134.5 39t87.5 101l53 -24q-40 -77 -111 -123.5t-162 -46.5z" />
    <glyph glyph-name="d.smcp" unicode="&#xe204;" horiz-adv-x="598" 
d="M72 596h167q68 0 125 -23t98 -63t63.5 -94.5t22.5 -117.5q0 -64 -23.5 -118.5t-64.5 -94.5t-97.5 -62.5t-121.5 -22.5h-169v596zM129 543v-489h107q55 0 101.5 18.5t80 51.5t52.5 77.5t19 96.5q0 53 -18 97.5t-51.5 77.5t-80.5 51.5t-105 18.5h-105z" />
    <glyph glyph-name="d.smcp" unicode="&#xf764;" horiz-adv-x="598" 
d="M72 596h167q68 0 125 -23t98 -63t63.5 -94.5t22.5 -117.5q0 -64 -23.5 -118.5t-64.5 -94.5t-97.5 -62.5t-121.5 -22.5h-169v596zM129 543v-489h107q55 0 101.5 18.5t80 51.5t52.5 77.5t19 96.5q0 53 -18 97.5t-51.5 77.5t-80.5 51.5t-105 18.5h-105z" />
    <glyph glyph-name="e.smcp" unicode="&#xe205;" horiz-adv-x="492" 
d="M73 596h362v-53h-306v-218h306v-53h-306v-218h306v-54h-362v596z" />
    <glyph glyph-name="e.smcp" unicode="&#xf765;" horiz-adv-x="492" 
d="M73 596h362v-53h-306v-218h306v-53h-306v-218h306v-54h-362v596z" />
    <glyph glyph-name="f.smcp" unicode="&#xe206;" horiz-adv-x="460" 
d="M72 596h337v-53h-280v-218h280v-53h-280v-272h-57v596z" />
    <glyph glyph-name="f.smcp" unicode="&#xf766;" horiz-adv-x="460" 
d="M72 596h337v-53h-280v-218h280v-53h-280v-272h-57v596z" />
    <glyph glyph-name="g.smcp" unicode="&#xe207;" horiz-adv-x="706" 
d="M358 -9q-66 0 -122 24.5t-97.5 66.5t-65 97.5t-23.5 118.5t24 119t65.5 97.5t97.5 65.5t121 24q88 0 157.5 -40.5t107.5 -109.5l-50 -29q-32 58 -87.5 92t-127.5 34q-54 0 -99.5 -20t-79 -54.5t-52.5 -80.5t-19 -98q0 -51 18.5 -97t51.5 -80.5t79 -55t101 -20.5
q52 0 94 16.5t72.5 46t49.5 69t25 84.5h-248v54h307v-18q0 -62 -21 -117.5t-60 -97.5t-94.5 -66.5t-124.5 -24.5z" />
    <glyph glyph-name="g.smcp" unicode="&#xf767;" horiz-adv-x="706" 
d="M358 -9q-66 0 -122 24.5t-97.5 66.5t-65 97.5t-23.5 118.5t24 119t65.5 97.5t97.5 65.5t121 24q88 0 157.5 -40.5t107.5 -109.5l-50 -29q-32 58 -87.5 92t-127.5 34q-54 0 -99.5 -20t-79 -54.5t-52.5 -80.5t-19 -98q0 -51 18.5 -97t51.5 -80.5t79 -55t101 -20.5
q52 0 94 16.5t72.5 46t49.5 69t25 84.5h-248v54h307v-18q0 -62 -21 -117.5t-60 -97.5t-94.5 -66.5t-124.5 -24.5z" />
    <glyph glyph-name="h.smcp" unicode="&#xe208;" horiz-adv-x="586" 
d="M457 272h-328v-272h-57v596h57v-270h328v270h57v-596h-57v272z" />
    <glyph glyph-name="h.smcp" unicode="&#xf768;" horiz-adv-x="586" 
d="M457 272h-328v-272h-57v596h57v-270h328v270h57v-596h-57v272z" />
    <glyph glyph-name="i.smcp" unicode="&#xe209;" horiz-adv-x="213" 
d="M77 596h58v-596h-58v596z" />
    <glyph glyph-name="i.smcp" unicode="&#xf769;" horiz-adv-x="213" 
d="M77 596h58v-596h-58v596z" />
    <glyph glyph-name="j.smcp" unicode="&#xe20a;" horiz-adv-x="408" 
d="M184 -9q-57 0 -97.5 26t-58.5 69l53 27q14 -31 39 -49.5t63 -18.5q47 0 73 30.5t26 79.5v441h57v-438q0 -78 -41 -122.5t-114 -44.5z" />
    <glyph glyph-name="j.smcp" unicode="&#xf76a;" horiz-adv-x="408" 
d="M184 -9q-57 0 -97.5 26t-58.5 69l53 27q14 -31 39 -49.5t63 -18.5q47 0 73 30.5t26 79.5v441h57v-438q0 -78 -41 -122.5t-114 -44.5z" />
    <glyph glyph-name="k.smcp" unicode="&#xe20b;" horiz-adv-x="554" 
d="M249 319l-120 -135v-184h-56v596h56v-339l304 339h71l-214 -237l231 -359h-65z" />
    <glyph glyph-name="k.smcp" unicode="&#xf76b;" horiz-adv-x="554" 
d="M249 319l-120 -135v-184h-56v596h56v-339l304 339h71l-214 -237l231 -359h-65z" />
    <glyph glyph-name="l.smcp" unicode="&#xe20c;" horiz-adv-x="451" 
d="M72 596h57v-542h274v-54h-331v596z" />
    <glyph glyph-name="l.smcp" unicode="&#xf76c;" horiz-adv-x="451" 
d="M72 596h57v-542h274v-54h-331v596z" />
    <glyph glyph-name="m.smcp" unicode="&#xe20d;" horiz-adv-x="729" 
d="M72 596h56l236 -327l238 327h54v-596h-56v498l-236 -323l-235 326v-501h-57v596z" />
    <glyph glyph-name="m.smcp" unicode="&#xf76d;" horiz-adv-x="729" 
d="M72 596h56l236 -327l238 327h54v-596h-56v498l-236 -323l-235 326v-501h-57v596z" />
    <glyph glyph-name="n.smcp" unicode="&#xe20e;" horiz-adv-x="630" 
d="M72 596h63l366 -507v507h57v-596h-61l-368 509v-509h-57v596z" />
    <glyph glyph-name="n.smcp" unicode="&#xf76e;" horiz-adv-x="630" 
d="M72 596h63l366 -507v507h57v-596h-61l-368 509v-509h-57v596z" />
    <glyph glyph-name="o.smcp" unicode="&#xe20f;" horiz-adv-x="711" 
d="M355 -9q-64 0 -119.5 24t-96.5 66t-65 98t-24 119t24 119t65 97.5t96.5 65.5t119.5 24t119.5 -24t97 -65.5t65.5 -97.5t24 -119t-24 -119t-65.5 -98t-97 -66t-119.5 -24zM355 45q53 0 98 20t78 54.5t52 80.5t19 98t-19 98t-52 80.5t-78 54.5t-98 20q-52 0 -97.5 -20
t-78.5 -54.5t-52 -80.5t-19 -98t19 -98t52 -80.5t78.5 -54.5t97.5 -20z" />
    <glyph glyph-name="o.smcp" unicode="&#xf76f;" horiz-adv-x="711" 
d="M355 -9q-64 0 -119.5 24t-96.5 66t-65 98t-24 119t24 119t65 97.5t96.5 65.5t119.5 24t119.5 -24t97 -65.5t65.5 -97.5t24 -119t-24 -119t-65.5 -98t-97 -66t-119.5 -24zM355 45q53 0 98 20t78 54.5t52 80.5t19 98t-19 98t-52 80.5t-78 54.5t-98 20q-52 0 -97.5 -20
t-78.5 -54.5t-52 -80.5t-19 -98t19 -98t52 -80.5t78.5 -54.5t97.5 -20z" />
    <glyph glyph-name="q.smcp" unicode="&#xe211;" horiz-adv-x="711" 
d="M355 -9q-64 0 -119.5 24t-96.5 66t-65 98t-24 119t24 119t65 97.5t96.5 65.5t119.5 24t119.5 -24t97 -65.5t65.5 -97.5t24 -119q0 -62 -23 -116t-62 -96l72 -86h-72l-211 254h71l104 -125q29 34 45.5 77.5t16.5 91.5q0 52 -19 98t-52 80.5t-78 54.5t-98 20
q-52 0 -97.5 -20t-78.5 -54.5t-52 -80.5t-19 -98t19 -98t52 -80.5t78.5 -54.5t97.5 -20q32 0 61.5 8t55.5 22l34 -43q-33 -19 -71 -30t-80 -11z" />
    <glyph glyph-name="q.smcp" unicode="&#xf771;" horiz-adv-x="711" 
d="M355 -9q-64 0 -119.5 24t-96.5 66t-65 98t-24 119t24 119t65 97.5t96.5 65.5t119.5 24t119.5 -24t97 -65.5t65.5 -97.5t24 -119q0 -62 -23 -116t-62 -96l72 -86h-72l-211 254h71l104 -125q29 34 45.5 77.5t16.5 91.5q0 52 -19 98t-52 80.5t-78 54.5t-98 20
q-52 0 -97.5 -20t-78.5 -54.5t-52 -80.5t-19 -98t19 -98t52 -80.5t78.5 -54.5t97.5 -20q32 0 61.5 8t55.5 22l34 -43q-33 -19 -71 -30t-80 -11z" />
    <glyph glyph-name="r.smcp" unicode="&#xe212;" horiz-adv-x="505" 
d="M72 596h184q43 0 79.5 -15t63 -40.5t41.5 -60t15 -73.5q0 -32 -10 -61.5t-29.5 -53.5t-46.5 -41t-62 -24l154 -227h-68l-179 270h35q34 0 61 11.5t46 31t29.5 44t10.5 50.5q0 59 -37.5 97.5t-105.5 38.5h-123v-543h-58v596z" />
    <glyph glyph-name="r.smcp" unicode="&#xf772;" horiz-adv-x="505" 
d="M72 596h184q43 0 79.5 -15t63 -40.5t41.5 -60t15 -73.5q0 -32 -10 -61.5t-29.5 -53.5t-46.5 -41t-62 -24l154 -227h-68l-179 270h35q34 0 61 11.5t46 31t29.5 44t10.5 50.5q0 59 -37.5 97.5t-105.5 38.5h-123v-543h-58v596z" />
    <glyph glyph-name="s.smcp" unicode="&#xe213;" horiz-adv-x="471" 
d="M231 -9q-68 0 -117.5 27.5t-83.5 69.5l49 39q26 -38 64.5 -60.5t86.5 -22.5q29 0 53.5 9t42.5 25t28 38t10 47q0 29 -12.5 48.5t-33 33.5t-47 24t-55.5 19q-31 11 -61 23t-53.5 30t-38 44t-14.5 65q0 34 14 62t38 48.5t57 32t71 11.5q62 0 105 -21.5t74 -59.5l-46 -35
q-22 32 -55 49t-78 17q-52 0 -86.5 -28.5t-34.5 -74.5q0 -27 12 -45t31.5 -30.5t46 -22l54.5 -19.5q31 -10 61.5 -23t55 -32t39.5 -47t15 -69q0 -34 -14 -65.5t-39 -55t-60.5 -37.5t-78.5 -14z" />
    <glyph glyph-name="s.smcp" unicode="&#xf773;" horiz-adv-x="471" 
d="M231 -9q-68 0 -117.5 27.5t-83.5 69.5l49 39q26 -38 64.5 -60.5t86.5 -22.5q29 0 53.5 9t42.5 25t28 38t10 47q0 29 -12.5 48.5t-33 33.5t-47 24t-55.5 19q-31 11 -61 23t-53.5 30t-38 44t-14.5 65q0 34 14 62t38 48.5t57 32t71 11.5q62 0 105 -21.5t74 -59.5l-46 -35
q-22 32 -55 49t-78 17q-52 0 -86.5 -28.5t-34.5 -74.5q0 -27 12 -45t31.5 -30.5t46 -22l54.5 -19.5q31 -10 61.5 -23t55 -32t39.5 -47t15 -69q0 -34 -14 -65.5t-39 -55t-60.5 -37.5t-78.5 -14z" />
    <glyph glyph-name="t.smcp" unicode="&#xe214;" horiz-adv-x="512" 
d="M228 542h-183v54h422v-54h-182v-542h-57v542z" />
    <glyph glyph-name="t.smcp" unicode="&#xf774;" horiz-adv-x="512" 
d="M228 542h-183v54h422v-54h-182v-542h-57v542z" />
    <glyph glyph-name="u.smcp" unicode="&#xe215;" horiz-adv-x="545" 
d="M272 -9q-44 0 -81 14.5t-64 40.5t-42.5 63.5t-15.5 82.5v404h57v-406q0 -32 11 -59t30.5 -46t46.5 -29.5t59 -10.5q31 0 58 10.5t46.5 30t30.5 46t11 59.5v405h57v-403q0 -46 -15.5 -83t-42.5 -63.5t-64.5 -41t-81.5 -14.5z" />
    <glyph glyph-name="u.smcp" unicode="&#xf775;" horiz-adv-x="545" 
d="M272 -9q-44 0 -81 14.5t-64 40.5t-42.5 63.5t-15.5 82.5v404h57v-406q0 -32 11 -59t30.5 -46t46.5 -29.5t59 -10.5q31 0 58 10.5t46.5 30t30.5 46t11 59.5v405h57v-403q0 -46 -15.5 -83t-42.5 -63.5t-64.5 -41t-81.5 -14.5z" />
    <glyph glyph-name="v.smcp" unicode="&#xe216;" horiz-adv-x="562" 
d="M32 596h60l188 -516l189 516h61l-221 -596h-58z" />
    <glyph glyph-name="v.smcp" unicode="&#xf776;" horiz-adv-x="562" 
d="M32 596h60l188 -516l189 516h61l-221 -596h-58z" />
    <glyph glyph-name="w.smcp" unicode="&#xe217;" horiz-adv-x="876" 
d="M34 596h61l144 -507l168 507h55l168 -513l153 513h58l-181 -596h-58l-167 507l-169 -507h-59z" />
    <glyph glyph-name="w.smcp" unicode="&#xf777;" horiz-adv-x="876" 
d="M34 596h61l144 -507l168 507h55l168 -513l153 513h58l-181 -596h-58l-167 507l-169 -507h-59z" />
    <glyph glyph-name="x.smcp" unicode="&#xe218;" horiz-adv-x="537" 
d="M270 259l-173 -259h-67l208 305l-194 291h63l164 -245l159 245h67l-194 -290l204 -306h-64z" />
    <glyph glyph-name="x.smcp" unicode="&#xf778;" horiz-adv-x="537" 
d="M270 259l-173 -259h-67l208 305l-194 291h63l164 -245l159 245h67l-194 -290l204 -306h-64z" />
    <glyph glyph-name="y.smcp" unicode="&#xe219;" horiz-adv-x="522" 
d="M233 282l-199 314h63l163 -259l164 259h64l-199 -314v-282h-56v282z" />
    <glyph glyph-name="y.smcp" unicode="&#xf779;" horiz-adv-x="522" 
d="M233 282l-199 314h63l163 -259l164 259h64l-199 -314v-282h-56v282z" />
    <glyph glyph-name="z.smcp" unicode="&#xe21a;" horiz-adv-x="496" 
d="M50 53l328 489h-318v54h385v-52l-328 -489h328v-55h-395v53z" />
    <glyph glyph-name="z.smcp" unicode="&#xf77a;" horiz-adv-x="496" 
d="M50 53l328 489h-318v54h385v-52l-328 -489h328v-55h-395v53z" />
    <glyph glyph-name="anocross.smcp" unicode="&#xe220;" horiz-adv-x="576" 
d="M258 596h60l226 -596h-58l-198 521l-197 -521h-59z" />
    <glyph glyph-name="aacute.smcp" unicode="&#xe221;" horiz-adv-x="576" 
d="M258 596h60l226 -596h-58l-58 153h-279l-58 -153h-59zM170 208h237l-119 313zM378 816h75l-140 -155h-54z" />
    <glyph glyph-name="aacute.smcp" unicode="&#xf7e1;" horiz-adv-x="576" 
d="M258 596h60l226 -596h-58l-58 153h-279l-58 -153h-59zM170 208h237l-119 313zM378 816h75l-140 -155h-54z" />
    <glyph glyph-name="agrave.smcp" unicode="&#xe222;" horiz-adv-x="576" 
d="M258 596h60l226 -596h-58l-58 153h-279l-58 -153h-59zM170 208h237l-119 313zM119 816h74l120 -155h-54z" />
    <glyph glyph-name="agrave.smcp" unicode="&#xf7e0;" horiz-adv-x="576" 
d="M258 596h60l226 -596h-58l-58 153h-279l-58 -153h-59zM170 208h237l-119 313zM119 816h74l120 -155h-54z" />
    <glyph glyph-name="acircumflex.smcp" unicode="&#xe223;" horiz-adv-x="576" 
d="M258 596h60l226 -596h-58l-58 153h-279l-58 -153h-59zM170 208h237l-119 313zM262 808h49l119 -155h-61l-83 110l-83 -110h-60z" />
    <glyph glyph-name="acircumflex.smcp" unicode="&#xf7e2;" horiz-adv-x="576" 
d="M258 596h60l226 -596h-58l-58 153h-279l-58 -153h-59zM170 208h237l-119 313zM262 808h49l119 -155h-61l-83 110l-83 -110h-60z" />
    <glyph glyph-name="adieresis.smcp" unicode="&#xe224;" horiz-adv-x="576" 
d="M258 596h60l226 -596h-58l-58 153h-279l-58 -153h-59zM170 208h237l-119 313zM328 746q0 19 12.5 31t31.5 12q20 0 31.5 -12t11.5 -31t-11.5 -31.5t-31.5 -12.5t-32 12.5t-12 31.5zM160 746q0 19 12.5 31t31.5 12q20 0 31.5 -12t11.5 -31t-11.5 -31.5t-31.5 -12.5
t-32 12.5t-12 31.5z" />
    <glyph glyph-name="adieresis.smcp" unicode="&#xf7e4;" horiz-adv-x="576" 
d="M258 596h60l226 -596h-58l-58 153h-279l-58 -153h-59zM170 208h237l-119 313zM328 746q0 19 12.5 31t31.5 12q20 0 31.5 -12t11.5 -31t-11.5 -31.5t-31.5 -12.5t-32 12.5t-12 31.5zM160 746q0 19 12.5 31t31.5 12q20 0 31.5 -12t11.5 -31t-11.5 -31.5t-31.5 -12.5
t-32 12.5t-12 31.5z" />
    <glyph glyph-name="atilde.smcp" unicode="&#xe225;" horiz-adv-x="576" 
d="M258 596h60l226 -596h-58l-58 153h-279l-58 -153h-59zM170 208h237l-119 313zM115 661q0 50 26 79t67 29q25 0 45.5 -9t40.5 -21l36.5 -21t35.5 -10q23 0 36.5 14t13.5 44h46q0 -51 -24.5 -80t-70.5 -29q-29 0 -51.5 11.5t-42.5 23.5l-32 18.5t-33 8.5q-20 0 -33 -14.5
t-13 -43.5h-47z" />
    <glyph glyph-name="atilde.smcp" unicode="&#xf7e3;" horiz-adv-x="576" 
d="M258 596h60l226 -596h-58l-58 153h-279l-58 -153h-59zM170 208h237l-119 313zM115 661q0 50 26 79t67 29q25 0 45.5 -9t40.5 -21l36.5 -21t35.5 -10q23 0 36.5 14t13.5 44h46q0 -51 -24.5 -80t-70.5 -29q-29 0 -51.5 11.5t-42.5 23.5l-32 18.5t-33 8.5q-20 0 -33 -14.5
t-13 -43.5h-47z" />
    <glyph glyph-name="aring.smcp" unicode="&#xe226;" horiz-adv-x="576" 
d="M246 564q-26 11 -42.5 35.5t-16.5 55.5q0 42 28.5 71t69.5 29q43 0 72 -29t29 -71q0 -30 -15.5 -54t-41.5 -36l215 -565h-58l-58 153h-279l-58 -153h-59zM170 208h237l-119 313zM285 601q23 0 39.5 15.5t16.5 38.5t-16.5 39t-39.5 16q-22 0 -38 -16t-16 -39t16 -38.5
t38 -15.5z" />
    <glyph glyph-name="aring.smcp" unicode="&#xf7e5;" horiz-adv-x="576" 
d="M246 564q-26 11 -42.5 35.5t-16.5 55.5q0 42 28.5 71t69.5 29q43 0 72 -29t29 -71q0 -30 -15.5 -54t-41.5 -36l215 -565h-58l-58 153h-279l-58 -153h-59zM170 208h237l-119 313zM285 601q23 0 39.5 15.5t16.5 38.5t-16.5 39t-39.5 16q-22 0 -38 -16t-16 -39t16 -38.5
t38 -15.5z" />
    <glyph glyph-name="amacron.smcp" unicode="&#xe228;" horiz-adv-x="576" 
d="M258 596h60l226 -596h-58l-58 153h-279l-58 -153h-59zM170 208h237l-119 313zM154 711h264v-50h-264v50z" />
    <glyph glyph-name="amacron.smcp" unicode="&#xf641;" horiz-adv-x="576" 
d="M258 596h60l226 -596h-58l-58 153h-279l-58 -153h-59zM170 208h237l-119 313zM154 711h264v-50h-264v50z" />
    <glyph glyph-name="abreve.smcp" unicode="&#xe229;" horiz-adv-x="576" 
d="M258 596h60l226 -596h-58l-58 153h-279l-58 -153h-59zM170 208h237l-119 313zM286 654q-41 0 -71.5 13t-50.5 34.5t-29.5 50t-9.5 59.5h49q0 -47 28 -80t84 -33q54 0 82.5 33t28.5 80h51q0 -31 -11 -59.5t-32 -50t-51 -34.5t-68 -13z" />
    <glyph glyph-name="abreve.smcp" unicode="&#xf640;" horiz-adv-x="576" 
d="M258 596h60l226 -596h-58l-58 153h-279l-58 -153h-59zM170 208h237l-119 313zM286 654q-41 0 -71.5 13t-50.5 34.5t-29.5 50t-9.5 59.5h49q0 -47 28 -80t84 -33q54 0 82.5 33t28.5 80h51q0 -31 -11 -59.5t-32 -50t-51 -34.5t-68 -13z" />
    <glyph glyph-name="aringacute.smcp" unicode="&#xe22d;" horiz-adv-x="576" 
d="M246 564q-26 11 -42.5 35.5t-16.5 55.5q0 42 28.5 71t69.5 29q43 0 72 -29t29 -71q0 -30 -15.5 -54t-41.5 -36l215 -565h-58l-58 153h-279l-58 -153h-59zM170 208h237l-119 313zM376 950h75l-140 -155h-54zM285 601q23 0 39.5 15.5t16.5 38.5t-16.5 39t-39.5 16
q-22 0 -38 -16t-16 -39t16 -38.5t38 -15.5z" />
    <glyph glyph-name="aringacute.smcp" unicode="&#xf625;" horiz-adv-x="576" 
d="M246 564q-26 11 -42.5 35.5t-16.5 55.5q0 42 28.5 71t69.5 29q43 0 72 -29t29 -71q0 -30 -15.5 -54t-41.5 -36l215 -565h-58l-58 153h-279l-58 -153h-59zM170 208h237l-119 313zM376 950h75l-140 -155h-54zM285 601q23 0 39.5 15.5t16.5 38.5t-16.5 39t-39.5 16
q-22 0 -38 -16t-16 -39t16 -38.5t38 -15.5z" />
    <glyph glyph-name="aogonek.smcp" unicode="&#xe22f;" horiz-adv-x="576" 
d="M258 596h60l226 -596q-36 -20 -59.5 -35t-37.5 -27.5t-19.5 -24t-5.5 -23.5q0 -24 20 -37.5t51 -13.5q28 0 48 11.5t38 27.5l45 -31q-24 -22 -58.5 -38.5t-72.5 -16.5q-58 0 -93.5 27t-35.5 68q0 34 25 66t90 64l-51 136h-279l-58 -153h-59zM170 208h237l-119 313z" />
    <glyph glyph-name="aogonek.smcp" unicode="&#xf642;" horiz-adv-x="576" 
d="M258 596h60l226 -596q-36 -20 -59.5 -35t-37.5 -27.5t-19.5 -24t-5.5 -23.5q0 -24 20 -37.5t51 -13.5q28 0 48 11.5t38 27.5l45 -31q-24 -22 -58.5 -38.5t-72.5 -16.5q-58 0 -93.5 27t-35.5 68q0 34 25 66t90 64l-51 136h-279l-58 -153h-59zM170 208h237l-119 313z" />
    <glyph glyph-name="edieresis.smcp" unicode="&#xe230;" horiz-adv-x="492" 
d="M73 596h362v-53h-306v-218h306v-53h-306v-218h306v-54h-362v596zM301 746q0 19 12.5 31t31.5 12q20 0 31.5 -12t11.5 -31t-11.5 -31.5t-31.5 -12.5t-32 12.5t-12 31.5zM133 746q0 19 12.5 31t31.5 12q20 0 31.5 -12t11.5 -31t-11.5 -31.5t-31.5 -12.5t-32 12.5t-12 31.5z
" />
    <glyph glyph-name="edieresis.smcp" unicode="&#xf7eb;" horiz-adv-x="492" 
d="M73 596h362v-53h-306v-218h306v-53h-306v-218h306v-54h-362v596zM301 746q0 19 12.5 31t31.5 12q20 0 31.5 -12t11.5 -31t-11.5 -31.5t-31.5 -12.5t-32 12.5t-12 31.5zM133 746q0 19 12.5 31t31.5 12q20 0 31.5 -12t11.5 -31t-11.5 -31.5t-31.5 -12.5t-32 12.5t-12 31.5z
" />
    <glyph glyph-name="ae.smcp" unicode="&#xe231;" horiz-adv-x="873" 
d="M336 596h480v-54h-405l44 -216h361v-54h-350l45 -217h305v-55h-352l-32 153h-258l-77 -153h-63zM201 206h220l-64 310z" />
    <glyph glyph-name="ae.smcp" unicode="&#xf7e6;" horiz-adv-x="873" 
d="M336 596h480v-54h-405l44 -216h361v-54h-350l45 -217h305v-55h-352l-32 153h-258l-77 -153h-63zM201 206h220l-64 310z" />
    <glyph glyph-name="aeacute.smcp" unicode="&#xe232;" horiz-adv-x="877" 
d="M336 596h480v-54h-405l44 -216h361v-54h-350l45 -217h305v-55h-352l-32 153h-258l-77 -153h-63zM201 206h220l-64 310zM608 816h75l-140 -155h-54z" />
    <glyph glyph-name="aeacute.smcp" unicode="&#xf624;" horiz-adv-x="877" 
d="M336 596h480v-54h-405l44 -216h361v-54h-350l45 -217h305v-55h-352l-32 153h-258l-77 -153h-63zM201 206h220l-64 310zM608 816h75l-140 -155h-54z" />
    <glyph glyph-name="cacute.smcp" unicode="&#xe234;" horiz-adv-x="661" 
d="M445 816h75l-140 -155h-54zM357 -9q-66 0 -122 24.5t-97 66t-64.5 97.5t-23.5 119q0 64 24 120t65.5 97t97 65t118.5 24q43 0 83 -11.5t74.5 -32t63 -49.5t47.5 -64l-51 -26q-31 57 -87.5 93.5t-128.5 36.5q-53 0 -98.5 -20t-78.5 -54.5t-52 -80.5t-19 -98t19.5 -98.5
t53 -80.5t78.5 -54t96 -20q78 0 134.5 39t87.5 101l53 -24q-40 -77 -111 -123.5t-162 -46.5z" />
    <glyph glyph-name="cacute.smcp" unicode="&#xf643;" horiz-adv-x="661" 
d="M445 816h75l-140 -155h-54zM357 -9q-66 0 -122 24.5t-97 66t-64.5 97.5t-23.5 119q0 64 24 120t65.5 97t97 65t118.5 24q43 0 83 -11.5t74.5 -32t63 -49.5t47.5 -64l-51 -26q-31 57 -87.5 93.5t-128.5 36.5q-53 0 -98.5 -20t-78.5 -54.5t-52 -80.5t-19 -98t19.5 -98.5
t53 -80.5t78.5 -54t96 -20q78 0 134.5 39t87.5 101l53 -24q-40 -77 -111 -123.5t-162 -46.5z" />
    <glyph glyph-name="ccircumflex.smcp" unicode="&#xe235;" horiz-adv-x="661" 
d="M357 -9q-66 0 -122 24.5t-97 66t-64.5 97.5t-23.5 119q0 64 24 120t65.5 97t97 65t118.5 24q43 0 83 -11.5t74.5 -32t63 -49.5t47.5 -64l-51 -26q-31 57 -87.5 93.5t-128.5 36.5q-53 0 -98.5 -20t-78.5 -54.5t-52 -80.5t-19 -98t19.5 -98.5t53 -80.5t78.5 -54t96 -20
q78 0 134.5 39t87.5 101l53 -24q-40 -77 -111 -123.5t-162 -46.5zM335 813h49l119 -155h-61l-83 110l-83 -110h-60z" />
    <glyph glyph-name="ccircumflex.smcp" unicode="&#xf628;" horiz-adv-x="661" 
d="M357 -9q-66 0 -122 24.5t-97 66t-64.5 97.5t-23.5 119q0 64 24 120t65.5 97t97 65t118.5 24q43 0 83 -11.5t74.5 -32t63 -49.5t47.5 -64l-51 -26q-31 57 -87.5 93.5t-128.5 36.5q-53 0 -98.5 -20t-78.5 -54.5t-52 -80.5t-19 -98t19.5 -98.5t53 -80.5t78.5 -54t96 -20
q78 0 134.5 39t87.5 101l53 -24q-40 -77 -111 -123.5t-162 -46.5zM335 813h49l119 -155h-61l-83 110l-83 -110h-60z" />
    <glyph glyph-name="ccaron.smcp" unicode="&#xe236;" horiz-adv-x="661" 
d="M357 -9q-66 0 -122 24.5t-97 66t-64.5 97.5t-23.5 119q0 64 24 120t65.5 97t97 65t118.5 24q43 0 83 -11.5t74.5 -32t63 -49.5t47.5 -64l-51 -26q-31 57 -87.5 93.5t-128.5 36.5q-53 0 -98.5 -20t-78.5 -54.5t-52 -80.5t-19 -98t19.5 -98.5t53 -80.5t78.5 -54t96 -20
q78 0 134.5 39t87.5 101l53 -24q-40 -77 -111 -123.5t-162 -46.5zM218 816h59l81 -114l84 114h59l-118 -155h-48z" />
    <glyph glyph-name="ccaron.smcp" unicode="&#xf644;" horiz-adv-x="661" 
d="M357 -9q-66 0 -122 24.5t-97 66t-64.5 97.5t-23.5 119q0 64 24 120t65.5 97t97 65t118.5 24q43 0 83 -11.5t74.5 -32t63 -49.5t47.5 -64l-51 -26q-31 57 -87.5 93.5t-128.5 36.5q-53 0 -98.5 -20t-78.5 -54.5t-52 -80.5t-19 -98t19.5 -98.5t53 -80.5t78.5 -54t96 -20
q78 0 134.5 39t87.5 101l53 -24q-40 -77 -111 -123.5t-162 -46.5zM218 816h59l81 -114l84 114h59l-118 -155h-48z" />
    <glyph glyph-name="cdotaccent.smcp" unicode="&#xe237;" horiz-adv-x="661" 
d="M357 -9q-66 0 -122 24.5t-97 66t-64.5 97.5t-23.5 119q0 64 24 120t65.5 97t97 65t118.5 24q43 0 83 -11.5t74.5 -32t63 -49.5t47.5 -64l-51 -26q-31 57 -87.5 93.5t-128.5 36.5q-53 0 -98.5 -20t-78.5 -54.5t-52 -80.5t-19 -98t19.5 -98.5t53 -80.5t78.5 -54t96 -20
q78 0 134.5 39t87.5 101l53 -24q-40 -77 -111 -123.5t-162 -46.5zM311 746q0 21 14 34.5t35 13.5q23 0 36 -13.5t13 -34.5t-13 -35t-36 -14t-36 14t-13 35z" />
    <glyph glyph-name="cdotaccent.smcp" unicode="&#xf629;" horiz-adv-x="661" 
d="M357 -9q-66 0 -122 24.5t-97 66t-64.5 97.5t-23.5 119q0 64 24 120t65.5 97t97 65t118.5 24q43 0 83 -11.5t74.5 -32t63 -49.5t47.5 -64l-51 -26q-31 57 -87.5 93.5t-128.5 36.5q-53 0 -98.5 -20t-78.5 -54.5t-52 -80.5t-19 -98t19.5 -98.5t53 -80.5t78.5 -54t96 -20
q78 0 134.5 39t87.5 101l53 -24q-40 -77 -111 -123.5t-162 -46.5zM311 746q0 21 14 34.5t35 13.5q23 0 36 -13.5t13 -34.5t-13 -35t-36 -14t-36 14t-13 35z" />
    <glyph glyph-name="ccedilla.smcp" unicode="&#xe238;" horiz-adv-x="661" 
d="M353 -229q-47 0 -80.5 15t-58.5 38l46 28q20 -17 40 -27.5t53 -10.5q35 0 57.5 14t22.5 36q0 20 -21.5 32t-61.5 12h-33v86q-58 7 -107 33.5t-84.5 67.5t-55.5 93t-20 110q0 64 24 120t65.5 97t97 65t118.5 24q43 0 83 -11.5t74.5 -32t63 -49.5t47.5 -64l-51 -26
q-31 57 -87.5 93.5t-128.5 36.5q-53 0 -98.5 -20t-78.5 -54.5t-52 -80.5t-19 -98t19.5 -98.5t53 -80.5t78.5 -54t96 -20q78 0 134.5 39t87.5 101l53 -24q-39 -75 -107.5 -121t-156.5 -49v-46q54 -1 87.5 -22.5t33.5 -56.5q0 -21 -10.5 -38.5t-28.5 -30t-42.5 -19.5t-52.5 -7
z" />
    <glyph glyph-name="ccedilla.smcp" unicode="&#xf7e7;" horiz-adv-x="661" 
d="M353 -229q-47 0 -80.5 15t-58.5 38l46 28q20 -17 40 -27.5t53 -10.5q35 0 57.5 14t22.5 36q0 20 -21.5 32t-61.5 12h-33v86q-58 7 -107 33.5t-84.5 67.5t-55.5 93t-20 110q0 64 24 120t65.5 97t97 65t118.5 24q43 0 83 -11.5t74.5 -32t63 -49.5t47.5 -64l-51 -26
q-31 57 -87.5 93.5t-128.5 36.5q-53 0 -98.5 -20t-78.5 -54.5t-52 -80.5t-19 -98t19.5 -98.5t53 -80.5t78.5 -54t96 -20q78 0 134.5 39t87.5 101l53 -24q-39 -75 -107.5 -121t-156.5 -49v-46q54 -1 87.5 -22.5t33.5 -56.5q0 -21 -10.5 -38.5t-28.5 -30t-42.5 -19.5t-52.5 -7
z" />
    <glyph glyph-name="dcaron.smcp" unicode="&#xe239;" horiz-adv-x="598" 
d="M72 596h167q68 0 125 -23t98 -63t63.5 -94.5t22.5 -117.5q0 -64 -23.5 -118.5t-64.5 -94.5t-97.5 -62.5t-121.5 -22.5h-169v596zM129 543v-489h107q55 0 101.5 18.5t80 51.5t52.5 77.5t19 96.5q0 53 -18 97.5t-51.5 77.5t-80.5 51.5t-105 18.5h-105zM127 816h59l81 -114
l84 114h59l-118 -155h-48z" />
    <glyph glyph-name="dcaron.smcp" unicode="&#xf645;" horiz-adv-x="598" 
d="M72 596h167q68 0 125 -23t98 -63t63.5 -94.5t22.5 -117.5q0 -64 -23.5 -118.5t-64.5 -94.5t-97.5 -62.5t-121.5 -22.5h-169v596zM129 543v-489h107q55 0 101.5 18.5t80 51.5t52.5 77.5t19 96.5q0 53 -18 97.5t-51.5 77.5t-80.5 51.5t-105 18.5h-105zM127 816h59l81 -114
l84 114h59l-118 -155h-48z" />
    <glyph glyph-name="dcroat.smcp" unicode="&#xe23c;" horiz-adv-x="619" 
d="M27 324h67v272h166q69 0 125.5 -23t97.5 -63t63.5 -94.5t22.5 -117.5q0 -64 -23.5 -118.5t-64.5 -94.5t-97 -62.5t-122 -22.5h-168v273h-67v51zM150 273v-219h108q55 0 101.5 18.5t80 51.5t52.5 77.5t19 96.5q0 53 -18 97.5t-51.5 77.5t-80.5 51.5t-105 18.5h-106v-219
h154v-51h-154z" />
    <glyph glyph-name="dcroat.smcp" unicode="&#xf646;" horiz-adv-x="619" 
d="M27 324h67v272h166q69 0 125.5 -23t97.5 -63t63.5 -94.5t22.5 -117.5q0 -64 -23.5 -118.5t-64.5 -94.5t-97 -62.5t-122 -22.5h-168v273h-67v51zM150 273v-219h108q55 0 101.5 18.5t80 51.5t52.5 77.5t19 96.5q0 53 -18 97.5t-51.5 77.5t-80.5 51.5t-105 18.5h-106v-219
h154v-51h-154z" />
    <glyph glyph-name="eacute.smcp" unicode="&#xe23d;" horiz-adv-x="492" 
d="M73 596h362v-53h-306v-218h306v-53h-306v-218h306v-54h-362v596zM331 816h75l-140 -155h-54z" />
    <glyph glyph-name="eacute.smcp" unicode="&#xf7e9;" horiz-adv-x="492" 
d="M73 596h362v-53h-306v-218h306v-53h-306v-218h306v-54h-362v596zM331 816h75l-140 -155h-54z" />
    <glyph glyph-name="egrave.smcp" unicode="&#xe23e;" horiz-adv-x="492" 
d="M73 596h362v-53h-306v-218h306v-53h-306v-218h306v-54h-362v596zM111 816h74l120 -155h-54z" />
    <glyph glyph-name="egrave.smcp" unicode="&#xf7e8;" horiz-adv-x="492" 
d="M73 596h362v-53h-306v-218h306v-53h-306v-218h306v-54h-362v596zM111 816h74l120 -155h-54z" />
    <glyph glyph-name="ecircumflex.smcp" unicode="&#xe23f;" horiz-adv-x="492" 
d="M73 596h362v-53h-306v-218h306v-53h-306v-218h306v-54h-362v596zM234 816h49l119 -155h-61l-83 110l-83 -110h-60z" />
    <glyph glyph-name="ecircumflex.smcp" unicode="&#xf7ea;" horiz-adv-x="492" 
d="M73 596h362v-53h-306v-218h306v-53h-306v-218h306v-54h-362v596zM234 816h49l119 -155h-61l-83 110l-83 -110h-60z" />
    <glyph glyph-name="gcommaaccent.smcp" unicode="&#xe240;" horiz-adv-x="706" 
d="M358 -9q-66 0 -122 24.5t-97.5 66.5t-65 97.5t-23.5 118.5t24 119t65.5 97.5t97.5 65.5t121 24q88 0 157.5 -40.5t107.5 -109.5l-50 -29q-32 58 -87.5 92t-127.5 34q-54 0 -99.5 -20t-79 -54.5t-52.5 -80.5t-19 -98q0 -51 18.5 -97t51.5 -80.5t79 -55t101 -20.5
q52 0 94 16.5t72.5 46t49.5 69t25 84.5h-248v54h307v-18q0 -62 -21 -117.5t-60 -97.5t-94.5 -66.5t-124.5 -24.5zM287 -277l43 204h55l-58 -204h-40z" />
    <glyph glyph-name="gcommaaccent.smcp" unicode="&#xf64c;" horiz-adv-x="706" 
d="M358 -9q-66 0 -122 24.5t-97.5 66.5t-65 97.5t-23.5 118.5t24 119t65.5 97.5t97.5 65.5t121 24q88 0 157.5 -40.5t107.5 -109.5l-50 -29q-32 58 -87.5 92t-127.5 34q-54 0 -99.5 -20t-79 -54.5t-52.5 -80.5t-19 -98q0 -51 18.5 -97t51.5 -80.5t79 -55t101 -20.5
q52 0 94 16.5t72.5 46t49.5 69t25 84.5h-248v54h307v-18q0 -62 -21 -117.5t-60 -97.5t-94.5 -66.5t-124.5 -24.5zM287 -277l43 204h55l-58 -204h-40z" />
    <glyph glyph-name="ecaron.smcp" unicode="&#xe241;" horiz-adv-x="492" 
d="M73 596h362v-53h-306v-218h306v-53h-306v-218h306v-54h-362v596zM116 816h59l81 -114l84 114h59l-118 -155h-48z" />
    <glyph glyph-name="ecaron.smcp" unicode="&#xf647;" horiz-adv-x="492" 
d="M73 596h362v-53h-306v-218h306v-53h-306v-218h306v-54h-362v596zM116 816h59l81 -114l84 114h59l-118 -155h-48z" />
    <glyph glyph-name="emacron.smcp" unicode="&#xe242;" horiz-adv-x="492" 
d="M73 596h362v-53h-306v-218h306v-53h-306v-218h306v-54h-362v596zM123 713h264v-50h-264v50z" />
    <glyph glyph-name="emacron.smcp" unicode="&#xf649;" horiz-adv-x="492" 
d="M73 596h362v-53h-306v-218h306v-53h-306v-218h306v-54h-362v596zM123 713h264v-50h-264v50z" />
    <glyph glyph-name="ebreve.smcp" unicode="&#xe243;" horiz-adv-x="492" 
d="M73 596h362v-53h-306v-218h306v-53h-306v-218h306v-54h-362v596zM255 656q-41 0 -71.5 13t-50.5 34.5t-29.5 50t-9.5 59.5h49q0 -47 28 -80t84 -33q54 0 82.5 33t28.5 80h51q0 -31 -11 -59.5t-32 -50t-51 -34.5t-68 -13z" />
    <glyph glyph-name="ebreve.smcp" unicode="&#xf62a;" horiz-adv-x="492" 
d="M73 596h362v-53h-306v-218h306v-53h-306v-218h306v-54h-362v596zM255 656q-41 0 -71.5 13t-50.5 34.5t-29.5 50t-9.5 59.5h49q0 -47 28 -80t84 -33q54 0 82.5 33t28.5 80h51q0 -31 -11 -59.5t-32 -50t-51 -34.5t-68 -13z" />
    <glyph glyph-name="edotaccent.smcp" unicode="&#xe246;" horiz-adv-x="492" 
d="M73 596h362v-53h-306v-218h306v-53h-306v-218h306v-54h-362v596zM213 746q0 21 14 34.5t35 13.5q23 0 36 -13.5t13 -34.5t-13 -35t-36 -14t-36 14t-13 35z" />
    <glyph glyph-name="edotaccent.smcp" unicode="&#xf648;" horiz-adv-x="492" 
d="M73 596h362v-53h-306v-218h306v-53h-306v-218h306v-54h-362v596zM213 746q0 21 14 34.5t35 13.5q23 0 36 -13.5t13 -34.5t-13 -35t-36 -14t-36 14t-13 35z" />
    <glyph glyph-name="eogonek.smcp" unicode="&#xe249;" horiz-adv-x="492" 
d="M73 596h362v-53h-306v-218h306v-53h-306v-218h306v-54q-36 -20 -59.5 -35t-37.5 -27.5t-19.5 -24t-5.5 -23.5q0 -24 20 -37.5t51 -13.5q28 0 48 11.5t38 27.5l45 -31q-24 -22 -58.5 -38.5t-72.5 -16.5q-58 0 -93.5 27t-35.5 68q0 29 18.5 57t66.5 56h-267v596z" />
    <glyph glyph-name="eogonek.smcp" unicode="&#xf64a;" horiz-adv-x="492" 
d="M73 596h362v-53h-306v-218h306v-53h-306v-218h306v-54q-36 -20 -59.5 -35t-37.5 -27.5t-19.5 -24t-5.5 -23.5q0 -24 20 -37.5t51 -13.5q28 0 48 11.5t38 27.5l45 -31q-24 -22 -58.5 -38.5t-72.5 -16.5q-58 0 -93.5 27t-35.5 68q0 29 18.5 57t66.5 56h-267v596z" />
    <glyph glyph-name="gcircumflex.smcp" unicode="&#xe24b;" horiz-adv-x="706" 
d="M358 -9q-66 0 -122 24.5t-97.5 66.5t-65 97.5t-23.5 118.5t24 119t65.5 97.5t97.5 65.5t121 24q88 0 157.5 -40.5t107.5 -109.5l-50 -29q-32 58 -87.5 92t-127.5 34q-54 0 -99.5 -20t-79 -54.5t-52.5 -80.5t-19 -98q0 -51 18.5 -97t51.5 -80.5t79 -55t101 -20.5
q52 0 94 16.5t72.5 46t49.5 69t25 84.5h-248v54h307v-18q0 -62 -21 -117.5t-60 -97.5t-94.5 -66.5t-124.5 -24.5zM332 815h49l119 -155h-61l-83 110l-83 -110h-60z" />
    <glyph glyph-name="gcircumflex.smcp" unicode="&#xf62c;" horiz-adv-x="706" 
d="M358 -9q-66 0 -122 24.5t-97.5 66.5t-65 97.5t-23.5 118.5t24 119t65.5 97.5t97.5 65.5t121 24q88 0 157.5 -40.5t107.5 -109.5l-50 -29q-32 58 -87.5 92t-127.5 34q-54 0 -99.5 -20t-79 -54.5t-52.5 -80.5t-19 -98q0 -51 18.5 -97t51.5 -80.5t79 -55t101 -20.5
q52 0 94 16.5t72.5 46t49.5 69t25 84.5h-248v54h307v-18q0 -62 -21 -117.5t-60 -97.5t-94.5 -66.5t-124.5 -24.5zM332 815h49l119 -155h-61l-83 110l-83 -110h-60z" />
    <glyph glyph-name="gbreve.smcp" unicode="&#xe24e;" horiz-adv-x="706" 
d="M358 -9q-66 0 -122 24.5t-97.5 66.5t-65 97.5t-23.5 118.5t24 119t65.5 97.5t97.5 65.5t121 24q88 0 157.5 -40.5t107.5 -109.5l-50 -29q-32 58 -87.5 92t-127.5 34q-54 0 -99.5 -20t-79 -54.5t-52.5 -80.5t-19 -98q0 -51 18.5 -97t51.5 -80.5t79 -55t101 -20.5
q52 0 94 16.5t72.5 46t49.5 69t25 84.5h-248v54h307v-18q0 -62 -21 -117.5t-60 -97.5t-94.5 -66.5t-124.5 -24.5zM356 660q-41 0 -71.5 13t-50.5 34.5t-29.5 50t-9.5 59.5h49q0 -47 28 -80t84 -33q54 0 82.5 33t28.5 80h51q0 -31 -11 -59.5t-32 -50t-51 -34.5t-68 -13z" />
    <glyph glyph-name="gbreve.smcp" unicode="&#xf64b;" horiz-adv-x="706" 
d="M358 -9q-66 0 -122 24.5t-97.5 66.5t-65 97.5t-23.5 118.5t24 119t65.5 97.5t97.5 65.5t121 24q88 0 157.5 -40.5t107.5 -109.5l-50 -29q-32 58 -87.5 92t-127.5 34q-54 0 -99.5 -20t-79 -54.5t-52.5 -80.5t-19 -98q0 -51 18.5 -97t51.5 -80.5t79 -55t101 -20.5
q52 0 94 16.5t72.5 46t49.5 69t25 84.5h-248v54h307v-18q0 -62 -21 -117.5t-60 -97.5t-94.5 -66.5t-124.5 -24.5zM356 660q-41 0 -71.5 13t-50.5 34.5t-29.5 50t-9.5 59.5h49q0 -47 28 -80t84 -33q54 0 82.5 33t28.5 80h51q0 -31 -11 -59.5t-32 -50t-51 -34.5t-68 -13z" />
    <glyph glyph-name="gdotaccent.smcp" unicode="&#xe24f;" horiz-adv-x="706" 
d="M358 -9q-66 0 -122 24.5t-97.5 66.5t-65 97.5t-23.5 118.5t24 119t65.5 97.5t97.5 65.5t121 24q88 0 157.5 -40.5t107.5 -109.5l-50 -29q-32 58 -87.5 92t-127.5 34q-54 0 -99.5 -20t-79 -54.5t-52.5 -80.5t-19 -98q0 -51 18.5 -97t51.5 -80.5t79 -55t101 -20.5
q52 0 94 16.5t72.5 46t49.5 69t25 84.5h-248v54h307v-18q0 -62 -21 -117.5t-60 -97.5t-94.5 -66.5t-124.5 -24.5zM310 746q0 21 14 34.5t35 13.5q23 0 36 -13.5t13 -34.5t-13 -35t-36 -14t-36 14t-13 35z" />
    <glyph glyph-name="gdotaccent.smcp" unicode="&#xf62d;" horiz-adv-x="706" 
d="M358 -9q-66 0 -122 24.5t-97.5 66.5t-65 97.5t-23.5 118.5t24 119t65.5 97.5t97.5 65.5t121 24q88 0 157.5 -40.5t107.5 -109.5l-50 -29q-32 58 -87.5 92t-127.5 34q-54 0 -99.5 -20t-79 -54.5t-52.5 -80.5t-19 -98q0 -51 18.5 -97t51.5 -80.5t79 -55t101 -20.5
q52 0 94 16.5t72.5 46t49.5 69t25 84.5h-248v54h307v-18q0 -62 -21 -117.5t-60 -97.5t-94.5 -66.5t-124.5 -24.5zM310 746q0 21 14 34.5t35 13.5q23 0 36 -13.5t13 -34.5t-13 -35t-36 -14t-36 14t-13 35z" />
    <glyph glyph-name="hcircumflex.smcp" unicode="&#xe253;" horiz-adv-x="586" 
d="M457 272h-328v-272h-57v596h57v-270h328v270h57v-596h-57v272zM267 815h49l119 -155h-61l-83 110l-83 -110h-60z" />
    <glyph glyph-name="hcircumflex.smcp" unicode="&#xf62f;" horiz-adv-x="586" 
d="M457 272h-328v-272h-57v596h57v-270h328v270h57v-596h-57v272zM267 815h49l119 -155h-61l-83 110l-83 -110h-60z" />
    <glyph glyph-name="hbar.smcp" unicode="&#xe257;" horiz-adv-x="626" 
d="M477 272h-328v-272h-57v443h-66v54h66v99h57v-99h328v99h57v-99h66v-54h-66v-443h-57v272zM149 325h328v118h-328v-118z" />
    <glyph glyph-name="hbar.smcp" unicode="&#xf62e;" horiz-adv-x="626" 
d="M477 272h-328v-272h-57v443h-66v54h66v99h57v-99h328v99h57v-99h66v-54h-66v-443h-57v272zM149 325h328v118h-328v-118z" />
    <glyph glyph-name="iacute.smcp" unicode="&#xe258;" horiz-adv-x="213" 
d="M194 816h75l-140 -155h-54zM77 596h58v-596h-58v596z" />
    <glyph glyph-name="iacute.smcp" unicode="&#xf7ed;" horiz-adv-x="213" 
d="M194 816h75l-140 -155h-54zM77 596h58v-596h-58v596z" />
    <glyph glyph-name="igrave.smcp" unicode="&#xe259;" horiz-adv-x="213" 
d="M-61 816h74l120 -155h-54zM77 596h58v-596h-58v596z" />
    <glyph glyph-name="igrave.smcp" unicode="&#xf7ec;" horiz-adv-x="213" 
d="M-61 816h74l120 -155h-54zM77 596h58v-596h-58v596z" />
    <glyph glyph-name="icircumflex.smcp" unicode="&#xe25a;" horiz-adv-x="213" 
d="M77 596h58v-596h-58v596zM81 807h49l119 -155h-61l-83 110l-83 -110h-60z" />
    <glyph glyph-name="icircumflex.smcp" unicode="&#xf7ee;" horiz-adv-x="213" 
d="M77 596h58v-596h-58v596zM81 807h49l119 -155h-61l-83 110l-83 -110h-60z" />
    <glyph glyph-name="idieresis.smcp" unicode="&#xe25b;" horiz-adv-x="213" 
d="M176 805h57v-139h-57v139zM-19 805h56v-139h-56v139zM77 596h58v-596h-58v596z" />
    <glyph glyph-name="idieresis.smcp" unicode="&#xf7ef;" horiz-adv-x="213" 
d="M176 805h57v-139h-57v139zM-19 805h56v-139h-56v139zM77 596h58v-596h-58v596z" />
    <glyph glyph-name="itilde.smcp" unicode="&#xe25c;" horiz-adv-x="213" 
d="M77 596h58v-596h-58v596zM-67 660q0 50 26 79t67 29q25 0 45.5 -9t40.5 -21l36.5 -21t35.5 -10q23 0 36.5 14t13.5 44h46q0 -51 -24.5 -80t-70.5 -29q-29 0 -51.5 11.5t-42.5 23.5l-32 18.5t-33 8.5q-20 0 -33 -14.5t-13 -43.5h-47z" />
    <glyph glyph-name="itilde.smcp" unicode="&#xf632;" horiz-adv-x="213" 
d="M77 596h58v-596h-58v596zM-67 660q0 50 26 79t67 29q25 0 45.5 -9t40.5 -21l36.5 -21t35.5 -10q23 0 36.5 14t13.5 44h46q0 -51 -24.5 -80t-70.5 -29q-29 0 -51.5 11.5t-42.5 23.5l-32 18.5t-33 8.5q-20 0 -33 -14.5t-13 -43.5h-47z" />
    <glyph glyph-name="imacron.smcp" unicode="&#xe25e;" horiz-adv-x="213" 
d="M-27 711h264v-50h-264v50zM77 596h58v-596h-58v596z" />
    <glyph glyph-name="imacron.smcp" unicode="&#xf64d;" horiz-adv-x="213" 
d="M-27 711h264v-50h-264v50zM77 596h58v-596h-58v596z" />
    <glyph glyph-name="ibreve.smcp" unicode="&#xe25f;" horiz-adv-x="213" 
d="M77 596h58v-596h-58v596zM106 656q-41 0 -71.5 13t-50.5 34.5t-29.5 50t-9.5 59.5h49q0 -47 28 -80t84 -33q54 0 82.5 33t28.5 80h51q0 -31 -11 -59.5t-32 -50t-51 -34.5t-68 -13z" />
    <glyph glyph-name="ibreve.smcp" unicode="&#xf630;" horiz-adv-x="213" 
d="M77 596h58v-596h-58v596zM106 656q-41 0 -71.5 13t-50.5 34.5t-29.5 50t-9.5 59.5h49q0 -47 28 -80t84 -33q54 0 82.5 33t28.5 80h51q0 -31 -11 -59.5t-32 -50t-51 -34.5t-68 -13z" />
    <glyph glyph-name="idotaccent.smcp" unicode="&#xe262;" horiz-adv-x="213" 
d="M77 596h58v-596h-58v596zM57 740q0 21 14 34.5t34 13.5q23 0 35.5 -13.5t12.5 -34.5t-12.5 -35t-35.5 -14q-22 0 -35 14t-13 35z" />
    <glyph glyph-name="idotaccent.smcp" unicode="&#xf666;" horiz-adv-x="213" 
d="M77 596h58v-596h-58v596zM57 740q0 21 14 34.5t34 13.5q23 0 35.5 -13.5t12.5 -34.5t-12.5 -35t-35.5 -14q-22 0 -35 14t-13 35z" />
    <glyph glyph-name="iogonek.smcp" unicode="&#xe264;" horiz-adv-x="213" 
d="M113 -218q-58 0 -85.5 30t-27.5 71q0 35 21.5 66.5t55.5 60.5v586h58v-596h1q-40 -32 -61 -60.5t-21 -54.5q0 -24 16 -39t43 -15q24 0 40.5 9t32.5 23l33 -40q-21 -17 -48.5 -29t-57.5 -12z" />
    <glyph glyph-name="iogonek.smcp" unicode="&#xf64e;" horiz-adv-x="213" 
d="M113 -218q-58 0 -85.5 30t-27.5 71q0 35 21.5 66.5t55.5 60.5v586h58v-596h1q-40 -32 -61 -60.5t-21 -54.5q0 -24 16 -39t43 -15q24 0 40.5 9t32.5 23l33 -40q-21 -17 -48.5 -29t-57.5 -12z" />
    <glyph glyph-name="jcircumflex.smcp" unicode="&#xe265;" horiz-adv-x="408" 
d="M184 -9q-57 0 -97.5 26t-58.5 69l53 27q14 -31 39 -49.5t63 -18.5q47 0 73 30.5t26 79.5v441h57v-438q0 -78 -41 -122.5t-114 -44.5zM281 807h49l119 -155h-61l-83 110l-83 -110h-60z" />
    <glyph glyph-name="jcircumflex.smcp" unicode="&#xf633;" horiz-adv-x="408" 
d="M184 -9q-57 0 -97.5 26t-58.5 69l53 27q14 -31 39 -49.5t63 -18.5q47 0 73 30.5t26 79.5v441h57v-438q0 -78 -41 -122.5t-114 -44.5zM281 807h49l119 -155h-61l-83 110l-83 -110h-60z" />
    <glyph glyph-name="kcommaaccent.smcp" unicode="&#xe268;" horiz-adv-x="554" 
d="M249 319l-120 -135v-184h-56v596h56v-339l304 339h71l-214 -237l231 -359h-65zM218 -261l43 204h55l-58 -204h-40z" />
    <glyph glyph-name="kcommaaccent.smcp" unicode="&#xf64f;" horiz-adv-x="554" 
d="M249 319l-120 -135v-184h-56v596h56v-339l304 339h71l-214 -237l231 -359h-65zM218 -261l43 204h55l-58 -204h-40z" />
    <glyph glyph-name="lacute.smcp" unicode="&#xe26b;" horiz-adv-x="451" 
d="M72 596h57v-542h274v-54h-331v596zM191 816h75l-140 -155h-54z" />
    <glyph glyph-name="lacute.smcp" unicode="&#xf650;" horiz-adv-x="451" 
d="M72 596h57v-542h274v-54h-331v596zM191 816h75l-140 -155h-54z" />
    <glyph glyph-name="lcaron.smcp" unicode="&#xe26c;" horiz-adv-x="451" 
d="M72 596h57v-542h274v-54h-331v596zM321 596h55l-63 -172h-41z" />
    <glyph glyph-name="lcaron.smcp" unicode="&#xf651;" horiz-adv-x="451" 
d="M72 596h57v-542h274v-54h-331v596zM321 596h55l-63 -172h-41z" />
    <glyph glyph-name="lcommaaccent.smcp" unicode="&#xe26d;" horiz-adv-x="451" 
d="M72 596h57v-542h274v-54h-331v596zM171 -264l43 204h55l-58 -204h-40z" />
    <glyph glyph-name="lcommaaccent.smcp" unicode="&#xf652;" horiz-adv-x="451" 
d="M72 596h57v-542h274v-54h-331v596zM171 -264l43 204h55l-58 -204h-40z" />
    <glyph glyph-name="ldot.smcp" unicode="&#xe271;" horiz-adv-x="459" 
d="M72 596h57v-542h274v-54h-331v596zM324 322q0 21 14 34.5t35 13.5q23 0 36 -13.5t13 -34.5t-13 -35t-36 -14t-36 14t-13 35z" />
    <glyph glyph-name="ldot.smcp" unicode="&#xf634;" horiz-adv-x="459" 
d="M72 596h57v-542h274v-54h-331v596zM324 322q0 21 14 34.5t35 13.5q23 0 36 -13.5t13 -34.5t-13 -35t-36 -14t-36 14t-13 35z" />
    <glyph glyph-name="lslash.smcp" unicode="&#xe272;" horiz-adv-x="469" 
d="M20 281l69 29v286h57v-262l179 76v-50l-179 -76v-230h274v-54h-331v260l-69 -29v50z" />
    <glyph glyph-name="lslash.smcp" unicode="&#xf6f9;" horiz-adv-x="469" 
d="M20 281l69 29v286h57v-262l179 76v-50l-179 -76v-230h274v-54h-331v260l-69 -29v50z" />
    <glyph glyph-name="nacute.smcp" unicode="&#xe276;" horiz-adv-x="630" 
d="M72 596h63l366 -507v507h57v-596h-61l-368 509v-509h-57v596zM409 803h75l-140 -155h-54z" />
    <glyph glyph-name="nacute.smcp" unicode="&#xf653;" horiz-adv-x="630" 
d="M72 596h63l366 -507v507h57v-596h-61l-368 509v-509h-57v596zM409 803h75l-140 -155h-54z" />
    <glyph glyph-name="ntilde.smcp" unicode="&#xe279;" horiz-adv-x="630" 
d="M72 596h63l366 -507v507h57v-596h-61l-368 509v-509h-57v596zM144 660q0 50 26 79t67 29q25 0 45.5 -9t40.5 -21l36.5 -21t35.5 -10q23 0 36.5 14t13.5 44h46q0 -51 -24.5 -80t-70.5 -29q-29 0 -51.5 11.5t-42.5 23.5l-32 18.5t-33 8.5q-20 0 -33 -14.5t-13 -43.5h-47z
" />
    <glyph glyph-name="ncaron.smcp" unicode="&#xe27a;" horiz-adv-x="630" 
d="M72 596h63l366 -507v507h57v-596h-61l-368 509v-509h-57v596zM176 806h59l81 -114l84 114h59l-118 -155h-48z" />
    <glyph glyph-name="ncaron.smcp" unicode="&#xf654;" horiz-adv-x="630" 
d="M72 596h63l366 -507v507h57v-596h-61l-368 509v-509h-57v596zM176 806h59l81 -114l84 114h59l-118 -155h-48z" />
    <glyph glyph-name="ncommaaccent.smcp" unicode="&#xe27d;" horiz-adv-x="630" 
d="M72 596h63l366 -507v507h57v-596h-61l-368 509v-509h-57v596zM255 -259l43 204h55l-58 -204h-40z" />
    <glyph glyph-name="ncommaaccent.smcp" unicode="&#xf655;" horiz-adv-x="630" 
d="M72 596h63l366 -507v507h57v-596h-61l-368 509v-509h-57v596zM255 -259l43 204h55l-58 -204h-40z" />
    </font>
</defs>
</svg>
